#TITLE:Do U Love Me;
#SUBTITLE:;
#ARTIST:DJ Doo;
#TITLETRANSLIT:;
#SUBTITLETRANSLIT:;
#ARTISTTRANSLIT:;
#GENRE:;
#CREDIT:;
#MUSIC:Do U Love Me.ogg;
#BANNER:Do U Love Me.png;
#BACKGROUND:Do U Love Me-bg.png;
#CDTITLE:;
#SAMPLESTART:36.020;
#SAMPLELENGTH:13.180;
#SELECTABLE:YES;
#OFFSET:-0.007;
#BPMS:0.000=132.998;
#STOPS:;
#BGCHANGES:;
#FGCHANGES:;

//--------------- dance-single - K. Ward ----------------
#NOTES:
     dance-single:
     K. Ward:
     Beginner:
     2:
     0.108698,0.158031,0.050168,0,0,91,85,6,0,0,0,0.108698,0.158031,0.050168,0,0,91,85,6,0,0,0:
0000
0000
0000
0000
,
0000
0000
0000
0000
,
1000
0000
0001
0000
,
1000
0000
0000
0000
,
0010
0000
0000
0000
,
0000
0000
0000
0000
,
0100
0000
0001
0000
,
0010
0000
0000
0000
,
0001
0000
0000
0000
,
1000
0000
0000
0000
,
0001
0000
0000
0000
,
0100
0000
0000
0000
,
0010
0000
0000
0000
,
1000
0000
1000
0000
,
0001
0000
0000
0000
,
0010
0000
0010
0000
,
0001
0000
0000
0000
,
1000
0000
0010
0000
,
0100
0000
0000
0000
,
1001
0000
0000
0000
,
1000
0000
0000
0000
,
0010
0000
0000
0000
,
0100
0000
0100
0000
,
0001
0000
0000
0000
,
1000
0000
0000
0000
,
0010
0000
0000
0000
,
0100
0000
0010
0000
,
1000
0000
0000
0000
,
0001
0000
0000
0000
,
1000
0000
0000
0000
,
0001
0000
0100
0000
,
1001
0000
0000
0000
,
1000
0000
0001
0000
,
0010
0000
0000
0000
,
0001
0000
1000
0000
,
0010
0000
0000
0000
,
0100
0000
0100
0000
,
0010
0000
0010
0000
,
1000
0000
0000
0000
,
1001
0000
0000
0000
,
0010
0000
0000
0000
,
0001
0000
0000
0000
,
1000
0000
0010
0000
,
0100
0000
0000
0000
,
0001
0000
0000
0000
,
1000
0000
0000
0000
,
0010
0000
0010
0000
,
0100
0000
0100
0000
,
0001
0000
0000
0000
,
1000
0000
0000
0000
,
0010
0000
0000
0000
,
0100
0000
0000
0000
,
0001
0000
1000
0000
,
0001
0000
1000
0000
,
1001
0000
0000
0000
,
1001
0000
0000
0000
,
1000
1000
0000
0000
,
0001
0001
0000
0000
,
0100
0100
0000
0000
,
0010
0010
0000
0000
,
1000
0000
0001
0000
,
0010
0000
0001
0000
,
0100
0000
0010
0000
,
1001
0000
0000
0000
;

//--------------- dance-single - K. Ward ----------------
#NOTES:
     dance-single:
     K. Ward:
     Easy:
     4:
     0.166034,0.237046,0.075253,0.050168,0,139,130,9,6,0,0,0.166034,0.237046,0.075253,0.050168,0,139,130,9,6,0,0:
0000
0000
0000
0000
,
0000
0000
0000
0000
,
0010
0000
0100
0000
,
0001
0000
0000
0000
,
1000
0000
0000
0000
,
0100
0000
0000
0000
,
1000
0000
0000
0000
,
0001
0001
0001
0000
,
0100
0000
0010
0000
,
0100
0000
1000
0000
,
0100
0000
0010
0000
,
1000
1000
1000
0000
,
1001
0000
0100
0000
,
0010
0000
1000
0000
,
0001
0000
0010
0000
,
0001
0001
0001
0000
,
1000
0010
0100
0001
,
0010
0100
0010
0100
,
1000
0000
0001
0000
,
1001
0000
0000
0000
,
0100
0000
0010
0000
,
0010
0000
0100
0000
,
0001
0000
0001
0000
,
1000
0000
1000
0000
,
0100
0000
0010
0000
,
0010
0000
0100
0000
,
1000
0000
0001
0000
,
1001
0000
0000
0000
,
0100
0100
0000
0000
,
0010
0010
0000
0000
,
0001
0001
0000
0000
,
1001
0000
0000
0000
,
0200
0000
0000
0000
,
0320
0000
0000
0000
,
2030
0000
0000
0000
,
3002
0000
0000
0000
,
1003
0000
1000
0000
,
0001
0000
0001
0000
,
0010
0000
0100
0000
,
1001
0000
0000
0000
,
1000
0000
0001
0000
,
0001
0000
1000
0000
,
0100
0000
0100
0000
,
0010
0000
0010
0000
,
0001
0000
1000
0000
,
1000
0000
0001
0000
,
0100
0000
0010
0000
,
1001
0000
0000
0000
,
0010
0010
0010
0000
,
0100
0100
0100
0000
,
0001
0001
0001
0000
,
1000
0010
0100
0001
,
0001
0000
1000
0000
,
0100
0010
0100
0010
,
1001
0000
0000
0000
,
0220
0000
0330
0000
,
0001
1000
1000
0000
,
1000
0001
0001
0000
,
0100
0010
1000
0000
,
0010
0100
0001
0000
,
1000
0001
0001
0000
,
0001
1000
1000
0000
,
0100
0010
0100
0010
,
1001
0000
0000
0000
;

//--------------- dance-single - K. Ward ----------------
#NOTES:
     dance-single:
     K. Ward:
     Medium:
     6:
     0.219786,0.292597,0.108698,0.108698,0,184,171,13,13,0,0,0.219786,0.292597,0.108698,0.108698,0,184,171,13,13,0,0:
0000
0000
0000
0000
,
0000
0000
0000
0000
,
0011
0000
1100
0000
,
1001
0000
0000
0000
,
0200
0000
0000
0000
,
0300
0000
0000
0000
,
1000
0000
0001
0000
,
0100
0010
0100
0100
,
1001
0010
0100
0010
,
0001
0000
0010
0000
0100
0000
0000
0001
,
0000
0001
0000
0000
0000
0000
0000
1000
,
0000
1000
0000
0000
0000
0000
0000
0000
,
1001
0100
0010
1000
,
0100
0010
0100
0000
1010
0000
0000
0000
,
0000
0010
0100
0100
,
0001
0010
0100
0000
0010
0000
0101
0000
,
0000
1000
0000
0001
,
0000
1000
0000
0010
,
0101
0000
0110
0000
,
2002
0000
3003
0000
,
1000
0000
0000
0001
0000
0000
0000
0000
,
0001
0000
0000
1000
0000
0000
0000
0000
,
0010
0100
0001
0010
,
0100
0000
0000
0100
0000
0000
0000
0000
,
1000
0000
0000
0001
0000
0000
0000
0000
,
0010
0000
0000
0001
0000
0000
0000
0000
,
0010
0100
0001
0000
,
1000
0000
0000
0001
0000
0010
0000
2002
,
0000
0000
3003
0000
,
0010
0100
0001
0010
,
0001
0000
1000
0000
,
0001
0000
0000
0000
,
0100
0200
0000
0010
,
0000
0010
0000
0310
,
0000
0000
0010
0100
0001
0000
0001
0000
,
0010
0001
1000
1000
,
0000
0100
1000
0100
,
0010
0000
0100
0000
0010
0000
0000
0100
,
0000
0100
0000
0000
0000
0000
0000
0000
,
0022
0000
0033
0000
,
1000
0100
0010
0000
0010
0000
0000
0000
,
0001
1000
0001
0000
0001
0000
0000
0000
,
0100
0010
0100
1000
,
0100
0000
0000
1001
0000
0000
0000
0000
,
0100
0000
1000
0100
0000
0000
0000
0000
,
0010
0000
0100
0010
0000
0000
0000
0000
,
0001
0000
1000
0000
,
0010
0000
0100
0001
0000
0010
0000
0002
,
0000
0000
0000
0000
0000
0000
0000
0000
0000
0000
0000
0000
0000
0000
0000
0000
0000
0000
0000
0000
0000
0000
0000
0000
0000
0000
0000
0000
0000
0000
0000
0000
0000
0000
0000
0000
0000
0000
0000
0000
0000
0000
0000
0000
0000
0000
0000
0000
0000
0000
0000
0000
0000
0000
0000
0003
0000
0000
0000
0000
0000
0000
0000
0000
0000
0000
0000
0000
0000
0000
0000
0000
0000
0000
0000
0000
0000
0000
0000
0000
0000
0000
0000
0000
0000
0000
0000
0000
0000
0000
0000
0000
0000
0000
0000
0000
,
1000
0000
0100
0010
0000
0100
0000
2000
,
0000
0000
0000
0000
0000
0000
0000
0000
0000
0000
0000
0000
0000
0000
0000
0000
0000
0000
0000
0000
0000
0000
0000
0000
0000
0000
0000
0000
0000
0000
0000
0000
0000
0000
0000
0000
0000
0000
0000
0000
0000
0000
0000
0000
0000
0000
0000
0000
0000
0000
0000
0000
0000
0000
0000
3000
0000
0000
0000
0000
0000
0000
0000
0000
0000
0000
0000
0000
0000
0000
0000
0000
0000
0000
0000
0000
0000
0000
0000
0000
0000
0000
0000
0000
0000
0000
0000
0000
0000
0000
0000
0000
0000
0000
0000
0000
,
0010
0000
0100
0001
0000
0010
0000
0002
,
0000
0000
1003
0000
,
0010
0100
0001
0010
,
0002
0000
1003
0000
,
2000
0000
3001
0000
,
0010
0100
0010
0000
0100
0000
0100
0000
,
0001
1000
0001
0000
0010
0000
0010
0000
,
0100
0100
0100
0000
,
1000
0001
1000
1000
,
0010
0100
0001
0000
0001
0000
0000
0000
,
0010
0100
1000
0000
1000
0000
0000
0000
,
0010
0000
0100
0000
,
0001
0000
0010
0001
0000
0001
0000
0000
;

//--------------- dance-single - R. McKanna ----------------
#NOTES:
     dance-single:
     R. McKanna:
     Hard:
     9:
     0.370291,0.372396,0.17559,0.075253,0.012542,310,289,21,9,0,0,0.370291,0.372396,0.17559,0.075253,0.012542,310,289,21,9,0,0:
0000
0000
0000
0000
,
0000
0000
0000
0000
,
0000
0000
0000
0000
,
0000
0010
0001
0010
0100
0000
0001
0010
,
0100
1000
0100
0000
0001
0000
0100
0000
,
1000
0100
0010
0100
,
0000
1000
0100
1000
0010
0000
0100
1000
,
0010
0100
1000
0010
,
0000
0100
0001
0010
0100
0000
0001
0100
,
0001
0010
0100
0000
0100
0000
0001
0010
,
0000
0000
0100
0000
0000
0000
1000
0001
0000
0000
0100
0000
0000
0000
0001
1000
,
0000
0000
0100
0000
0000
0000
1000
0001
0000
0000
0100
0000
0000
0000
0000
0000
,
0100
0010
0100
0001
1000
0000
1000
0001
,
0100
0010
0100
0000
1001
0000
0000
0000
,
0010
0100
0010
1000
0001
0000
0001
1000
,
0010
0100
0010
0100
,
1000
0100
1000
0001
0010
0000
0010
0001
,
1000
0100
1000
0000
1000
0000
0001
0010
,
0000
0100
0000
0010
0000
0001
0000
0000
,
1010
0000
0100
0010
0000
0101
0000
0000
,
0010
1000
0100
0001
0000
0001
0000
0000
,
0010
0001
0100
1000
0000
1000
0000
0100
,
0001
1000
1000
0100
,
0101
0000
0010
0100
0000
1010
0000
0000
,
0010
1000
0100
1000
0000
0001
0000
0000
,
0100
1000
0010
1000
0000
0001
0000
0001
,
0100
0001
0001
0100
,
1010
0000
0100
0010
0000
0001
0000
0002
,
0000
1000
0100
0013
,
1001
0000
0100
0001
0100
0010
1000
0000
,
0100
0000
0001
1000
0010
0000
0100
0000
,
0001
0100
0010
0100
0010
0000
0010
1000
,
0100
0010
0002
0000
0000
0003
0200
0000
,
0000
0300
0020
0000
0000
0030
2000
0000
,
0000
3100
0010
0100
1000
0000
0010
0100
,
1000
0010
0100
0001
,
0000
0100
0001
0100
0010
0000
0010
0100
,
1000
0100
1000
0000
0100
0000
0010
1000
,
0000
1001
0000
0010
0000
1001
0000
0010
,
1001
0000
0100
0010
0000
1001
0000
0000
,
0100
0001
0010
1000
0000
1000
0000
0000
,
0100
1000
0010
0001
0000
0001
0000
0010
,
1000
0001
0001
0010
,
1010
0000
0100
0010
0000
0101
0000
0000
,
0010
0001
0100
0001
0000
1000
0000
0000
,
0100
0001
0010
0001
0000
1000
0000
1000
,
0100
1000
1000
0010
,
0101
0000
0010
0100
0000
1000
0000
2000
,
0000
0000
0100
3010
,
1001
0000
0100
0001
0000
0100
0000
0200
,
0000
0000
1000
0310
,
0101
0000
0010
1000
0000
0100
0000
0002
,
0000
0000
0100
1003
,
0110
0000
0100
0010
0000
0100
0000
0020
,
0000
0000
1000
0100
,
0001
0130
1000
0100
,
0010
0001
0100
1000
0000
1000
0000
0000
,
0010
1000
0100
0001
0000
0001
0000
0100
,
1000
0001
0001
0100
,
1100
0000
0010
0100
0000
0011
0000
0000
,
0100
0001
0010
0001
0000
1000
0000
0000
,
0010
0001
0100
0001
0000
1000
0000
1000
,
0010
1000
1000
0100
,
0011
0000
0100
0010
0000
1100
0000
0000
;

//--------------- dance-single - M. Puls ----------------
#NOTES:
     dance-single:
     M. Puls:
     Challenge:
     15:
     0.764472,0.783517,0.326095,0.259204,0.836141,640,601,39,31,16,0,0.764472,0.783517,0.326095,0.259204,0.836141,640,601,39,31,16,0:
0000
0000
0000
0000
,
0000
0000
0000
0000
,
0000
0000
0000
0000
,
0100
0000
0010
0000
0001
0100
0010
0000
0100
0000
0000
0001
1000
0100
0010
0000
,
0100
0010
0001
0000
0100
0000
0000
0100
0001
0000
1000
0001
0100
0000
0000
0100
,
0001
0000
0000
1000
0100
0000
0000
0100
0010
0000
0000
0010
0001
0000
0000
0000
,
0000
0000
1000
0000
0100
0010
0001
0000
1000
0000
0010
0000
1000
0010
0100
0000
,
0001
0000
0000
0001
0010
0000
0000
0010
0100
0000
0000
0100
1000
0000
0000
0000
,
0000
0000
0001
0000
0001
1000
0010
0000
0100
0000
0000
0100
0001
0010
0100
0000
,
1000
0100
0010
0000
0100
0000
0000
1000
0100
0000
0000
0100
1000
0100
0010
0000
,
0000
0000
0100
0000
0000
0000
1000
0001
1000
0000
0020
0000
0130
0000
0001
1000
,
0001
0000
0200
0000
0310
0000
1000
0001
1000
0000
0020
0000
0130
0000
0000
0000
,
0001
1000
0100
0000
0010
0100
1000
0000
1000
0000
0000
0100
1000
0100
0010
0000
,
0100
1000
0001
0000
0100
0000
0000
0000
1001
0000
0000
0000
0010
0000
0100
0000
,
0010
1000
0100
0000
0010
0100
1000
0000
0001
0000
0100
0010
1000
0100
0010
0000
,
0001
0000
0000
0000
0010
0000
0001
0000
0100
0000
0000
0000
0010
0000
0000
1000
0100
0000
0000
0000
0010
0000
0000
0001
0100
0000
0000
0000
0010
0000
1000
0000
,
0100
0000
0010
0000
0001
0100
0010
0000
0100
0000
0000
0100
0010
0100
0001
0000
,
1000
0010
0100
0000
0001
0000
0000
0001
1000
0000
0000
1000
0001
0100
0010
0000
,
0000
0000
0100
0001
1000
0000
0010
1000
0001
0000
1000
0000
0100
1000
0100
1000
,
0200
0300
1100
0011
1000
0101
0000
0000
,
0010
1000
0001
0000
1000
0000
0000
0000
0100
0000
0010
0000
0001
0000
0000
0000
1000
0000
0100
0000
1000
0000
0000
0000
0001
0000
0100
0000
0001
0000
0000
0000
,
0010
0001
1000
0000
0001
0000
0000
0000
0010
0000
0100
0000
1000
0000
0000
0000
0001
0000
0100
0000
0001
0000
0000
0000
1000
0000
0100
0000
1000
0000
0000
0000
,
0001
0000
0000
0000
0000
0000
0001
0000
1000
0000
0000
0000
0000
0000
0100
0000
1000
0000
0000
0000
0000
0000
1000
0000
0100
0000
0000
0000
0000
0000
0000
M0M0
,
0202
0000
0000
0000
0003
0000
0000
0000
0310
0000
1000
0000
0100
0000
0000
0000
0000
0000
0000
0M0M
2020
0000
0000
0000
3030
0000
0000
0000
0000
0000
0000
0000
,
0010
1000
0001
0000
1000
0000
0000
0000
0100
0000
0010
0000
0001
0000
0000
0000
1000
0000
0100
0000
1000
0000
0000
0000
0001
0000
0100
0000
0001
0000
0000
0000
,
0010
0001
1000
0000
0001
0000
0000
0000
0010
0000
0100
0000
1000
0000
0000
0000
0001
0000
0100
0000
0001
0000
0000
0000
1000
0000
0100
0000
1000
0000
0000
0000
,
0001
0000
0000
0000
0000
0000
0001
0000
1000
0000
0000
0000
0000
0000
0100
0000
1000
0000
0000
0000
0000
0000
1000
0000
0100
0000
0000
0000
0000
0000
0000
0M0M
,
2020
0000
3000
0000
0130
0001
0010
0000
1100
0000
0010
0000
0011
0000
0100
0000
,
1000
0010
0100
0010
1000
0001
0010
0000
0001
0100
0010
0100
0001
1000
0100
0000
,
0100
1000
0001
0000
0010
0001
1000
0000
0110
0000
1001
0000
0010
0100
0010
0000
,
1001
0000
0110
0000
0001
1000
0001
0000
1001
0000
0220
0000
0330
0000
1001
0000
,
0110
0000
1000
0010
1000
0001
1000
0100
0010
0001
0100
0010
1000
0001
0010
0000
,
0000
0000
0100
1000
0200
0000
0300
0000
0000
0000
0010
0001
0020
0000
0030
0000
,
0000
0000
0001
1000
0002
0000
0003
0000
1000
0000
0000
0000
0001
0000
0100
0000
,
0010
1000
0100
0000
0010
0000
0000
0001
1000
0000
0100
0000
1000
0000
0100
1000
,
0010
0000
0000
0000
0100
0000
0000
0001
0010
0000
0000
0000
0100
0000
0000
1000
0010
0000
0000
0000
0100
0000
0001
0000
0010
0000
0000
0000
0100
0000
0000
0000
,
1000
0010
0100
0000
0100
0000
0000
0100
0010
0100
0001
0010
0100
0000
1000
0000
,
0001
0100
0010
0000
1000
0000
0000
1000
0001
0000
0000
0001
1000
0010
0100
0000
,
0000
0000
0010
1000
0001
0000
0100
0001
1000
0000
0001
0000
0010
0001
0010
0001
,
0020
0030
0011
1100
0001
1010
0000
0000
,
0100
0001
1000
0000
0001
0000
0000
0000
0010
0000
0100
0000
1000
0000
0000
0000
0001
0000
0010
0000
0001
0000
0000
0000
1000
0000
0010
0000
1000
0000
0000
0000
,
0100
1000
0001
0000
1000
0000
0000
0000
0100
0000
0010
0000
0001
0000
0000
0000
1000
0000
0010
0000
1000
0000
0000
0000
0001
0000
0010
0000
0001
0000
0000
0000
,
1000
0000
0000
0000
0000
0000
1000
0000
0001
0000
0000
0000
0000
0000
0010
0000
0001
0000
0000
0000
0000
0000
0001
0000
0010
0000
0000
0000
0000
0000
0000
0M0M
,
2020
0000
0000
0000
3000
0000
0000
0000
0130
0000
0001
0000
0010
0000
0000
0000
0000
0000
0000
M0M0
0202
0000
0000
0000
0303
0000
0000
0000
0000
0000
0000
0000
,
0100
0001
1000
0000
0001
0000
0000
0000
0010
0000
0100
0000
1000
0000
0000
0000
0001
0000
0010
0000
0001
0000
0000
0000
1000
0000
0010
0000
1000
0000
0000
0000
,
0100
1000
0001
0000
1000
0000
0000
0000
0100
0000
0010
0000
0001
0000
0000
0000
1000
0000
0010
0000
1000
0000
0000
0000
0001
0000
0010
0000
0001
0000
0000
0000
,
1000
0000
0000
0000
0000
0000
1000
0000
0001
0000
0000
0000
0000
0000
0010
0000
0001
0000
0000
0000
0000
0000
0001
0000
0010
0000
0000
0000
0000
0000
0000
M0M0
,
0202
0000
0003
0000
0310
1000
0100
0000
0011
0000
0100
0000
1100
0000
0010
0000
,
0001
0100
0010
0100
0001
1000
0100
0000
1000
0010
0100
0010
1000
0001
0100
0000
,
0010
1000
0001
0000
0100
0001
1000
0000
0110
0000
1001
0000
0100
0010
0100
0000
,
1000
0010
0100
0010
1000
0001
0010
0000
0001
0100
0010
0100
0001
1000
0100
0000
,
0010
0001
1000
0000
0100
1000
0001
0000
0110
0000
1001
0000
0010
0100
0010
1000
,
0001
1000
0110
0001
1001
1000
0001
1000
,
1001
0010
0110
0100
1001
0110
1000
0100
,
1000
0000
0100
0000
1000
0000
0001
0000
0010
0000
0001
0000
0010
0000
0001
1000
,
0001
1000
0001
1000
0001
1000
0001
0000
1001
0000
1000
0000
1001
0000
0002
0000
,
2003
0000
3000
0000
0100
0010
0001
0000
0001
0010
0001
0000
1000
0010
1000
0000
,
0100
1000
0001
0000
1000
0000
0000
0000
0100
0000
0010
0000
0001
0000
0000
0000
1000
0000
0010
0000
1000
0000
0000
0000
0001
0000
0010
0000
0001
0000
0000
0000
,
1000
0000
0000
0000
0000
0000
1000
0000
0001
0000
0000
0000
0000
0000
0010
0000
0001
0000
0000
0000
0000
0000
0001
0000
0010
0000
0000
0000
0000
0000
0000
M00M
,
0220
0000
0000
0000
0300
0000
0000
0000
0130
0000
0001
0000
1000
0000
0000
0000
0000
0000
0000
M00M
0220
0000
0000
0000
0330
0000
0000
0000
0000
0000
0000
0000
,
1000
0100
0010
0000
0001
0010
0100
0000
1000
0001
0100
0000
0001
1000
0100
0000
,
1000
0000
0100
0000
1000
0000
0001
0000
0010
0000
0001
0000
0010
0000
0001
1000
,
0010
1000
0001
1000
0001
1000
0010
1000
0001
1000
0001
1000
0010
1000
0100
0010
,
0100
0010
0001
1000
0100
0000
0020
0000
0030
0000
0100
0000
0000
0000
0020
0000
,
0030
0100
0000
0020
0030
0100
0000
0000
;

//--------------- dance-double - M. Emirzian ----------------
#NOTES:
     dance-double:
     M. Emirzian:
     Easy:
     2:
     0.138561,0.159912,0.016723,0.066891,0,116,114,2,8,0,0,0.138561,0.159912,0.016723,0.066891,0,116,114,2,8,0,0:
00000000
00000000
00000000
00000000
,
00000000
00000000
00000000
00000000
,
00100000
00000000
00001000
00000000
,
00010000
00000000
00000000
00000000
,
00000200
00000000
00000300
00000000
,
00000020
00000000
00000030
00000001
,
00000100
00000000
00000000
00000000
,
00000020
00000000
00000030
00010000
,
00001000
00000000
01000000
00000000
,
00100000
00000000
00000000
00000000
,
10010000
00000000
00000000
00000000
,
00100000
00000000
00001000
00000000
,
00010000
00000000
00000000
00000100
,
00000010
00000000
00000001
00000000
,
00000002
00000000
00000003
00000100
,
00000010
00000000
00010000
00000000
,
00001000
00000000
02000000
00000000
,
03000000
00100000
10000000
00000000
,
00000000
01000000
00000000
01000000
,
00000000
00100000
00001000
00000000
,
00010000
00000000
00001000
00000000
,
00010000
00000000
00000010
00000000
,
00000000
00000100
00000000
00000001
,
00000000
00001000
00000000
00001000
,
00000100
00000000
00010000
00000000
,
00001000
00000000
01000000
00000000
,
00100000
00000000
10000000
00000000
,
00010000
00000000
00000000
01000000
,
00100000
00000000
00000000
00000000
,
10010000
00000000
00000000
00000000
,
00100000
00000000
00001000
00000000
,
00010000
00000000
00000000
00000000
,
00000200
00000000
00000300
00000010
,
00000001
00000000
00000000
00000000
,
00000100
00000000
00000010
00000000
,
00010000
00001000
00001000
00000000
,
00000000
01000000
00000000
00010000
,
00000000
10000000
00000000
00000000
,
01000000
00000000
00100000
00000000
,
00001000
00000000
00010000
00000000
,
00000100
00000000
00000010
00000000
,
00000001
00000000
00000100
00000000
,
00000000
00000100
00000000
00000010
,
00000000
00010000
00000000
00001000
,
01000000
00000000
00010000
00000000
,
10000000
00000000
00100000
00000000
,
00000000
01000000
00000000
00010000
,
00000000
00100000
00000000
01000000
,
00000000
10000000
00000000
10000000
,
00000000
00010000
00000000
00010000
,
00000000
00100000
00000000
00100000
,
00000000
00001000
00000000
00001000
,
00000000
00010000
00000000
00010000
,
00000000
00000010
00000000
00000000
,
00000100
00000001
00000000
00000100
,
00001000
00020000
00000000
00000000
,
01030000
00000000
00010000
00000000
,
00001000
00000000
01000000
00000000
,
00000000
00100000
00000000
10000000
,
00000000
01000000
00000000
00100000
,
00001000
00000000
00010000
00000000
,
00000010
00000000
00000100
00000000
,
00000000
00000001
00000000
00000100
,
00000020
00000000
00000000
00000030
;

//--------------- dance-double - M. Emirzian ----------------
#NOTES:
     dance-double:
     M. Emirzian:
     Medium:
     4:
     0.254426,0.345117,0.016723,0.066891,0,213,211,2,8,0,0,0.254426,0.345117,0.016723,0.066891,0,213,211,2,8,0,0:
00000000
00000000
00000000
00000000
,
00000000
00000000
00000000
00000000
,
10000000
00000000
00010000
00000000
,
01000000
00100000
00100000
10000000
,
02000000
00000000
03100000
00002000
,
00010000
00003000
00000010
00000000
,
00000100
00000000
00000100
00000000
,
00000001
00000100
00001000
00000000
,
00001000
00000000
00000100
00000000
00000001
00000000
00000000
00002000
,
00000000
00000100
00000000
00000000
00003000
00000000
00000000
00020000
,
00000000
00001000
00000000
00000000
00030000
00000000
00000000
00200000
,
00000000
01000000
00000000
00000000
00300000
00000000
01000000
00000000
,
10010000
01000000
00000000
00100000
,
00001000
00010000
00100000
00000000
,
00010000
00000000
00001000
00000000
,
00010000
00001000
00000010
00000000
,
00000001
00000000
00000100
00000000
,
00000000
00000010
00010000
00001000
,
00010000
00001000
00010000
00000000
00100000
00000000
00000000
00000000
,
10000000
00010000
10000000
00000000
02000000
00000000
00000000
00000000
,
03100000
00001000
00010000
00010000
,
00000100
00001000
00000010
00000010
,
00000000
00000100
00000001
00000100
,
00000010
00001000
00000010
00001000
,
00000100
00010000
00001000
00001000
,
00100000
01000000
10000000
10000000
,
00000000
01000000
00100000
01000000
,
10000000
01000000
10000000
01000000
,
01000000
00100000
00001000
00010000
,
00001000
00001000
00010000
00000100
,
00000010
00000010
00000001
00000100
,
00000010
00000000
00000100
00000000
,
00001000
00010000
01000000
00000000
,
00010000
00000000
00001000
00000000
,
00000010
00000000
00001000
00000000
,
00010000
00100000
10000000
00000000
,
01000000
00100000
00010000
10000000
,
01000000
00100000
00000000
00001000
,
00010000
00000000
00000100
00000000
,
00001000
00000010
00000020
00000000
,
00000130
00000001
00000010
00000010
,
00000100
00010000
00001000
00001000
,
00000000
01000000
00100000
01000000
,
00010000
01000000
00010000
01000000
,
00100000
10000000
01000000
01000000
,
00100000
00001000
00010000
00010000
,
00000000
00000100
00010000
00000100
,
00001000
00000010
00001000
00000010
,
00000010
00000100
00000001
00000100
,
00000010
00000010
00010000
00001000
,
00010000
00010000
01000000
10000000
,
00100000
00100000
01000000
00010000
,
01000000
00100000
10000000
00100000
,
01000000
00010000
01000000
00001000
,
00010000
00000000
00001000
00000000
00000100
00001000
00010000
00000000
,
01000000
00010000
00001000
00000000
00000100
00001000
00010000
00000000
,
00011000
00000010
00000001
00000001
,
00000010
00000100
00010000
00010000
,
00000000
00001000
01000000
00001000
,
00010000
00100000
00010000
00100000
,
10000000
01000000
00100000
00100000
,
00001000
00010000
00000010
00000010
,
00000000
00000000
00000100
00000000
00000001
00000000
00000010
00001000
,
00020000
01000000
01030000
00000000
;

//--------------- dance-double - M. Emirzian ----------------
#NOTES:
     dance-double:
     M. Emirzian:
     Hard:
     6:
     0.384625,0.42476,0.267565,0.033446,0.016723,322,290,32,4,0,0,0.384625,0.42476,0.267565,0.033446,0.016723,322,290,32,4,0,0:
00000000
00000000
00000000
00000000
,
00000000
00000000
00000000
00000000
,
00000000
00000000
00000000
00000000
,
10010000
00000000
00100000
00000000
01000000
00010000
01000000
00000000
,
00100000
10000000
00000000
01000000
,
00010000
00000000
00001000
00000000
,
00000010
00000000
00000001
00000000
,
00001000
00000000
00000100
00000000
00001000
00000100
00000001
00000000
,
00000100
00000000
00010000
00000000
00001000
00000000
00010000
01000000
,
10000000
00000000
10000000
01000000
00010000
00000000
01000000
00000000
,
10000000
00100000
01000000
00000000
00001000
00010000
00100000
00000000
,
00010000
00001000
00000010
00000000
00000001
00000000
00000100
00000000
,
00000010
00001000
00000100
00000000
00000100
00000000
00000001
00000100
,
00001000
00000000
00001000
00000100
00000001
00000000
00000100
00000000
,
00010000
00001000
00000100
00000000
00001000
00010000
00100000
00000000
,
10000000
01000000
00010000
00000000
20020000
00000000
30030000
00000000
,
01000000
00000000
00100000
00000000
00001000
00010000
01000000
00000000
,
00010000
00001000
00000100
00000010
,
00001000
00000100
00000001
00000000
00000001
00000100
00001000
00000000
,
00000010
00000000
00000100
00000000
00000010
00010000
00001000
00000000
,
00101000
00000000
00011000
00000000
00010000
00100000
10000000
00000000
,
01100000
00000000
01010000
00000000
10000000
01000000
00010000
00000000
,
00001000
00010000
00000100
00001000
,
00000010
00000000
00000100
00000000
00000001
00000100
00000010
00000000
,
00001010
00000000
00000110
00000000
00000100
00001000
00010000
00000000
,
01001000
00000000
00011000
00000000
00010000
01000000
10000000
00000000
,
00100000
01000000
00001000
00010000
,
00100000
00000000
10000000
00000000
01000000
00100000
00010000
00000000
,
01000000
00000000
00000000
00001000
00000000
00000000
00010000
00000000
00000100
00000000
00000000
00001000
00000000
00000000
00000010
00000000
,
00000100
00000000
00000000
00000010
00000000
00000000
00001000
00000000
00000100
00000000
00000000
00000010
00000000
00000000
00000100
00000000
,
00001000
00000001
00000100
00001000
,
00010000
00100000
00010000
00000000
00001000
00000000
00010000
01000000
,
10000000
00000000
00100000
00000000
01010000
00000000
10000000
00010000
,
10000000
01000000
00100000
00000000
,
00001000
00000000
00010000
00000000
00000100
00000000
00000010
00000001
,
00000100
00000000
00001010
00000000
00000100
00000001
00000100
00000000
,
00000010
00010000
00001000
00000100
,
00001000
00000000
00010000
00000000
01000000
10000000
00100000
00000000
,
01010000
00000000
00100000
00000000
,
02000000
10000000
00100000
13000000
,
00110000
00000000
10010000
00000000
10000000
01000000
00010000
00000000
,
00101000
00000000
00011000
00000000
00001000
00000010
00000001
00000000
,
00000100
00000010
00000100
00000001
,
00000100
00000000
00000010
00000000
00010000
00001000
00000010
00000000
,
00011000
00000000
00101000
00000000
00010000
01000000
10000000
00000000
,
01010000
00000000
10010000
00000000
10000000
00100000
00010000
00000000
,
00001000
00000010
00000100
00001000
,
00000010
00000000
00000100
00000000
00000001
00000010
00000100
00001000
,
00000010
00000000
00000100
00000000
00001000
00000100
00000001
00000000
,
00000010
00000100
00010000
00100000
,
10000000
00000000
00010000
01000000
10000000
01000000
00010000
00000000
,
10000000
01000000
00010000
00000010
,
00000100
00000000
00001000
00000000
00000100
00000001
00000010
00000000
,
00000100
00010000
00001000
00000000
00010100
00000000
00101000
00000000
,
00011000
00000000
00001000
00000000
00010000
00001000
00000100
00001000
,
00010000
01000000
00010000
00001000
00000100
00001000
00010000
00000000
,
01001000
00000000
01010000
00000000
10000000
01000000
00010000
00000000
,
00110000
00000000
10010000
00000000
10000000
01000000
00010000
00000000
,
00001000
00010000
00000100
00001000
,
00000010
00000000
00000100
00000000
00000001
00000010
00000100
00000000
,
00010100
00000000
00011000
00000000
00001000
00000100
00000001
00000000
,
00001100
00000000
00011000
00000000
00010000
00100000
10000000
00000000
,
01000000
00000000
00100000
00000000
00001000
00000000
00010000
00000010
,
00002000
00000001
00003001
00000000
;

//--------------- dance-double - M. Emirzian ----------------
#NOTES:
     dance-double:
     M. Emirzian:
     Challenge:
     9:
     0.510046,0.63714,0.267565,0.008361,0.196493,427,395,32,1,22,0,0.510046,0.63714,0.267565,0.008361,0.196493,427,395,32,1,22,0:
00000000
00000000
00000000
00000000
,
00000000
00000000
00000000
00000000
,
00000000
00000000
00000000
00000000
,
00000000
00000001
00000100
00001000
,
00010000
01000000
10000000
00000000
00100000
00000000
01000000
00000000
,
11000000
00010000
00100000
01000000
,
00010000
00001000
00000010
00000000
00001000
00000000
00010000
00100000
,
00010000
00001000
00000100
00000000
00000101
00000000
00000011
00000000
,
00001000
00010000
00100000
00000000
00010000
00000000
00001000
00000100
,
00001000
00010000
01000000
00000000
10000000
01000000
00010000
00000000
,
00011000
00000000
00100000
00000000
00010000
00001000
00000010
00000000
,
00001000
00000000
00000000
00000000
00011000
00000000
00000000
00000000
00010000
00000000
00000000
00000000
00100000
00000000
10000000
01000000
,
00000000
00000000
00011000
00000000
00000000
000MM000
00000010
00000001
00000000
00000000
00000101
00000000
00000000
00000M0M
00001000
00010000
,
00000000
00000000
01100000
00000000
00000000
0MM00000
00010000
00001000
00000000
00000000
00000101
00000000
00000000
00000M0M
00001000
00010000
,
00000000
00000000
10100000
00000000
00000000
M0M00000
00010000
00001000
00000000
00000000
00000101
00000000
00000000
00000M0M
00001000
00010000
,
00000000
00000000
00000110
00000000
00000000
00000MM0
00001000
00010000
00000000
00000000
10100000
00000000
00000000
M0M00000
00010000
00001000
,
00000000
00000000
01100000
00000000
00000000
0MM00000
00010000
00001000
00000000
00000000
00000101
00000000
00000000
00000M0M
00001000
00010000
,
00000000
00000000
01100000
00000000
00000000
0MM00000
00010000
00001000
00000000
00000000
00000110
00000000
00000001
00000000
00001000
00000000
,
00000110
00010000
01100000
00010000
,
00000110
00000000
00001000
00010000
00100000
00010000
00001000
00000000
,
00100000
00001000
00010000
00100000
00010000
00001000
00000010
00001000
,
00010000
01000000
10000000
00100000
00010000
00001000
00000010
00000000
,
00000001
00000100
00001000
00000000
00010000
00000000
00100000
00010000
,
00001000
00000000
00010000
00000000
01000000
10000000
00100000
00000000
,
00010000
00001000
00000010
00001000
00010000
00100000
00010000
00001000
,
00000010
00000001
00000100
00001000
00000100
00000001
00001000
00000000
,
00000100
00000010
00001000
00000000
00010000
00000000
01000000
00010000
,
00001000
00000000
00010000
00000000
00100000
00010000
00001000
00000000
,
00100000
00000000
01000000
10000000
00000000
00100000
00000000
00010000
00001000
00000000
00000010
00000001
00000000
00000100
00000000
00001000
,
00010000
00000000
01000000
10000000
00000000
01000000
00000000
00010000
00001000
00000000
00000100
00000001
00000000
00000010
00000100
00000010
,
00000001
00000000
00001000
00000010
00000000
00010000
00000000
00001000
00100000
00000000
00001000
00010000
00000000
00000100
00000000
00010000
,
00001000
00000010
00001000
00010000
00100000
00010000
00001000
00000100
,
00001000
00010000
01000000
00000000
10010000
00000000
10000000
01000000
,
00010000
00000000
01000000
10000000
00100000
00000000
00010000
00000000
,
00001000
00000010
00001000
00000000
00010000
00000000
01000000
00010000
,
00001000
00000100
00000001
00000000
00000011
00000000
00001010
00000000
,
00010000
00000000
01000000
00010000
00001000
00000000
00010000
00100000
,
10000000
00100000
00010000
00000000
00001000
00010000
01000000
00000000
,
11000000
00100000
01010000
00100000
,
00011000
00000000
00010010
00000000
00001000
00000100
00000010
00000000
,
00001000
00010000
00100000
00010000
00001000
00000010
00001000
00010000
,
01000000
00010000
00001000
00000010
00000001
00000100
00000010
00000000
,
00000100
00001000
00010000
00000000
01000000
00000000
00010000
00001000
,
00000010
00000000
00001000
00000000
00010000
00100000
10000000
00000000
,
01000000
00010000
00001000
00000100
00001000
00010000
01000000
00010000
,
00001000
00000010
00001000
00010000
00100000
10000000
00010000
00000000
,
00100000
01000000
10000000
00000000
01000000
00000000
00010000
00001000
,
00000010
00000000
00001000
00000000
00010000
00100000
10000000
01000000
,
00010000
01000000
10000000
00100000
00010000
00001000
00000010
00001000
,
00010000
00100000
00010000
00001000
00000010
00000001
00000100
00001000
,
00000100
00000001
00000010
00000100
00001000
00000010
00000100
00001000
,
00010000
01000000
00010000
00001000
00000100
00001000
00010000
01000000
,
10000000
00100000
00010000
00100000
10000000
01000000
00010000
01000000
,
11000000
00101000
00010010
00000101
,
00000011
00001000
00010000
00100000
00010000
00001000
00000010
00001000
,
00010000
00100000
00010000
00001000
00010000
00000000
00001000
00000100
00001000
00010000
01000000
00000000
00010000
00001000
00000010
00001000
,
00010000
00001000
00010000
01000000
10000000
00100000
00010000
00001000
,
00000010
00000001
00000100
00001000
00000100
00000001
00000010
00000000
,
00001000
00010000
00100000
00000000
00010000
00000000
00001000
00000010
,
00001000
00000000
00010000
00000000
00100000
10000000
01000000
00000000
,
10000000
00100000
00010000
00001000
00000010
00001000
00010000
00100000
,
10000000
01000000
00010000
01000000
10000000
00100000
00010000
00000000
,
00001000
00000010
00000001
00000000
00000100
00000000
00000010
00001000
,
00000200
00010000
00010300
00000000
;

//--------------- lights-cabinet - ----------------
#NOTES:
     lights-cabinet:
     :
     Easy:
     1:
     0.395375,0.452196,0.267565,0.108698,0.012542,331,299,32,13,0,1,0.395375,0.452196,0.267565,0.108698,0.012542,331,299,32,13,0,1:
00000000
00000000
00000000
00000000
,
00000000
00000000
00000000
00000000
,
10000000
01000000
00100000
00010000
00100000
01000000
10000000
01000000
,
00110000
00000000
10010000
00100000
01000000
00000000
00010000
00100000
,
01000000
10000000
01000000
00000000
00010000
00000000
01000000
00000000
,
10000000
01000000
00100000
01000000
,
00000000
10000000
01000000
10000000
00100000
00000000
01000000
10000000
,
00100000
01000000
10100000
01010000
,
00000000
01000000
00010000
00100000
01000000
00000000
00010000
01000000
,
00010000
00100000
01000000
00000000
01000000
00000000
00010000
00100000
,
00000000
00000000
01000000
00000000
00000000
00000000
10000000
00010000
00000000
00000000
01000000
00000000
00000000
00000000
00010000
10000000
,
00000000
00000000
01000000
00000000
00000000
00000000
10000000
00010000
00000000
00000000
01000000
00000000
00000000
00000000
00000000
00000000
,
01000000
00100000
01000000
00010000
10000000
00000000
10000000
00010000
,
01000000
00100000
01000000
00000000
10010000
00000000
11000000
00000000
,
00100000
01000000
00100000
10000000
00010000
00000000
00010000
10000000
,
00100000
01000000
00100000
01000000
,
10000000
01000000
10000000
00010000
00100000
00000000
00100000
00010000
,
10000000
01000000
10000000
00000000
10000000
00000000
00010000
00100000
,
00000000
01000000
00000000
00100000
00000000
00010000
11000000
00000000
,
10100000
00000000
01000000
00100000
00000000
01010000
00000000
00000000
,
00100000
10000000
01000000
00010000
00000000
10010000
00000000
00000000
,
00100000
00010000
01000000
10000000
00000000
10000000
00000000
01000000
,
00010000
10000000
10000000
01000000
,
01010000
00000000
00100000
01000000
00000000
10100000
00000000
00000000
,
00100000
10000000
01000000
10000000
00000000
00010000
00000000
00000000
,
01000000
10000000
00100000
10000000
00000000
00010000
00000000
00010000
,
01000000
00010000
00010000
01000000
,
10100000
00000000
01000000
00100000
00000000
00010000
00000000
00020000
,
00000000
10000000
01000000
00130000
,
10010000
00000000
01000000
00010000
01000000
00100000
10000000
00000000
,
01000000
00000000
00010000
10000000
00100000
00000000
01000000
00000000
,
00010000
01000000
00100000
01000000
00100000
00000000
00100000
10000000
,
01000000
00100000
20020000
00000000
00000000
30030000
02200000
00000000
,
00000000
03300000
20200000
00000000
00000000
30300000
20020000
00000000
,
00000000
31030000
00100000
01000000
10000000
00000000
00100000
01000000
,
10000000
00100000
01000000
00010000
,
00000000
01000000
00010000
01000000
00100000
00000000
00100000
01000000
,
10000000
01000000
10000000
00000000
01000000
00000000
00100000
10000000
,
00000000
10010000
00000000
00100000
00000000
10010000
00000000
00100000
,
10010000
00000000
01000000
00100000
00000000
10010000
00000000
00000000
,
01000000
00010000
00100000
10000000
00000000
10000000
00000000
00000000
,
01000000
10000000
00100000
00010000
00000000
00010000
00000000
00100000
,
10000000
00010000
00010000
00100000
,
10100000
00000000
01000000
00100000
00000000
01010000
00000000
00000000
,
00100000
00010000
01000000
00010000
00000000
10000000
00000000
00000000
,
01000000
00010000
00100000
00010000
00000000
10000000
00000000
10000000
,
01000000
10000000
10000000
00100000
,
01010000
00000000
00100000
01000000
00000000
10000000
00000000
20000000
,
00000000
00000000
01000000
30100000
,
10010000
00000000
01000000
00010000
00000000
01000000
00000000
02000000
,
00000000
00000000
10000000
03100000
,
01010000
00000000
00100000
10000000
00000000
01000000
00000000
00020000
,
00000000
00000000
01000000
10030000
,
01100000
00000000
01000000
00100000
00000000
01000000
00000000
00200000
,
00000000
00000000
10000000
01000000
,
00010000
01300000
10000000
01000000
,
00100000
00010000
01000000
10000000
00000000
10000000
00000000
00000000
,
00100000
10000000
01000000
00010000
00000000
00010000
00000000
01000000
,
10000000
00010000
00010000
01000000
,
11000000
00000000
00100000
01000000
00000000
00110000
00000000
00000000
,
01000000
00010000
00100000
00010000
00000000
10000000
00000000
00000000
,
00100000
00010000
01000000
00010000
00000000
10000000
00000000
10000000
,
00100000
10000000
10000000
01000000
,
00110000
00000000
01000000
00100000
00000000
11000000
00000000
00000000
;
