#TITLE:Depend On You;
#SUBTITLE:;
#ARTIST:Miyuki Kunitake;
#TITLETRANSLIT:;
#SUBTITLETRANSLIT:;
#ARTISTTRANSLIT:;
#GENRE:;
#CREDIT:;
#MUSIC:dependonyou.ogg;
#BANNER:dependonyou.png;
#BACKGROUND:dependonyou-bg.png;
#CDTITLE:;
#SAMPLESTART:0.000;
#SAMPLELENGTH:0.000;
#SELECTABLE:YES;
#OFFSET:-4.855;
#BPMS:0.000=127.960;
#STOPS:;
#BGCHANGES:;
#FGCHANGES:;

//--------------- dance-single - ----------------
#NOTES:
     dance-single:
     :
     Easy:
     3:
     0,0,0,0,0:
1000
0000
0010
0000
,
0200
0000
0000
0300
,
0001
0000
1000
0000
,
0010
0000
0100
0000
,
0001
0000
0010
0000
,
1000
0000
0220
0330
,
1001
0000
0100
0001
,
0010
0000
1000
0001
,
0100
0000
0001
1000
,
0010
0000
1000
0000
,
0001
0001
0001
0000
,
1000
1000
1000
0000
,
0010
0000
0100
0000
,
1000
0000
1000
0000
,
1000
0100
0100
0000
,
0001
0010
0010
0000
,
2000
3000
0002
0003
,
0110
0000
1000
0000
,
0001
0000
0100
0000
,
1000
0000
0001
0100
,
0100
0000
0010
0001
,
0100
0000
1000
0000
,
0110
0000
0001
0000
,
1001
0000
0100
0000
,
1000
1000
0001
0001
,
0100
0000
1000
0000
,
0010
0010
0100
0000
,
1000
0000
0001
0000
,
0010
0010
0010
0000
,
0100
0000
1000
0000
,
0001
0001
0001
0000
,
1000
0000
0010
0000
,
0100
0000
0001
0000
,
2000
3000
0020
0030
,
2002
0000
3003
0010
,
0100
0000
0100
0001
,
0100
0000
1000
0000
,
0001
0000
0010
0000
,
0100
0000
1000
0000
,
0010
0000
1000
0001
,
1000
0000
0010
0000
,
0001
0000
0110
0000
,
1000
0100
0010
0001
,
0110
0000
0001
0000
,
1000
1000
0001
0000
,
1001
0000
0010
0000
,
0000
0001
0000
0200
0000
0000
0000
0000
,
0000
0000
0300
0000
;

//--------------- dance-single - ----------------
#NOTES:
     dance-single:
     :
     Medium:
     8:
     0,0,0,0,0:
0010
0000
0000
1000
1000
0000
0001
0001
,
0000
1000
0002
0000
0003
0000
0000
0010
,
0100
0000
1000
0001
0000
0000
0000
1000
,
0010
0000
0100
0001
0000
0000
0010
0000
,
0011
0000
0010
0000
1010
0000
0100
0001
,
0000
0000
1000
0100
0010
0000
1001
0000
,
0001
0010
0100
1000
0000
0000
0010
0100
,
0000
0010
1000
0000
0000
0001
0001
0001
,
1000
0010
1000
0010
0000
0000
0100
0001
,
0000
1000
0001
1000
0000
0010
0000
0100
,
0002
0010
1000
0013
,
0200
1000
0010
1300
,
0010
0000
0100
0010
0000
0001
0000
1000
,
0010
0000
1000
0000
0110
0000
0001
0010
,
0100
0000
1000
0001
0000
1000
0000
0010
,
0100
0000
0001
1000
0000
0000
1000
0100
,
1000
0000
0010
0100
0000
0001
0000
0001
,
0000
0000
0000
0100
0010
0000
0100
0000
,
0010
0000
1000
0001
0000
1000
0010
0100
,
0001
0010
0200
2300
,
3002
0000
0000
0003
0010
0100
0000
0010
,
0000
0000
0000
0000
0000
0000
0000
0000
0001
0000
0000
0001
0000
0000
0001
0000
,
1000
0000
0010
0001
0000
0000
1001
0000
,
1000
0010
1000
0000
0001
0100
0001
0000
,
0010
0000
0000
0010
0000
0000
0010
0000
0100
0000
0000
0100
0000
0000
0100
0000
,
0001
0000
0000
0010
1000
0000
1001
0000
,
1000
0100
1000
0100
1000
0000
0000
0000
,
0001
0000
0000
0010
0100
0000
1000
0100
,
0000
1000
0100
0010
0000
0001
1000
0001
,
1000
0000
0000
0010
0100
0000
0001
1000
,
0000
0010
0001
0000
1010
0000
0000
0010
,
0001
0000
1000
0010
0000
0000
0000
0100
,
0001
0000
1000
0100
0010
0000
0001
0000
,
0010
0000
0100
0000
0001
0000
1000
0100
,
0010
0101
1010
0101
,
1000
0000
1000
0000
1000
0010
0000
0100
,
0000
0001
2000
3010
,
0200
0301
2000
3100
,
0020
0000
0031
0000
0100
0000
0001
1000
,
0001
0000
1001
0000
0100
0010
0000
1000
,
0000
0001
2000
3001
,
0020
0130
2000
3010
,
0200
0000
0301
0000
0000
1000
0001
1000
,
0010
0100
0010
1000
0000
0000
0010
0100
,
0000
0001
1000
0000
0000
1000
0100
0010
,
0001
0100
0001
0100
0000
0000
0010
1000
,
0000
0001
1000
0020
0000
0000
0000
0000
,
0000
0000
0030
0000
;

//--------------- dance-single - ----------------
#NOTES:
     dance-single:
     :
     Hard:
     11:
     0,0,0,0,0:
1001
0000
0100
0001
0020
0000
0130
1000
,
0000
0001
0220
0000
0000
0330
0000
1000
,
0200
0300
0100
0020
0000
0001
0030
0010
,
0002
0003
0001
2000
0000
0010
3000
0000
,
1001
1000
0200
0000
2300
0000
3010
0200
,
0000
0000
0000
0000
0301
0000
0010
0000
0100
0000
1000
0010
1000
0010
1000
0000
,
0100
0010
0001
1001
0000
0000
0010
0100
,
0000
1000
0001
0100
0010
1000
0010
0100
,
0001
0010
0100
1001
0000
0000
0100
1001
,
0000
0000
0010
0000
1000
0000
1010
0000
0000
0000
0001
0000
0100
0010
1000
0000
,
0100
0000
0001
0100
1000
0100
0010
1000
,
0010
0001
0010
1000
0000
0000
0010
1000
,
0001
0010
0100
1000
0001
0010
0100
1000
,
0100
0010
0100
0001
0100
0010
0100
1000
,
0001
0100
1000
0100
0001
0010
1000
0010
,
0001
0100
0010
1000
0000
0000
0001
0010
,
1100
0000
0010
0101
0000
1001
0000
1010
,
0000
1000
0000
0010
0200
0000
0302
0000
,
1003
0000
0100
0020
0000
0031
1000
0100
,
0010
0000
1010
0000
0001
0100
0001
0010
,
0001
0000
1000
0100
1000
0010
0000
0100
,
0001
0000
0000
0000
0110
0000
0000
0000
1000
0000
0000
0001
0000
0000
0010
0000
,
0100
1000
0010
0100
0000
1000
0010
1000
,
0001
0000
0000
0100
0000
0000
0010
0000
0000
0000
1000
0000
0010
0000
0001
0000
,
0010
0000
0000
1000
0000
0000
0001
0000
0010
0000
0000
0100
0000
0000
1000
0000
,
0020
0000
0000
0100
0130
0000
1001
0000
,
1000
0001
1000
0000
0010
0100
0010
0000
1001
0000
0100
0000
0001
0000
0010
0000
,
0100
0000
1000
0010
0001
0000
0010
1000
,
0000
0001
0010
0100
0000
0010
0100
0001
,
0100
0000
1000
0010
0100
0000
0001
0010
,
0000
0001
0100
0000
0010
0100
0010
1000
,
0020
0000
0130
0002
0000
1000
0000
0013
,
0200
0000
1300
0020
1000
0000
0100
0000
,
1030
0100
0011
0000
0100
1000
0001
1001
,
0000
0000
0000
0000
0001
0000
1000
0000
0001
0000
1000
0000
0010
0100
0010
0100
,
0010
0000
1010
0000
0101
1001
0000
1100
,
0000
0100
0010
1000
0001
0010
1000
0010
,
0001
0100
0010
1000
0100
0010
0001
0100
,
1000
0000
0100
0000
0001
0000
0000
0000
0110
0000
0000
0000
1000
0001
1000
0001
,
1000
0010
1000
0001
1000
1100
0000
0011
,
0000
0100
0010
0100
0001
0100
1000
0010
,
0100
0001
0010
0100
0000
0010
0100
0001
,
0010
0000
1000
0010
1000
0100
0010
0001
0000
0000
0100
0000
1000
0000
0100
0000
,
0001
0010
1000
0020
0001
0000
0031
0100
,
0000
0010
2000
0001
0000
3100
0010
0001
,
1000
0010
0100
0002
1000
0000
0013
0100
,
0000
1000
0001
0220
0000
0000
0000
0000
,
0000
0000
0330
0000
;
