#TITLE:Delirium;
#SUBTITLE:;
#ARTIST:☺;
#TITLETRANSLIT:;
#SUBTITLETRANSLIT:;
#ARTISTTRANSLIT:Smiley;
#GENRE:;
#CREDIT:;
#MUSIC:Delirium.ogg;
#BANNER:delirium.png;
#BACKGROUND:Delirium-bg.png;
#CDTITLE:;
#SAMPLESTART:64.820;
#SAMPLELENGTH:11.850;
#SELECTABLE:YES;
#OFFSET:-0.037;
#BPMS:0.000=163.000
,217.000=326.000
,219.000=163.000
;
#STOPS:208.000=0.368
,209.000=0.368
,210.000=0.368
,211.000=0.368
,216.000=0.368
,217.000=0.368
;
#BGCHANGES:;
#FGCHANGES:;

//--------------- dance-single - M. Puls ----------------
#NOTES:
     dance-single:
     M. Puls:
     Beginner:
     1:
     0.080896,0.159265,0.072807,0,0,70,61,9,0,0,0,0.080896,0.159265,0.072807,0,0,70,61,9,0,0,0:
0000
0000
0000
0000
,
0000
0000
0000
0000
,
0000
0000
0000
0000
,
0000
0000
0000
0000
,
1000
0000
0000
0000
,
0000
0000
0000
0000
,
0001
0000
0000
0000
,
0000
0000
0000
0000
,
0100
0000
0000
0000
,
0100
0000
0000
0000
,
0010
0000
0000
0000
,
0010
0000
0000
0000
,
1000
0000
0000
0000
,
0001
0000
0000
0000
,
0001
0000
0000
0000
,
1000
0000
0000
0000
,
1001
0000
0000
0000
,
0000
0000
0000
0000
,
1001
0000
0000
0000
,
0000
0000
0000
0000
,
1000
0000
0000
0000
,
0000
0000
0000
0000
,
0001
0000
0000
0000
,
0000
0000
0000
0000
,
0010
0000
0000
0000
,
0000
0000
0000
0000
,
0001
0000
0000
0000
,
0000
0000
0000
0000
,
1000
0000
0000
0000
,
0100
0000
0000
0000
,
0100
0000
0000
0000
,
1000
0000
0000
0000
,
0001
0000
0000
0000
,
0010
0000
0000
0000
,
0001
0000
0000
0000
,
1000
0000
0000
0000
,
1001
0000
0000
0000
,
0000
0000
0000
0000
,
0000
0000
0000
0000
,
0000
0000
0000
0000
,
0001
0000
0000
0000
,
0010
0000
0000
0000
,
0001
0000
0000
0000
,
1000
0000
0000
0000
,
0001
0000
0000
0000
,
0001
0000
0000
0000
,
1000
0000
0000
0000
,
1000
0000
0000
0000
,
0010
0000
0000
0000
,
0010
0000
0000
0000
,
0100
0000
0000
0000
,
0100
0000
0000
0000
,
1001
0000
0000
0000
,
0000
0000
0000
0000
,
1001
0000
0000
1000
,
0000
0000
0000
0000
,
0000
0000
0000
0001
,
0000
0000
0000
0000
,
0000
0000
0000
0100
,
0000
0000
0000
0010
,
0000
0000
0000
0010
,
0000
0000
0000
0100
,
0000
0000
0000
0001
,
0000
0000
0000
1000
,
0000
0000
0000
0001
,
0000
0000
0000
0010
,
0000
0000
0000
1001
,
0000
0000
0000
0100
,
0000
0000
0000
1001
,
0000
0000
0000
0010
,
0000
0000
0000
0100
,
0000
0000
0000
0001
,
0000
0000
0000
1000
,
0000
0000
0000
0100
,
0000
0000
0000
1001
,
0000
0000
0000
0000
,
0000
0000
0000
0100
,
0000
0000
0000
0010
,
0000
0000
0000
1001
;

//--------------- dance-single - K. Ward ----------------
#NOTES:
     dance-single:
     K. Ward:
     Easy:
     4:
     0.182595,0.222971,0.016179,0.064717,0,158,156,2,8,0,0,0.182595,0.222971,0.016179,0.064717,0,158,156,2,8,0,0:
0000
0000
0000
0000
,
0000
0000
0000
0000
,
0000
0000
0000
0000
,
0000
0000
0000
0000
,
1000
0000
0000
0000
,
0001
0000
0000
0000
,
1000
0000
0001
0000
,
1000
0000
0000
0000
,
0010
0000
1000
0000
,
0010
1000
1000
0000
,
0001
0000
0100
0000
,
0001
0001
0001
0000
,
1000
0000
0001
0000
,
1000
1000
0100
0000
,
1000
0000
0001
0000
,
0100
0001
0001
0100
,
0001
0000
0000
0000
,
1000
0000
0000
0000
,
0010
0000
0000
0000
,
1000
0010
1000
0010
,
1000
0000
0010
0000
,
2000
0000
3000
0000
,
0001
0000
0100
0000
,
0002
0000
0003
0000
,
1000
0000
0010
0000
,
2000
0000
3000
0000
,
0001
0100
0001
0100
,
0002
0000
0003
0000
,
1000
0000
1000
0000
,
0010
0000
0010
0000
,
1000
0000
1000
0000
,
0001
0100
0100
0000
,
0001
0000
0001
0000
,
1000
0000
1000
0000
,
0010
0000
0010
0000
,
1000
0001
0001
0001
,
1000
0000
0000
0000
,
0001
0000
0000
0000
,
0100
0000
0000
0000
,
0010
0000
0100
0000
,
0001
0001
0000
0000
,
1000
1000
0000
0000
,
0001
0001
0000
0000
,
0100
0000
0010
0000
,
1000
0010
1000
0100
,
1000
0000
0000
0000
,
1000
0010
1000
0010
,
1000
0000
0000
0000
,
0020
0000
0030
0000
,
0002
0000
0003
0000
,
0200
0000
0300
0000
,
2000
0000
3000
0000
,
1000
0000
0001
0000
,
1000
0000
1000
0000
,
1001
1001
0000
1000
,
0000
0001
0000
1000
,
0000
0000
0000
0010
,
0000
0100
0000
0001
,
0000
0000
0000
0100
,
0000
0001
0000
0100
,
0001
0001
0000
1000
,
0000
0010
0000
1000
,
1000
1000
0000
0001
,
0000
1000
0000
0001
,
0001
0010
0000
0001
,
0000
1000
0000
0010
,
1000
1000
0010
1000
,
0000
0001
0000
0100
,
0001
0001
0001
1000
,
0000
0010
0000
1000
,
1000
1000
1000
0001
,
0000
1000
0000
0001
,
0001
0010
0001
0001
,
0000
1000
0000
0010
,
1000
1000
0010
1000
,
0000
0000
0000
0001
,
0000
0000
0000
0100
,
0000
0000
0000
0010
,
0000
1000
0000
0001
;

//--------------- dance-single - K. Ward ----------------
#NOTES:
     dance-single:
     K. Ward:
     Medium:
     8:
     0.406793,0.514501,0.169882,0.056627,0,352,331,21,7,0,0,0.406793,0.514501,0.169882,0.056627,0,352,331,21,7,0,0:
0000
0000
0000
0000
,
0000
0000
0000
0000
,
0000
0000
0000
0000
,
0000
0000
0000
0000
,
0010
0100
0010
0000
0010
0100
0010
0000
,
1000
0001
1000
0000
1000
0001
1000
0000
,
0010
0100
0001
0000
0010
0100
0010
0000
,
1100
0000
0011
0000
,
0100
0010
0000
0000
0010
0100
0000
0000
,
1000
0000
0100
0000
0100
0001
0010
0000
,
0100
0010
0000
0000
0010
0100
0000
0000
,
1000
0000
1000
0000
0100
0010
0100
0000
,
1000
0001
0000
0000
0001
1000
0000
0000
,
0100
0000
0010
0000
0001
0001
0010
0000
,
0100
0010
0000
0000
0010
0100
0000
0000
,
1000
0000
0010
0000
0100
0010
0100
0000
,
1001
0001
0000
0100
,
0010
0010
0000
0100
,
1000
1000
0000
0100
,
0010
0100
0110
0000
,
0001
0100
0001
0000
1000
0010
1000
0000
,
0100
0010
0100
0100
,
1000
0010
1000
0000
0001
0010
0001
0000
,
0010
0100
0010
0000
,
0001
0100
0001
0000
1000
0010
1000
0000
,
0001
0010
0100
1000
,
1000
0010
1000
0000
0001
0100
0001
0000
,
1000
0100
0110
0000
,
0010
0001
0000
0001
0010
0001
0000
0001
,
0010
0001
1000
0100
,
0100
1000
0000
1000
0100
1000
0000
1000
,
0100
0010
0100
1000
,
0010
0001
0000
0001
0010
0001
0000
0001
,
0010
0100
0001
0010
,
0100
1000
0000
1000
0100
1000
0000
1000
,
0100
0010
0100
0010
,
1001
0000
0000
0000
0100
0001
0100
0000
,
0020
2000
0030
3100
,
0010
0000
0000
0000
0100
1000
0100
0000
,
0020
0002
0030
1003
,
0010
1000
0100
0000
0001
0000
0100
0000
,
1000
0010
0001
0000
0010
0000
0100
0000
,
0001
0010
0100
0000
1000
0000
0100
0000
,
0020
0100
0001
0130
,
1001
0010
1000
0001
,
0100
0010
1000
0001
,
0010
0100
1000
0001
,
1000
0000
0100
0000
0010
0010
0100
0000
,
1001
0010
1000
0001
,
0100
0010
0100
1000
,
0100
0000
0010
0000
,
0100
0100
0010
0100
,
1001
0010
1001
0100
,
1001
0110
1001
0110
,
1100
0011
0000
0100
,
0010
0100
0100
0001
,
1000
0001
0001
0010
,
0100
0000
0100
0000
0010
0000
0001
1000
,
0001
1000
0001
0000
0000
0000
1000
0010
,
1000
0000
0001
0100
0001
0000
1000
0000
,
0100
0000
0001
0000
0100
0000
1000
0010
,
1000
0000
0001
0100
0001
0000
0010
0000
,
0100
0000
0100
0000
0010
0000
0001
0100
,
0001
0000
1000
0010
1000
0000
0001
0000
,
0100
0000
1000
0000
0100
0000
0001
0010
,
0001
0000
1000
0100
1000
0000
0100
0000
,
0010
0000
0110
0000
0000
0000
0010
0001
,
0000
0001
0010
0001
0000
0001
0010
0000
,
0001
0000
0100
0000
0100
0000
0100
1000
,
0000
1000
0100
1000
0000
1000
0100
0000
,
0010
0000
1100
0000
0000
0000
0010
0001
,
0000
0001
0010
0001
0000
0001
0010
0000
,
0001
0000
1000
0000
0100
0000
0100
1000
,
0000
1000
0100
1000
0000
1000
0100
0000
,
0010
0100
0010
1001
,
0000
0000
0100
0000
0010
0100
0001
0000
,
0010
0100
0000
1001
,
0000
0000
0010
0000
1000
0100
0010
0000
,
0001
0010
0100
2002
,
0000
0000
3003
0000
;

//--------------- dance-single - K. Ward ----------------
#NOTES:
     dance-single:
     K. Ward:
     Hard:
     12:
     0.550095,0.578813,0.177972,0.056627,0.10112,476,454,22,7,0,0,0.550095,0.578813,0.177972,0.056627,0.10112,476,454,22,7,0,0:
0000
0000
0000
0000
,
0000
0000
0000
0000
,
0000
0000
0000
0000
,
0000
0000
0000
0000
,
1000
0001
1000
0001
1000
0001
1000
0001
,
0100
0010
0100
0010
0100
0010
0100
0000
,
0001
1000
0001
1000
0001
1000
0100
0010
,
2002
0000
0000
3003
,
0010
0000
0000
0010
0100
0000
0000
0000
0010
0000
0000
0010
0100
0000
0000
0000
,
0010
0000
0100
0000
0001
1000
0100
0000
,
0100
0000
0000
0100
0010
0000
0000
0000
0010
0000
0000
0010
0100
0000
0000
0000
,
1000
0000
0001
0000
0100
0001
0100
0000
,
0010
0000
0000
0010
0100
0000
0000
0000
0100
0000
0000
0100
0010
0000
0000
0000
,
0010
0000
0100
0000
0001
0010
0100
0000
,
0100
0000
0000
0100
0010
0000
0000
0000
0010
0000
0000
0010
0100
0000
0000
0000
,
0010
0000
0001
0000
0100
0010
1000
0000
,
0100
0000
0010
0000
0100
0000
0010
0001
,
1000
0000
0100
0000
0010
0100
0010
0001
,
1000
0001
0100
0001
,
0010
1100
0010
1001
,
1000
0010
1000
0100
1000
0010
1000
0001
,
1000
0010
1000
0100
1000
0010
1000
0000
,
0100
0001
0100
0010
0100
0001
0100
0010
,
0100
0001
0100
0010
0200
0000
0301
0000
,
1000
0010
1000
0100
1000
0010
1000
0001
,
1000
0010
1000
0100
1000
0000
1000
0000
,
0100
0001
0100
0010
0100
0001
0100
0010
,
0100
0001
0100
0010
0100
0100
0100
0000
,
0010
0001
0100
0000
0010
1000
0010
0000
,
0100
0001
0100
0010
1000
0010
0100
0000
,
0001
0100
0001
0000
1000
0010
1000
0000
,
0001
0000
1000
0000
0001
0000
0100
0000
0010
0000
0100
0001
0100
0000
0000
0000
,
0010
0100
1000
0000
0100
0010
1000
0000
,
0100
0010
0001
0010
0100
1000
0100
0000
,
0100
0010
0001
0000
0100
0010
1000
0000
,
0100
0000
0010
0000
0001
0000
0010
0000
0100
0000
0100
0010
0100
0000
0000
0000
,
1000
0000
0000
0010
0000
0000
0100
0000
0001
0000
0000
1000
0000
0000
0010
0000
,
1000
0000
0000
0010
0000
0000
0100
0000
0001
0000
0000
1000
0000
0000
0010
0000
,
1000
0000
0000
0010
0000
0000
0100
0000
0001
0000
0000
1000
0000
0000
0010
0000
,
0100
0001
0100
0010
0200
0000
0301
0000
,
1000
0001
0000
0000
1000
0000
0000
0000
0100
0000
0010
0000
0001
0000
0000
0000
,
0010
0100
0000
0000
0010
0000
0000
0000
0100
0000
0010
0000
0001
0000
0000
0000
,
0100
0010
0000
0000
0100
0000
0000
0000
1000
0000
0100
0000
0010
0000
0000
0000
,
0010
0100
0000
0000
0100
0010
0000
0000
0010
0100
0000
0000
0100
0010
0000
0000
,
1000
0100
0001
0000
0001
0100
1000
0000
,
1000
0000
0010
0000
0100
0001
0001
0000
,
1000
0100
0001
0000
0001
0100
1000
0000
,
0001
1000
0100
0011
,
0001
0010
1000
0000
1000
0010
0001
0000
,
1000
0000
0100
0000
0001
1000
1000
0000
,
1000
0100
0001
0000
0001
0100
1000
0000
,
0020
1000
0001
1030
,
1001
0110
1001
0110
,
1010
0011
0101
0110
,
1001
0110
0000
1000
,
0001
0000
0100
0000
0010
1000
0100
0000
,
0010
0000
0001
0010
0100
1000
0100
0000
,
0010
0000
0100
0000
1000
0010
0100
0001
,
0010
0100
0010
0000
0101
0000
1000
0010
,
1000
0100
1000
0010
1000
0001
1000
0010
,
1000
0100
1000
0010
1000
0000
0100
0001
,
0100
0010
0100
0001
0100
0010
0100
0001
,
0100
0010
0100
0000
1000
0000
1000
0010
,
1000
0100
1000
0010
1000
0001
1000
0010
,
1000
0100
1000
0010
1000
0000
0100
0001
,
0100
0010
0100
0001
0100
0010
0100
1000
,
0100
0010
0100
0100
0100
0000
0010
0001
,
1000
0000
0100
0010
0001
0000
0100
0010
,
1000
0100
0010
0100
0010
0000
0001
0010
,
0001
0000
0100
0010
1000
0000
0100
0010
,
0001
0000
0100
0000
0010
0000
0100
0010
0100
0000
0000
0000
0001
0000
1000
0000
,
0100
0000
0010
0100
1000
0000
0100
0001
,
0100
1000
0100
0010
0100
0000
0010
0100
,
1000
0000
0100
0010
0001
0000
0100
0100
,
0010
0000
0100
0000
0001
0000
1000
0001
1000
0000
0000
0000
0100
0000
0000
0000
,
0011
0100
0011
0001
,
1100
0001
1100
0100
,
0011
0100
0011
0001
,
1000
0000
0100
0010
0100
0000
2002
0000
,
0000
0000
3003
0000
;

//--------------- dance-single - C. Foy ----------------
#NOTES:
     dance-single:
     C. Foy:
     Challenge:
     17:
     0.768515,1.057821,0.598633,0.331675,0.829187,665,587,74,41,12,11,0.768515,1.057821,0.598633,0.331675,0.829187,665,587,74,41,12,11:
0000
0000
0000
0000
,
0000
0000
0000
0000
,
0000
0000
0000
0000
,
0000
0000
0000
0000
,
1001
0000
0000
0010
0000
0000
1011
0000
,
0000
0000
0000
0000
,
1001
0000
0000
0100
0000
0000
1101
0000
,
0000
0000
0000
0000
1001
0110
0000
0000
,
2002
0000
0000
0010
0000
0000
0010
0000
,
3003
0000
0000
0000
,
0220
0000
0000
1000
0000
0000
1000
0000
,
0330
0000
0000
0000
,
0220
0000
0000
0001
0000
0000
0001
0000
,
0330
0000
0000
0000
,
2002
0000
0000
0010
0000
0000
0010
0000
,
3003
0000
0000
0000
0101
1010
0000
1100
,
0011
0000
0000
1020
0000
0000
0001
0000
,
0000
0000
0000
0000
,
0001
0000
0000
0000
0000
0000
0002
0000
0000
0030
0000
0000
1000
0000
0000
0000
,
0003
0000
0000
0000
,
1020
0000
0000
0000
0002
0000
0000
0030
2000
0000
0003
0000
3001
0000
0010
0000
,
1000
0000
0000
0000
0200
0000
0000
0000
0001
0000
0300
0001
0100
0000
0010
0001
,
2000
0000
0020
3000
0002
0030
1003
0100
,
0020
0000
0000
0000
1000
0000
0000
0000
0001
0030
0000
0001
0010
0000
1000
0001
,
0020
0000
0000
0000
0100
0000
0000
0000
1000
0000
0000
0000
0001
0030
0200
0000
,
0001
0000
0000
0000
0010
0000
0000
0000
1000
0300
0000
1000
0100
0000
0001
0000
,
0020
0000
0100
0000
1000
0000
0031
1000
,
0001
0000
0000
0000
1000
0000
0000
0000
1000
0100
0010
0100
0001
0100
0010
0100
,
1000
0000
1001
0000
0110
0000
1000
0010
,
0100
0000
0000
0000
0020
0000
0000
0000
1000
0000
0030
1000
0010
0000
1000
0100
,
0002
0000
0200
0003
2000
0300
3001
0010
,
0200
0000
0000
0000
0001
0000
0000
0000
1000
0300
0000
1000
0100
0000
1000
0010
,
0200
0000
0000
0000
0010
0000
0000
0000
0001
0000
0000
0000
1000
0300
0020
0000
,
1000
0000
0000
0000
0100
0000
0000
0000
0001
0030
0000
0001
0010
0000
1000
0000
,
0200
0000
0010
0000
0001
0000
1300
0001
,
1000
0000
0000
0000
0001
0000
0000
0000
0001
0010
0100
0010
1000
0010
0100
0010
,
0001
1000
0001
0100
0010
1000
0001
0010
0001
1000
0100
0010
0001
1000
0001
1000
,
0100
1000
0010
0100
0010
1000
0000
0000
0000
0000
0110
0000
0000
1000
0001
0000
,
1000
0001
1000
0001
0100
0001
1000
0010
1000
0001
0100
0001
1000
0100
1000
0001
,
0010
0001
1000
0000
0000
0000
0000
0000
0000
0000
0110
0000
0001
1000
0010
0100
,
0001
0000
1000
0001
0100
0010
1000
0100
0010
0001
1000
0010
0100
0001
1000
0001
,
0010
0100
1000
0001
0000
0000
0000
0000
0000
0000
1001
0000
0000
0100
0010
0000
,
1000
0100
1000
0001
0100
0010
1000
0001
1000
0010
0100
0001
1000
0100
1000
0001
,
0000
0000
0110
0000
0000
1001
0000
1100
,
0000
0000
1100
0000
1000
0000
0101
0010
,
1000
0000
0000
0000
1100
0000
0000
0000
0010
0000
0000
0001
0101
0000
1000
0010
,
0100
0000
1100
0000
0010
0000
0101
1000
,
0010
0000
0000
0000
1100
0000
0000
0000
0010
0000
0000
0001
0101
0000
1000
0001
,
1000
0000
1100
0000
0010
0000
0101
1000
,
0001
0000
0000
0000
1100
0000
0000
0000
0010
0000
0000
0100
0101
0000
0010
1000
,
0100
0000
1100
0000
0010
0000
0101
1000
,
0010
0000
0000
0000
1100
0000
0000
0000
1000
0001
0100
0010
1000
0010
0100
0001
,
2MM0
300M
0000
0000
0110
0000
0000
0000
22MM
3300
0000
0000
0011
0000
0000
0000
M2M2
0303
0000
0000
1010
0000
0000
0000
2200
33MM
0000
0000
0000
0000
0000
0000
,
1001
0110
1001
0011
0110
0101
1010
0110
,
2002
3003
0000
0000
0000
0000
0000
0000
0120
0000
0000
0000
0000
0000
0000
0000
0000
0000
0000
0000
0000
0000
0000
0000
0230
0000
0000
0000
0000
0000
0000
0000
,
1300
0000
1000
0000
1001
0100
0001
0000
,
1100
0000
0000
0000
0100
0000
0000
0001
1001
0000
0100
0010
0100
0000
0000
0000
,
1010
0000
0001
0000
1100
0100
0010
0000
,
1010
0000
0000
0000
0100
0000
0000
0001
1001
0000
1000
0100
0010
0001
0010
0001
,
0010
0001
0010
0001
1000
0001
1000
0001
1000
0001
1000
0001
1000
0100
1000
0100
,
1000
0100
1000
0100
1000
0001
1000
0001
1000
0001
1000
0001
1000
0100
1000
0100
,
1000
0001
1000
0001
0100
0001
0100
0001
0100
0010
0100
0010
1000
0010
1000
0010
,
1000
0001
1000
0001
0010
0001
0010
0001
0010
0100
0010
0100
1000
0100
1000
0100
,
1000
0001
1000
0001
0100
0001
0100
0001
0100
0010
0100
0010
1000
0100
0010
0001
,
0010
0100
1000
0010
0100
0001
0100
0010
1000
0100
0010
0001
0010
0001
1000
0010
,
1000
0001
0100
0010
1000
0001
0100
0010
1000
0010
0100
0001
1000
0001
0010
0001
,
0100
0001
0010
0100
1000
0100
0010
0100
1000
0001
1000
0010
1000
0010
0100
0001
,
1000
0100
0010
0100
1000
0001
0100
0010
1000
0100
1000
0001
1000
0010
1000
0001
,
0010
0100
1000
0100
1000
0001
0010
0100
1000
0001
1000
0001
1000
0001
0010
0100
,
1000
0001
0010
0100
1000
0001
0100
0010
1000
0001
0100
0010
1000
0001
0010
0001
,
0100
0001
0010
0001
0100
0010
0100
0010
1000
0010
0100
0010
1000
0100
1000
0010
,
1000
0001
1000
0010
0100
0010
0100
0001
0100
0010
0100
0001
1000
0100
0010
0100
,
1000
0100
1000
0001
0100
0001
0100
0010
0100
0010
0100
0001
1000
0001
0010
0001
,
1000
0010
1000
0001
0010
0001
1000
0010
1000
0001
0100
0001
1000
0100
1000
0001
,
0100
0001
1000
0001
1000
0001
0010
0001
1000
0010
1000
0001
1000
0000
0000
0000
,
1001
0000
1100
0000
1001
0100
1001
0000
,
0011
0000
0000
0000
1100
0000
0000
1000
0001
0000
0100
0010
1000
0000
0000
0000
,
0110
0000
1001
0000
0110
0001
0110
0000
,
1000
1100
0000
1121
,
0000
MM3M
0000
0000
;

//--------------- dance-double - M. Emirzian ----------------
#NOTES:
     dance-double:
     M. Emirzian:
     Easy:
     6:
     0.398703,0.482344,0.347854,0.194151,0,345,302,43,24,0,0,0.398703,0.482344,0.347854,0.194151,0,345,302,43,24,0,0:
00000000
00000000
00000000
00000000
,
00000000
00000000
00000000
00000000
,
00000000
00000000
00000000
00000000
,
00000000
00000000
00000000
00000000
,
00000001
00000000
00000001
00000000
00000010
00000000
00000010
00000001
,
00001000
00000100
00001010
00000000
,
00010000
00000000
00010000
00000000
00001000
00000000
00001000
01000000
,
00010000
00110000
00200000
00000000
,
01300000
00000000
10000000
00000000
00100000
10000000
00000000
00010000
,
01000000
01010000
00100000
00001000
,
00010000
00000000
00000100
00000000
00001000
00000001
00000000
00000010
,
00000100
00000000
00001001
00000000
00000100
00000010
00001000
00000000
,
00000100
00000000
00010000
00000000
00001000
01000000
00000000
00010000
,
01000000
00000000
01100000
00000000
10000000
00010000
00100000
00000000
,
00101000
00000000
00011000
00000000
00000100
00001000
00000000
00000001
,
00000100
00000000
00001010
00000000
00000100
00000001
00001000
00000000
,
00000010
00000000
00000010
00000000
00010000
00000000
00010000
00001000
,
01000000
00100000
01010000
00000000
,
10000000
10000000
01000000
00010000
,
00002000
00000000
00010000
00013000
,
00010000
00000010
00001000
00000001
,
00000010
00000100
00001100
00000000
,
00000010
00000100
00000001
00001000
,
00000100
00010000
00011000
00000000
,
00001000
00100000
00010000
01000000
,
00100000
10000000
10010000
00000000
,
00100000
01000000
00010000
00100000
,
00001000
00010000
00011000
00000000
,
00020000
00001000
00032000
00000010
,
00003020
00000001
00000032
00000100
,
00000203
00000010
00000320
00010000
,
00010030
00000100
00010000
00000000
00011000
00000000
00000000
00000000
,
00010000
00020000
00100000
00230000
,
10000000
20300000
01000000
32000000
,
00100000
03200000
00001000
00302000
,
00010000
00000000
00013000
00000000
00000010
00001000
00000010
00000000
,
00001001
00000100
00001000
00010000
,
00100000
00010000
00001000
00000010
,
00001000
00010000
01000000
00010000
,
00001000
00000100
00001000
00010000
,
00100000
00000000
10000000
00100000
10000000
00000000
00010000
01000000
,
00010000
00000000
10000000
00010000
10000000
00000000
01100000
00000000
,
00100000
00000000
00001000
00100000
00001000
00000000
00010000
00000100
,
00010000
00001100
00000011
00000101
,
00001010
00000100
00011000
00100000
,
00101000
00100000
00110000
00100000
,
01100000
01000000
11000000
10000000
,
10010000
00010000
01010000
01000000
,
01001000
00000000
00001000
00000000
00011000
00000000
00010000
00000010
,
00010000
00001010
00000101
00000010
,
00000100
00000000
00010000
00000010
00010000
00000000
00001000
00000000
,
00010000
00000100
00010000
00001000
,
00010000
00001000
00010000
00001000
,
00010000
00001000
01000000
00001000
,
00010000
00011000
00000000
00020000
,
00001000
00032000
00000010
00003020
,
00000100
00000230
00001000
00002300
,
00000010
00003020
00000100
00000230
,
00001000
00002300
00010000
00013000
,
00010000
00000000
01000000
00000000
01000000
10000000
00100000
00000000
,
01000000
10010000
00000000
00100000
,
00100000
00000000
01000000
00000000
01000000
00001000
00010000
00000000
,
00000100
00001100
00000000
00000010
,
00000010
00000000
00000001
00000000
00000001
00000100
00000010
00000000
,
00010000
00010010
00000000
00000100
,
00000100
00000000
00010000
00000000
00010000
00001000
01000000
00000000
,
00100000
01010000
00000000
10000000
,
01000000
00000000
10000000
00010000
00100000
00000000
01010000
00000000
,
10100000
01000000
00001000
00010000
,
00000100
00000000
00000010
00000001
00001000
00000000
00001100
00000000
,
00000011
00000100
00001000
00010000
,
00000100
00000000
00010000
00001000
00100000
00000000
01010000
00000000
,
10100000
01000000
00000000
00100000
,
00001000
00010000
00000100
00000010
,
00000010
00000001
00000001
00000100
,
00000000
00000000
00000000
00000010
,
00000000
00010000
00000000
00001000
,
00000000
00000000
00000000
01000000
,
00000000
00100000
01000000
20020000
,
00000000
00000000
30030000
00000000
;

//--------------- dance-double - M. Emirzian ----------------
#NOTES:
     dance-double:
     M. Emirzian:
     Medium:
     8:
     0.490001,0.580633,0.590543,0.323585,0.052583,424,351,73,40,2,0,0.490001,0.580633,0.590543,0.323585,0.052583,424,351,73,40,2,0:
00000000
00000000
00000000
00000000
,
00000000
00000000
00000000
00000000
,
00000000
00000000
00000000
00000000
,
00000000
00000000
00000000
00000000
,
00010000
00000000
00100000
00000000
01000000
00000000
10000000
00100000
,
01000000
01010000
00101000
00000000
,
00010000
00000000
00000100
00000000
00001000
00000000
00000010
00000100
,
00000001
00001001
00001100
00000010
,
00000001
00000100
00000010
00010000
00001000
01000000
00000000
00100000
,
01010000
00000000
00000000
00000000
00100000
00000000
00000000
00000000
01000000
00000000
00000000
01000000
10000000
00000000
00100000
00000000
,
01000000
00010000
00100000
00001000
00010000
00000010
00000000
00000100
,
00000101
00000000
00000000
00000000
00000010
00000000
00000000
00000000
00000100
00000000
00000000
00000100
00001000
00000000
00000010
00000000
,
00000100
00000001
00000010
00000100
00010000
00001000
00000000
00100000
,
00110000
00000000
00000000
00000000
01000000
00000000
00000000
00000000
10000000
00000000
00000000
10000000
01000000
00000000
00100000
00000000
,
00010000
01000000
00001000
00010000
00000010
00001000
00000000
00000100
,
00000110
00000000
00000000
00000000
00000001
00000000
00000000
00000000
00000100
00000000
00000000
00000100
00000010
00000000
00001000
00000000
,
00000100
00000000
00000010
00000000
00000001
00000000
00001000
00000100
,
00010000
00101000
01010000
00000000
,
00100000
10000000
01000000
00100000
,
00022000
00000000
00000000
00033000
,
00000020
00000001
00000130
00020000
,
00001000
00130000
20000000
00010000
,
31000000
00200000
00010000
00301000
,
00000020
00000001
00000130
00020000
,
00000010
00031000
00000200
00000001
,
00001300
00020000
00000010
00031000
,
00200000
00001000
01300000
20000000
,
00010000
30100000
00020000
00001000
,
00030010
00000100
00000001
00000110
,
00001001
00000000
00000000
00000000
00000110
00000000
00000000
00000000
00000010
00000000
00000000
00000010
00000001
00000000
00000100
00000000
,
00000010
00000000
00001000
00000000
00000100
00000000
00010000
00001000
,
00011000
00000000
00000000
00000000
00101000
00000000
00000000
00000000
00010000
00000000
00000000
00010000
01000000
00000000
00100000
00000000
,
10000000
01000000
00100000
00001000
,
00011000
00000000
00000000
00000000
00010010
00000000
00000000
00000000
00001000
00000000
00000000
00001000
00000100
00000000
00000010
00000000
,
00000001
00000000
00000100
00000000
00000010
00000000
00001000
00000100
,
00010100
00000000
00000000
00000000
00101000
00000000
00000000
00000000
00100000
00000000
00000000
00010000
01000000
00000000
00100000
00000000
,
10000000
01000000
00100000
00010000
,
10010000
10010000
01001000
01001000
,
00010000
00000100
00000010
00000001
,
00001001
00001001
00010010
00010010
,
00001000
00000000
00000100
00010000
00001000
00000000
01000000
00010000
,
10000000
00000000
00100000
10000000
01000000
00000000
00110000
00000000
,
01000000
00001000
00010000
00000010
00001000
00000100
00000010
00000001
,
00001000
00000101
00001010
00010100
,
00012000
00013000
00120000
00130000
,
10200000
10300000
21000000
31000000
,
02010000
03010000
00021000
00031000
,
00002100
00000000
00003100
00000000
00000001
00001000
00000100
00000010
,
00001000
00001020
00001030
00012000
,
00013000
00120000
00130000
10200000
,
10300000
21000000
31000000
02010000
,
03010000
00000000
00021000
00000000
01030000
00010000
00001000
00000000
,
00011000
00101000
00011000
00010100
,
00011000
01001000
00011000
00010010
,
00011000
101MM000
00000000
00020000
,
00100000
01030000
00200000
10000000
,
00310000
00002000
00100000
00013000
,
00000200
00000010
00001300
00000020
,
00000100
00010030
00001000
01000000
,
00100000
00000000
10000000
00000000
01000000
00100000
00010000
00000000
,
00101000
00010100
00001000
00000100
,
00000010
00000000
00000001
00000000
00000100
00000010
00001000
00000000
,
00001100
00010010
00001000
01000000
,
00010000
00000000
00100000
00000000
01000000
10000000
00100000
00000000
,
01010000
10100000
01000000
00010000
,
00100000
00000000
00001000
00000000
00010000
00000100
00001000
00000000
,
00001010
00000101
00000010
00001000
,
00000100
00000010
00000001
00001100
,
00010010
00000000
00000000
00000000
00010000
00000000
00000000
00010000
00001000
00000000
01000000
00000000
00010000
00000000
00000000
00000000
,
00100000
00000000
01000000
00000000
10000000
00100000
01100000
00000000
,
01010000
00000000
00000000
00000000
00100000
00000000
00000000
00100000
00001000
00000000
00010000
00000000
00000100
00000000
00000000
00000000
,
00000010
00000000
00000001
00000000
00001000
00000010
00000110
00000000
,
00001001
00000000
00000000
00000000
00000100
00000000
00000000
00000100
00010000
00000000
00001000
00000000
00100000
00000000
00000000
00000000
,
01000000
00000000
10000000
00000000
00100000
01000000
01010000
00000000
,
00101000
00000000
00000000
00000000
00001000
00000000
00000000
00001000
00010000
00000000
00000010
00000000
00000200
00000000
00000000
00000000
,
00000000
00000302
00000003
00000020
,
00000032
00000103
00001000
00010000
,
00000000
02000000
10000000
00100000
,
03002000
00000000
00000000
00000000
00013000
00000000
00000000
00000100
00000010
00000000
00000001
00000000
00000220
00000000
00000000
00000000
,
00000000
00000000
00000000
00000330
;

//--------------- dance-double - M. Emirzian ----------------
#NOTES:
     dance-double:
     M. Emirzian:
     Hard:
     9:
     0.647171,0.612891,0.614812,0.145613,0.165837,560,484,76,18,32,0,0.647171,0.612891,0.614812,0.145613,0.165837,560,484,76,18,32,0:
00000000
00000000
00000000
00000000
,
00000000
00000000
00000000
00000000
,
00000000
00000000
00000000
00000000
,
00000000
00000000
00000000
00000000
,
11000000
00000000
01100000
00000000
00110000
00000000
00100000
00101000
,
00011000
00000000
00000000
00000000
00001100
00000000
00000000
00000000
00000011
00000000
00000000
00001000
00000010
00000000
00000100
00000000
,
00000001
00001000
00000010
00001000
00000100
00010000
00000100
00001000
,
00000010
00000000
00010000
00000000
00001000
00000000
01000000
00000000
00010000
00000000
00000000
00010000
00100000
00000000
01000000
00000000
,
10000000
00010000
10000000
01000000
00100000
00010000
00000000
00100000
,
00101000
00000000
00000000
00000000
00110000
00000000
00000000
00000000
01001000
00000000
00000000
01000000
00010000
00000000
01000000
00000000
,
00001000
00010000
00000100
00000010
00000001
00001000
00000000
00000010
,
00000201
00000000
00000000
00000000
00000320
00000000
00000M00
00000000
00001030
00000000
00000000
00001000
00000100
00000000
00001000
00000000
,
00000010
00001000
00000100
00001000
00000001
00000100
00000000
00000010
,
00001010
00000000
00000000
00000000
00010010
00000000
00000000
00000000
00101000
00000000
00000000
00001000
00010000
00000000
00001000
00000000
,
01000000
00100000
10000000
01000000
00100000
00010000
00000000
00100000
,
00120000
00000000
00000000
00000000
20030000
00000000
000M0000
00000000
30100000
00000000
M0000000
00100000
01000000
00000000
00010000
00000000
,
00100000
00000000
11000000
00000000
10010000
00000000
01000000
01010000
,
01001000
00000000
00000000
00000000
00110000
00000000
00000000
00000000
00010010
00000000
00000000
00010000
00001000
00000000
01000000
00000000
,
00001000
00010000
00000010
00010000
00001000
00020000
00000200
00000000
,
00000000
00000000
00030300
00000000
00001000
00000010
00001000
00000001
,
00000010
00000200
00001000
00000000
00010000
00000000
00001000
00001000
,
00001300
00000000
00000000
00000000
00010010
00000000
00000000
00000000
00011000
00000000
00000000
00010000
00001000
00000000
01000000
00000000
,
00100000
02000000
00001000
00000000
00010000
00000000
00100000
00100000
,
03100000
00000000
00000000
00000000
10100000
00000000
00000000
00000000
10010000
00000000
00000000
00100000
00010000
00000000
01000000
00000000
,
00001000
00020000
00000010
00000000
00000100
00000000
00001000
00001000
,
00031000
00000000
00000000
00000000
00010010
00000000
00000000
00000000
00011000
00000000
00000000
00010000
00000010
00000000
00001000
00000000
,
00000100
00002000
00000001
00000000
00000100
00000000
00000010
00000010
,
00003010
00000000
00010010
00000000
00001000
00000100
00000010
00000001
,
00001000
00000010
00000100
00000001
00001000
00000100
00010000
00001000
,
00011000
00000000
00000000
00000000
01100000
00000000
00000000
00000000
01001000
00000000
00000000
01000000
00010000
00000000
01000000
00000000
,
00100000
10000000
01000000
00100000
00001000
00010000
00000100
00001000
,
00001100
00000000
00000000
00000000
00000110
00000000
00000000
00000000
00000011
00000000
00000000
00001000
00000010
00000000
00000100
00000000
,
00000001
00001000
00000100
00010000
00001000
01000000
00010000
10000000
,
10100000
00000000
00000000
00000000
10010000
00000000
00000000
00000000
00110000
00000000
00000000
00100000
00010000
00000000
01000000
00000000
,
00100000
01000000
00001000
00010000
00000100
00001000
00000010
00000100
,
00000101
00000000
00000000
00000000
00001010
00000000
00000000
00000000
00010010
00000000
00000000
00001000
00000100
00000000
00000010
00000000
,
00000100
00000000
00000000
00001000
00000000
00000000
00000001
00000000
00000100
00000000
00000000
00000010
00000000
00000000
00010000
00000000
,
00001000
00000000
00000000
01000000
00000000
00000000
00000100
00000000
00010000
00000000
00000000
00001000
00000000
00000000
00100000
00000000
,
00000010
00000000
00000000
00010000
00000000
00000000
00001000
00000000
10000000
00000000
00000000
00001000
00000000
00000000
00010000
00000000
,
00000001
00000000
00000000
00010000
00000000
00000000
00001000
00000000
01000000
00000000
00000000
00010000
00000000
00000000
10000000
00000000
,
00100000
00000000
01000000
00000000
00010000
00000000
10000000
00000000
01000000
00000000
00000000
01000000
00100000
00000000
00010000
00000000
,
00100000
00000000
00000000
00100000
00001000
00000000
00010000
00000000
00000100
00000000
00000010
00000000
00000001
00000000
00001000
00000000
,
0000M000
00001000
00000010
00000100
00000001
00001000
00000100
00010000
,
00001100
00011000
00110000
11000000
,
10000000
00100000
01000000
00010000
10000000
01000000
00100000
00001000
,
00010000
00000000
00000100
00000000
00001000
00000000
00000010
00000000
00000100
00000000
00000000
00000001
00001000
00000000
00000000
00000100
,
00001000
00000100
00000010
00000001
00001000
00000010
00000100
00000001
,
00001000
00000000
00000010
00000000
00010000
00000000
00001000
00000000
01000000
00000000
00000000
01000000
00010000
00000000
10000000
00000000
,
00100000
01000000
00001000
01000000
00010000
10000000
01000000
00100000
,
00001000
00000000
00010000
00000000
00000100
00000000
00000010
00000000
00000001
00000000
00000000
00001000
00000001
00000000
00000000
00000100
,
00000010
00001000
00000001
00000010
00000100
00010000
00001000
01000000
,
00100000
10000000
01000000
00100000
00010000
00000000
11000000
00000000
,
00110000
00MMMM00
00001100
00MMMM00
01010000
0M0MMM00
00001010
0M0MM0M0
,
00001001
00000000
00000000
00000000
00000000
00000000
00000000
00000000
00000000
MM000000
00000000
00000000
00000000
00000000
00000000
00000000
00000110
00000000
00000000
00000000
00000000
00000000
00000000
00000000
00000000
MM000000
00000000
00000000
00000000
00000000
00000000
00000000
00011000
00000000
00000000
00000000
00000000
00000000
00000000
00000000
00000000
MM000000
00000000
00000000
00000000
00000000
00000000
00000000
01100000
00000000
00000000
00000000
00000000
00000000
00000000
00000000
00000000
MM000000
00000000
00000000
00000000
00000000
00000000
00000000
,
10010000
M00M0000
00001010
0000M0M0
00000000
00000000
00000010
00002000
,
00000100
00000000
00003001
00000000
00001000
00000100
00010100
00000000
,
01001000
00000000
00000000
00000000
01010000
00000000
00000000
01000000
00100000
00000000
10000000
00000000
01000000
00000000
00200000
00000000
,
00010000
00000000
00301000
00000000
00010000
00001000
01001000
00000000
,
00011000
00000000
00000000
00000000
00010010
00000000
00000000
00001000
00000010
00000000
00000100
00000000
00000001
00000000
00001000
00000000
,
00000100
00000010
00000001
00000100
00000010
00000000
00010000
00001000
,
01000000
00000000
00010000
00001000
00100000
00000000
00010000
01000000
,
00100000
10000000
01000000
00100000
00010000
00000000
00100000
00001000
,
00010000
00000000
01000000
00001000
00010000
00000000
00000010
00001000
,
00000001
00000100
00000010
00010000
00001000
00000000
01000000
00000100
,
00010000
00000000
00100000
00000100
00010000
00000000
00001000
01000000
,
00010000
10000000
01000000
00100000
00010000
00000000
01000000
00001000
,
00010000
00000000
00100000
00001000
00010000
00001000
01000000
00001000
,
00010000
00000010
00010000
00001000
00010000
00000100
00001100
00000000
,
00010010
00000000
00000000
00000000
00001010
00000000
00000000
00000001
00000100
00000000
00000010
00000000
00001000
00000000
00000100
00000000
,
00010000
00001000
01000000
00100000
10000000
01000000
11000000
00000000
,
00110000
00000000
00000000
00000000
00101000
00000000
00000000
00100000
00010000
00000000
01000000
00000000
00001000
00000000
00010000
00000000
,
00000010
00010000
00001000
00010000
00000100
00001000
00001010
00000000
,
00001001
00000000
00000000
00000000
00001100
00000000
00000000
00000010
00001000
00000000
00000100
00000000
00001000
00000000
00000010
00000000
,
00010000
00000010
00001000
00000100
00010000
00001000
01001000
00000000
,
00110000
00000000
00000000
00000000
10010000
00000000
00000000
00100000
01000000
00000000
00010000
00000000
20000000
00000000
00000000
00000000
,
32000000
00000000
03200000
00000000
00310000
00010000
01000000
00000000
,
00001000
00000000
00000000
00000000
00010000
00000000
00000000
00000100
00001000
00000000
00000100
00000000
00020000
00000000
00000000
00000000
,
00001000
00000000
00000010
00000000
00001000
00001000
00031000
00000000
,
00010100
00000000
00000000
00000000
00001001
00000000
00000000
00000010
00000100
00000000
00001000
00000000
00000202
00000000
00000000
00000000
,
00000000
00000000
00000000
00000303
;

//--------------- dance-double - M. Emirzian ----------------
#NOTES:
     dance-double:
     M. Emirzian:
     Challenge:
     11:
     0.833232,0.903208,0.517737,0.072807,0.614812,721,657,64,9,0,4,0.833232,0.903208,0.517737,0.072807,0.614812,721,657,64,9,0,4:
00000000
00000000
00000000
00000000
,
00000000
00000000
00000000
00000000
,
00000000
00000000
00000000
00000000
,
00000000
00000000
00000000
00000000
00000000
00000000
00000000
00000000
00000000
00000000
00000000
00000000
00001000
00010000
00001000
00010000
,
00001000
00000000
01000100
00000000
00011000
00000000
01000000
01001000
,
01010000
00000000
00000000
00000000
00110000
00000000
00000000
00000000
01001000
00000000
00000000
01000000
00010000
00000000
01000000
00100000
,
10000000
00000000
00010000
01000000
00100000
00000000
01000000
00010000
01000000
00000000
00001000
00010000
00001000
00000000
00010000
00000100
,
00001000
00000000
00000100
00001000
00000001
00000000
00001000
00000100
00000010
00000000
00000000
00000010
00000001
00000000
00001000
00000000
,
00000010
00001000
00000010
00001000
00000001
00001000
00000001
00001000
00000100
00001000
00000100
00010000
00001000
00010000
00001000
00010000
,
00000010
00000000
00000000
00000000
00100010
00000000
00000000
00000000
00011000
00000000
00000000
00010000
00001000
00000000
01000000
00000000
,
02002000
00000000
00000000
10000000
00000000
00000000
03013000
00000000
,
00000000
00000000
00000000
00000000
10010000
00000000
00000000
00000000
11000000
00000000
00000000
00100000
00010000
00000000
10000000
00000000
,
00100000
01000000
00100000
01000000
00010000
01000000
00010000
01000000
00100000
01000000
00010000
01000000
00001000
00010000
00001000
00010000
,
00000010
00000000
00000000
00000000
00100010
00000000
00000000
00000000
00011000
00000000
00000000
00010000
00000100
00000000
00001000
00000000
,
00020200
00000000
00000000
00001000
00000000
00000000
00030301
00000000
,
00000000
00000000
00000000
00000000
00001010
00000000
00000000
00000000
00000101
00000000
00000000
00000010
00001000
00000000
00000100
00000000
,
00001001
00000000
00010100
00000000
00101000
00000000
00010000
00011000
,
00010100
00000000
00000000
00000000
01001000
00000000
00000000
00000000
00110000
00000000
00000000
00100000
00001000
00000000
00100000
00010000
,
10000000
00000000
00100000
10000000
00010000
00000000
01000000
00010000
10000000
00000000
01000000
00000000
00200000
00000000
00000000
00000000
,
00001000
00000000
00000000
00000000
01000000
00000000
00000000
00000000
00310000
00000000
01000000
00001000
00010000
00000000
00000100
00010000
,
00001000
00010000
00000010
00001000
00000001
00000100
00000010
00010000
,
00000010
00000000
00001000
00000000
00000100
00000000
00010000
00000000
00001000
00000000
01000000
00000000
00100000
00000000
01000000
00010000
,
01000000
00100000
10000000
00010000
00100000
00001000
00010000
00001000
,
01000000
00000000
00001000
00000000
00010000
00000000
00000010
00000000
00000100
00000000
00000001
00000000
00001000
00000000
00000100
00000010
,
00000100
00001000
00000001
00010000
00001000
00010000
00000100
00010000
,
00000010
00000000
00010000
00000000
00001000
00000000
01000000
00000000
00100000
00000000
10000000
00000000
00010000
00000000
00100000
01000000
,
00100000
00010000
10000000
00001000
01000000
00000100
00010000
00000010
,
00010000
00000000
00000100
00000000
00010000
00000000
00000001
00000000
00001000
00000001
00001000
00000001
00000010
00000100
00000010
00000100
,
00001000
00001000
00000010
00010000
00000100
00010000
00000001
00010000
,
00000100
00000000
00010000
00000000
00001000
00000000
10000000
00000000
00001000
00000000
01000000
00000000
00010000
00000000
00100000
00010000
,
00100000
01000000
10000000
01000000
00100000
00010000
01000000
00001000
,
00100000
00000000
00001000
00000000
00010000
00000000
00000010
00000000
00000100
00000000
00000001
00000000
00001000
00000000
00000001
00000010
,
00000001
00000100
00000010
00001000
00000100
01000000
00001000
00010000
,
00100000
00000000
10000000
00000000
00010000
00000000
00100000
00000000
00001000
00000000
01000000
00000000
00001000
00000000
00010000
00001000
,
00010000
00000001
00001000
00000100
00010000
00000001
00001000
00000100
,
00010000
00000000
00001000
00000000
00100000
00000000
00010000
00000000
10000000
00010000
10000000
00010000
00100000
01000000
00100000
01000000
,
10000000
00000000
00000000
10010000
00000000
00000000
00100000
00000000
01000000
00000000
00000000
01001000
00000000
00000000
00010000
00000000
,
00001000
00000000
00000000
00010010
00000000
00000000
00010000
00000000
00001000
00000000
00000000
01000100
00000000
00000000
00001000
00000000
,
00010000
00000000
00000000
00010001
00000000
00000000
00001000
00000000
00000100
00000000
00000000
00010100
00000000
00000000
00001000
00000000
,
00010000
00000000
00000000
10001000
00000000
00000000
00010000
00000000
01000000
00000000
00000000
10100000
00000000
00000000
00010000
00000000
,
00100000
00000000
00000000
00100000
01000000
00000000
10000000
00000000
00001000
00000000
00000000
00001000
00010000
00000000
00000001
00000000
,
00000100
00000000
00000000
00000100
00000010
00000000
00010000
00000000
00000100
00000000
00000000
00000100
00010000
00000000
00001000
01000000
,
00001000
00010000
00000100
00001000
00000010
00010000
00000100
00001000
,
00010001
00011000
10001000
01001000
,
00010000
00001000
00010000
00001000
00010000
00001000
00010000
00000100
00001000
00000100
00001000
00000100
00001000
00000000
00000000
00000000
,
00000010
00000001
00000010
00000100
00001000
00000100
00001000
00000100
00010000
00001000
00010000
00001000
00010000
00000000
00000000
00000000
,
01000000
00010000
01000000
00100000
10000000
00100000
10000000
00010000
10000000
00010000
10000000
00010000
01000000
00000000
00000000
00000000
,
00010000
00001000
00010000
00001000
00010000
00001000
00100000
00001000
00100000
00001000
00010000
00000010
00010000
00000000
00000000
00000000
,
00001000
00000010
00000100
00000010
00000100
00000010
00000100
00000010
00000001
00000010
00000001
00000010
00000001
00000000
00000000
00000000
,
00000010
00000100
00000010
00000100
00000010
00000000
00000100
00000000
00010000
00001000
00010000
00001000
00010000
00000000
00001000
00000000
,
01000000
00010000
01000000
00010000
01000000
00000000
00100000
00000000
10000000
00100000
10000000
00010000
10000000
00000000
01000000
00000000
,
00100000
00010000
01000000
00001000
00010000
00000010
00010000
00001000
,
00011000
00001000
01000100
00010000
00100010
00001000
00010001
00000000
,
00001001
00000100
00010100
00001000
00011000
00100000
00101000
00011000
,
00010100
00000000
01000010
00000000
00000000
00000000
00010000
00001000
,
10000000
00010000
01000000
00001000
10000000
00010000
01000000
00001000
,
00010000
00000000
00000010
00000000
00010000
00000000
00000100
00000000
00001000
00000000
00000001
00000100
00000001
00000000
00000100
00000000
,
00000010
00010000
00001000
00010000
00000100
01000000
00001000
00100000
,
00000010
00000000
00010000
00000000
00001000
00000000
01000000
00000000
00010000
00000000
10000000
00000000
00100000
10000000
00010000
10000000
,
00100000
00000000
01000000
00000000
00001000
00010000
00001000
00010000
00001000
00000000
01000000
00000000
00000100
00000000
00010000
00000000
,
00001000
00000000
00010000
00000000
00000010
00000000
00001000
00000000
00000001
00000000
00001000
00000000
00000010
00001000
00000010
00001000
,
00000010
00000000
00010000
00000000
00001000
00010000
00001000
00010000
00001000
00000000
00010000
00000000
01001000
00000000
00000000
00000000
,
00011000
00000000
00000000
00000000
10001000
00000000
00000000
01000000
00010000
00000000
00100000
00010000
00100000
00010000
10000000
01000000
,
10000000
00000000
00010000
00000000
01000000
00001000
01000000
00001000
01000000
00000000
00001000
00000000
10000000
00000000
00001000
00000000
,
00010000
00000000
00001000
00000000
00000100
00000000
00000001
00000000
00001000
00000000
00000010
00000000
00001000
00000010
00001000
00000010
,
00001000
00000010
00000100
00000010
00000100
00000010
00001000
00000010
00001000
00000000
00000000
00000000
00011000
00000000
00000000
00000000
,
01000100
00000000
00000000
00000000
00011000
00000000
00000000
01000000
00001000
00000000
00010000
00001000
00010000
00000000
00000100
00000000
,
00010000
00001000
00010000
00000010
00000100
00000001
00001001
00000000
,
00010100
00000000
00000000
00000000
01001000
00000000
00000000
01000000
00010000
00000000
10000000
01000000
00100000
00000000
00010000
00000000
,
10000000
00001000
00010000
00001000
01000000
00001000
00010000
00000010
,
00001000
00000000
00000100
00000000
00000010
00000000
00000001
00000000
00001000
00000000
00000100
00000000
00000010
00000001
00001000
00000001
,
00001000
00000000
00000100
00001000
00000100
00001000
00000100
00000000
00010000
00001000
00010000
00000100
00010000
00000000
00001000
01000000
,
00001000
01000000
00010000
00000000
01000000
00100000
10000000
00010000
10000000
00000000
01000000
00100000
00010000
00100000
00010000
00000000
,
01000000
00001000
00010000
00001000
00010000
00000000
00000100
00001000
00000001
00001000
00000010
00000000
00000100
00000001
00000100
00000010
,
00001000
00000000
00000100
00010000
00001000
00010000
00000100
00000000
00010000
00001000
01000000
00001000
00020000
00000000
00000000
00000000
,
00001000
00000000
00030100
00000000
00010000
00011000
01001000
00000000
,
10001000
00000000
00000000
00000000
00011000
00000000
00000000
00010000
00001000
00000000
01000000
00010000
00200000
00000000
00000000
00000000
,
00001000
00000000
10300000
00000000
00100000
00110000
00101000
00000000
,
00010010
00000000
00000000
00000000
00001001
00000000
00000000
00000010
00000100
00000000
00001000
00000000
00000202
00000000
00000000
00000000
,
00000000
00000000
00000000
00000303
;

//--------------- lights-cabinet - ----------------
#NOTES:
     lights-cabinet:
     :
     Easy:
     1:
     0.570897,0.900376,0.194151,0.056627,0.10112,494,456,24,7,0,9,0.570897,0.900376,0.194151,0.056627,0.10112,494,456,24,7,0,9:
00000000
00000000
00000000
00000000
,
00000000
00000000
00000000
00000000
,
00000000
00000000
00000000
00000000
,
00000000
00000000
00000000
00000000
,
10000000
00010000
10000000
00010000
10000000
00010000
10000000
00010000
,
01000000
00100000
01000000
00100000
01000000
00100000
01000000
00000000
,
00010000
10000000
00010000
10000000
00010000
10000000
00100000
01000000
,
20020000
01100000
01100000
30030000
,
00100000
00000000
00000000
00100000
01000000
00000000
00000000
00000000
00100000
00000000
00000000
00100000
01000000
00000000
00000000
00000000
,
00100000
00000000
01000000
00000000
00100000
10000000
01000000
00000000
,
01000000
00000000
00000000
01000000
00100000
00000000
00000000
00000000
00100000
00000000
00000000
00100000
01000000
00000000
00000000
00000000
,
10000000
00000000
00010000
00000000
01000000
00010000
01000000
00000000
,
00100000
00000000
00000000
00100000
01000000
00000000
00000000
00000000
01000000
00000000
00000000
01000000
00100000
00000000
00000000
00000000
,
00100000
00000000
10000000
00000000
10000000
00010000
01000000
00000000
,
01000000
00000000
00000000
01000000
00100000
00000000
00000000
00000000
00100000
00000000
00000000
00100000
01000000
00000000
00000000
00000000
,
00010000
00000000
10000000
00000000
00100000
01000000
00100000
00000000
,
10000000
00000000
00100000
00000000
10000000
00000000
00010000
01000000
,
00100000
00000000
10000000
00000000
00010000
01000000
00010000
10000000
,
00010000
10000000
00100000
01000000
,
00100000
11000000
00100000
11000000
,
10000000
00100000
10000000
01000000
10000000
00100000
10000000
00010000
,
10000000
00100000
10000000
01000000
10000000
00100000
10000000
00000000
,
01000000
00010000
01000000
00100000
01000000
00010000
01000000
00100000
,
01000000
00010000
01000000
00100000
02000000
00000000
03010000
00000000
,
10000000
00100000
10000000
01000000
10000000
00100000
10000000
00010000
,
10000000
00100000
10000000
01000000
10000000
00000000
10000000
00000000
,
01000000
00010000
01000000
00100000
01000000
00010000
01000000
00100000
,
01000000
00010000
01000000
00100000
01000000
00100000
00100000
00000000
,
01000000
00010000
01000000
00000000
00100000
10000000
00100000
00000000
,
01000000
00010000
01000000
00100000
10000000
00100000
01000000
00000000
,
00010000
01000000
00010000
00000000
10000000
00100000
10000000
00000000
,
00010000
00000000
10000000
00000000
00010000
00000000
01000000
00000000
00100000
00000000
01000000
00010000
00100000
00000000
00000000
00000000
,
10000000
00100000
10000000
00000000
00010000
01000000
00010000
00000000
,
00100000
00010000
00010000
01000000
00100000
10000000
00100000
00000000
,
10000000
00100000
10000000
00000000
00010000
01000000
00010000
00000000
,
10000000
00000000
00100000
00000000
00100000
00000000
01000000
00000000
00100000
00000000
01000000
00010000
01000000
00000000
00000000
00000000
,
10000000
00000000
00000000
00100000
00000000
00000000
01000000
00000000
00010000
00000000
00000000
10000000
00000000
00000000
00100000
00000000
,
10000000
00000000
00000000
00100000
00000000
00000000
01000000
00000000
00010000
00000000
00000000
10000000
00000000
00000000
00100000
00000000
,
10000000
00000000
00000000
00100000
00000000
00000000
01000000
00000000
00010000
00000000
00000000
10000000
00000000
00000000
00100000
00000000
,
01000000
00010000
01000000
00100000
02000000
00000000
03010000
00000000
,
10000000
00010000
00000000
00000000
10000000
00000000
00000000
00000000
00100000
00000000
01000000
00000000
00100000
00000000
00000000
00000000
,
00100000
10000000
00000000
00000000
00100000
00000000
00000000
00000000
01000000
00000000
00100000
00000000
10000000
00000000
00000000
00000000
,
10000000
00100000
00000000
00000000
10000000
00000000
00000000
00000000
00100000
00000000
01000000
00000000
00100000
00000000
00000000
00000000
,
00100000
01000000
00000000
00000000
01000000
00100000
00000000
00000000
00100000
01000000
00000000
00000000
01000000
00100000
00000000
00000000
,
10000000
01000000
00010000
00000000
00010000
01000000
10000000
00000000
,
10000000
00000000
00100000
00000000
01000000
00010000
00010000
00000000
,
10000000
01000000
00010000
00000000
00010000
01000000
10000000
00000000
,
00010000
10000000
10000000
00110000
,
00010000
00100000
10000000
00000000
10000000
00100000
00010000
00000000
,
10000000
00000000
01000000
00000000
10000000
00010000
00010000
00000000
,
10000000
01000000
00010000
00000000
00010000
01000000
10000000
00000000
,
00200000
10000000
00010000
10300000
,
10011100
01101100
10011100
01101100
,
10100000
00110000
01010000
01100000
,
10011100
01101100
00000000
10000000
,
00010000
00000000
01000000
00000000
00100000
10000000
00010000
00000000
,
01000000
00000000
00100000
10000000
00100000
01000000
00010000
00000000
,
10000000
00000000
00100000
00000000
10000000
00100000
10000000
01000000
,
10000000
01000000
10000000
00000000
00110000
00000000
10000000
00100000
,
10000000
01000000
10000000
00100000
10000000
00010000
10000000
00100000
,
10000000
01000000
10000000
00100000
10000000
00000000
01000000
00010000
,
01000000
00100000
01000000
00010000
01000000
00100000
01000000
00010000
,
01000000
00100000
01000000
00000000
00010000
00000000
10000000
00100000
,
10000000
01000000
10000000
00100000
10000000
00010000
10000000
00100000
,
10000000
01000000
10000000
00100000
10000000
00000000
01000000
00010000
,
01000000
00100000
01000000
00010000
01000000
00100000
01000000
00100000
,
10000000
00100000
10000000
10000000
10000000
00000000
00100000
10000000
,
01000000
00000000
01000000
10000000
01000000
00000000
01000000
10000000
,
00010000
01000000
00100000
10000000
00100000
00000000
00010000
00100000
,
00010000
00000000
00010000
00100000
00010000
00000000
00010000
10000000
,
00010000
00000000
01000000
00000000
00100000
00000000
01000000
00010000
10000000
00000000
00000000
00000000
01000000
00000000
10000000
00000000
,
01000000
00000000
10000000
00100000
10000000
00000000
00010000
01000000
,
00010000
10000000
00100000
01000000
00010000
00000000
10000000
00100000
,
01000000
00000000
00010000
00100000
00010000
00000000
10000000
00010000
,
01000000
00000000
00100000
00000000
01000000
00000000
00010000
01000000
00100000
00000000
00000000
00000000
01000000
00000000
00000000
00000000
,
00110000
01000000
00110000
00010000
,
11000000
00010000
11000000
01000000
,
00110000
01000000
00110000
00010000
,
10000000
00000000
00100000
01000000
00010000
00000000
20021100
00000000
,
00000000
00000000
30030000
00000000
;
