#TITLE:Da Roots;
#SUBTITLE:(Folk Mix);
#ARTIST:Mind Reflection;
#TITLETRANSLIT:;
#SUBTITLETRANSLIT:;
#ARTISTTRANSLIT:;
#GENRE:;
#CREDIT:;
#MUSIC:Da Roots.ogg;
#BANNER:Da Roots (Folk Mix).png;
#BACKGROUND:Da Roots (Folk Mix)-bg.png;
#CDTITLE:;
#SAMPLESTART:44.070;
#SAMPLELENGTH:14.340;
#SELECTABLE:YES;
#OFFSET:-0.294;
#BPMS:0.000=128.160
,4.000=128.780
,8.000=129.520
,12.000=125.400
,15.000=133.040
,16.000=122.480
,18.000=132.340
,24.000=128.100
,28.000=131.100
,30.000=134.080
,31.000=132.780
,48.000=132.700
,52.000=132.660
,96.000=132.620
,112.000=132.420
,120.000=132.880
,128.000=132.720
,168.000=132.580
,191.000=133.860
,196.000=132.260
,206.500=133.260
,207.500=132.720
,224.000=132.660
,232.000=133.000
,240.000=132.000
,248.000=133.500
,252.000=131.700
,256.000=131.220
,257.000=127.320
,258.000=127.000
,259.000=118.380
,259.500=115.080
,260.000=102.500
,261.000=103.480
,261.750=98.080
,263.000=88.961
;
#STOPS:;
#BGCHANGES:;
#FGCHANGES:;

//--------------- dance-single - M. Puls ----------------
#NOTES:
     dance-single:
     M. Puls:
     Beginner:
     1:
     0.072,0.126,0.039,0,0:
0000
0000
0000
0000
,
0000
0000
0000
0000
,
0000
0000
0000
0000
,
0000
0000
0000
0000
,
1000
0000
0000
0000
,
0001
0000
0000
0000
,
1000
0000
0000
0000
,
0001
0000
0000
0000
,
0100
0000
0000
0000
,
0100
0000
0000
0000
,
0010
0000
0000
0000
,
0010
0000
0000
0000
,
1000
0000
0000
0000
,
0001
0000
0000
0000
,
1000
0000
0000
0000
,
0001
0000
0000
0000
,
1000
0000
0000
0000
,
0100
0000
0000
0000
,
0010
0000
0000
0000
,
0001
0000
0000
0000
,
0010
0000
0000
0000
,
0100
0000
0000
0000
,
1000
0000
0000
0000
,
0001
0000
0000
0000
,
1000
0000
0000
0000
,
0001
0000
0000
0000
,
0001
0000
0000
0000
,
0001
0000
0000
0000
,
1000
0000
0000
0000
,
1000
0000
0000
0000
,
1000
0000
0000
0000
,
0000
0000
0000
0000
,
1001
0000
0000
0000
,
0000
0000
0000
0000
,
1001
0000
0000
0000
,
0000
0000
0000
0000
,
1001
0000
0000
0000
,
0000
0000
0000
0000
,
1001
0000
0000
0000
,
0100
0000
0000
0000
,
1000
0000
0000
0000
,
0100
0000
0000
0000
,
1000
0000
0000
0000
,
0001
0000
0000
0000
,
0010
0000
0000
0000
,
0001
0000
0000
0000
,
1000
0000
0000
0000
,
0100
0000
0000
0000
,
1000
0000
0000
0000
,
0100
0000
0000
0000
,
0010
0000
0000
0000
,
0100
0000
0000
0000
,
1000
0000
1000
0000
,
0001
0000
0001
0000
,
1000
0000
0000
0000
,
0001
0000
0000
0000
,
1000
0000
0000
0000
,
0001
0000
0000
0000
,
1000
0000
0000
0000
,
0001
0000
0000
0000
,
0100
0000
0000
0000
,
0100
0000
0000
0000
,
0010
0000
0000
0000
,
0010
0000
0000
0000
,
1001
0000
0000
0000
;

//--------------- dance-single - K. Ward ----------------
#NOTES:
     dance-single:
     K. Ward:
     Easy:
     4:
     0.176,0.176,0.047,0,0:
0000
0000
0000
0000
,
0000
0000
0000
0000
,
0000
0000
0000
0000
,
0000
0000
0000
0000
,
1000
0000
0010
0000
,
0100
0000
0010
0010
,
1000
0000
0001
0000
,
0100
0001
0100
0001
,
1000
0000
0001
0000
,
0100
0000
0010
0010
,
1000
0000
0001
0000
,
0100
0000
0001
0001
,
1000
0000
0010
0000
,
1000
0000
0100
0100
,
1000
0000
0010
0000
,
0100
0000
0001
0001
,
1000
0000
0001
0000
,
0100
0100
0100
0000
,
0001
0000
0001
0000
,
1000
1000
1000
0000
,
0001
0000
0100
0000
,
0010
0000
0100
0000
,
0001
0000
0001
0000
,
1000
1000
1000
0000
,
0010
0000
0010
0000
,
1000
0000
1000
1000
,
0010
0000
0100
0000
,
0001
0000
0001
0001
,
1000
0000
0010
0000
,
1000
0000
0001
0001
,
1000
0000
0010
0000
,
1000
0000
0010
1000
,
1001
0000
0000
0000
,
0001
0000
0010
0001
,
1001
0000
0000
0000
,
0100
0000
0010
1000
,
1001
0000
0000
0000
,
0001
0000
0100
0001
,
1001
0000
0000
0000
,
0100
0000
0110
0000
,
1000
0000
0010
0000
,
0100
0000
0010
0100
,
1000
0000
0001
0000
,
0100
0001
0100
0001
,
0010
0000
0100
0000
,
1000
0000
0010
0010
,
0100
0000
0010
0000
,
1000
0000
0001
0001
,
1000
0100
1000
0100
,
1000
0000
0010
0000
,
0100
0001
0100
0001
,
0100
0000
0001
0000
,
1000
0100
1000
0000
,
0001
0010
0001
0000
,
1000
0000
0010
0000
,
1000
0001
0001
0000
,
0100
0000
0001
0000
,
1000
0000
0001
0001
,
1000
0000
0010
0000
,
1000
0100
1000
0010
,
0100
0000
0001
0000
,
1000
0000
0010
0010
,
1000
0000
0010
0000
,
0100
0000
0001
0001
,
1001
0000
0000
0000
;

//--------------- dance-single - K. Ward ----------------
#NOTES:
     dance-single:
     K. Ward:
     Medium:
     7:
     0.301,0.362,0.275,0.055,0:
0000
0000
0000
0000
,
0000
0000
0000
0000
,
0000
0000
0000
0000
,
0000
0000
0000
0000
,
1000
0000
0001
0000
0000
0100
0000
0000
,
0010
0010
0100
0100
,
0001
0000
1000
0000
0000
0100
0000
0000
,
0010
0010
0100
0100
,
1001
0001
0100
0010
,
1000
1000
1000
0000
,
0010
1001
0010
0100
,
0010
0010
0010
0000
,
1001
1000
0100
1000
,
1000
0010
0100
0001
,
1001
0010
0100
0010
,
0100
0100
0100
0000
,
1001
0001
0001
0000
,
0200
0000
0300
0000
,
1001
1000
1000
0000
,
0020
0000
0030
0000
,
0100
0010
0000
0010
0100
0000
1001
0000
,
0010
0100
0000
0100
0010
0000
1001
0000
,
0010
0100
1000
0000
0100
0010
0001
0000
,
0100
0010
0110
0000
,
1001
1000
0100
1000
,
0100
0001
0100
1000
,
1001
0100
0001
0100
,
1000
0000
0100
0000
0010
0100
0010
0000
,
1001
1000
0100
1000
,
0100
0001
0100
1000
,
1001
0010
0100
0001
,
1000
0000
0100
0000
0010
0100
0010
0000
,
1001
0100
0001
0100
,
0001
0001
0001
0000
,
1001
0100
0010
0100
,
1000
1000
1000
0000
,
1001
0100
0001
0010
,
0100
0100
0100
0000
,
1001
0000
0010
0000
0100
0010
0100
0000
,
0010
0010
0010
0000
0110
0000
0000
0000
,
1001
0000
0001
0000
0000
0100
0000
0000
,
0010
0100
0100
0000
,
0010
0000
1001
0000
0000
0010
0000
0000
,
0100
0100
0100
0000
,
1001
0000
0001
0000
0000
0100
0000
0000
,
0010
0010
0010
0000
,
0100
0000
1001
0000
0000
0010
0000
0000
,
0100
1000
0010
0001
,
1001
1000
0100
0010
,
0200
0000
0300
0000
,
1001
0001
0100
0010
,
0020
0000
0030
0000
,
1000
0100
0010
0000
0100
0000
1001
0000
,
0010
0100
0001
0000
0010
0000
1001
0000
,
0100
0010
0001
0000
0100
0010
1000
0000
,
0100
0010
0001
0000
0010
0100
0010
0000
,
1001
0010
1001
0100
,
0010
0010
0010
0000
,
1001
0010
1001
0100
,
0010
0000
1000
0000
0100
0010
0100
0000
,
1001
0010
0101
0010
,
0100
0100
0100
0000
,
1010
0100
0011
0100
,
0010
0000
0100
0000
1000
0100
0010
0000
,
2002
0000
3003
0000
,
0020
0000
0000
0000
0000
0000
0000
0130
;

//--------------- dance-single - K. Ward ----------------
#NOTES:
     dance-single:
     K. Ward:
     Hard:
     10:
     0.459,0.418,0.173,0.126,0.279:
0000
0000
0000
0000
,
0000
0000
0000
0000
,
0000
0000
0000
0000
,
0000
0000
0000
0000
,
0001
0000
1100
0000
0000
0001
0000
0100
,
0010
0000
1000
0100
0000
0010
0100
0000
,
1001
0000
0011
0000
0000
0100
0010
0000
,
0100
0000
0000
0001
0000
1000
1001
0000
,
0001
0000
0000
0001
0100
0000
0000
0100
0010
0000
0000
0010
1000
0000
0000
1000
,
0100
0000
0000
0100
0010
0000
0000
0010
0100
0000
0000
0000
0110
0000
0000
0000
,
1000
0000
0000
1000
0010
0000
0000
0010
0100
0000
0000
0100
0001
0000
0000
0001
,
0010
0000
0000
0010
0100
0000
0000
0100
0010
0000
0000
0000
0011
0000
0000
0000
,
0001
0000
0000
0001
0100
0000
0000
0100
0010
0000
0000
0010
1000
0000
0000
1000
,
0100
0000
0000
0100
0010
0000
0000
0010
0100
0000
0000
0000
0110
0000
0000
0000
,
1000
0000
0000
1000
0010
0000
0000
0010
0100
0000
0000
0100
0001
0000
0000
0001
,
0010
0000
0000
0010
0100
0000
0000
0100
0010
0000
0000
0000
0101
0000
0000
0000
,
1000
0100
1000
0010
0200
0000
1300
0000
,
0100
0010
0100
0001
0020
0000
0130
0000
,
0010
0001
0010
0100
2000
0000
3001
0000
,
0010
0100
0010
0001
0010
0000
1001
0000
,
2000
0000
0010
0000
0001
0010
3001
0000
,
0002
0000
0100
0000
1000
0100
1003
0000
,
1000
0100
0010
0100
1000
0010
0001
0010
,
0100
0001
0010
0100
0020
0000
0130
0000
,
1000
0000
0000
1000
0010
0000
0000
0010
0100
0000
0000
0100
0001
0000
0000
0001
,
0010
0000
0000
0010
0100
0000
0000
0100
0010
0000
0000
0000
0101
0000
0000
0000
,
0001
0000
0000
0001
0010
0000
0000
0010
0100
0000
0000
0100
1000
0000
0000
1000
,
0010
0000
0000
0010
0100
0000
0000
0100
0001
0000
1000
0000
0001
0000
0000
0000
,
1000
0000
0000
1000
0010
0000
0000
0010
0100
0000
0000
0100
0001
0000
0000
0001
,
0010
0000
0000
0010
0100
0000
0000
0100
0020
0000
0000
0000
0031
0000
0000
0000
,
1000
0000
0000
1000
0010
0000
0000
0010
0100
0000
0000
0100
0001
0000
0000
0000
,
0010
0100
0010
0001
0010
0100
0010
0000
,
1001
0000
0010
0000
0100
0001
1000
0000
,
0100
0000
0010
0000
0100
1000
0100
0000
,
1000
0000
0001
0000
0100
0010
1000
0000
,
0010
0100
0010
0100
2000
0000
3100
0000
,
1001
0000
0010
0000
0001
0010
0100
0000
,
0010
0000
0001
0000
1000
0001
0020
0000
,
0130
0000
0010
0000
0010
0001
1000
0000
,
0100
0000
0010
0000
0100
0000
0100
0000
0100
0000
0000
0010
0001
0000
0000
0000
,
1000
0000
1100
0000
0000
0010
0000
0100
,
0001
0000
0010
0100
0000
0100
0010
0000
,
0001
0000
1000
1000
0000
0100
0100
0000
,
0010
0000
0000
0001
0000
0010
0100
0000
,
1001
0000
0100
0000
0000
0010
0000
0001
,
0001
0000
1000
1000
0000
0100
0010
0000
,
1001
0000
0100
0100
0000
0010
0010
0000
,
1000
0000
0000
0100
0000
0010
0110
0000
,
1000
0100
0010
0100
1000
0100
0100
0000
,
1000
0010
0100
0001
0010
0001
0001
0000
,
0010
0001
0100
1000
0100
0010
0010
0000
,
0100
0010
0100
0010
1000
1000
1000
0000
,
0002
0000
0100
0000
1000
0100
1003
0000
,
2000
0000
0010
0000
0001
0010
3001
0000
,
0001
0010
0100
1000
0001
0010
0100
1000
,
0010
0100
0001
0010
0100
0000
0011
0000
,
1000
0000
0000
1000
0010
0000
0000
0010
0100
0000
0000
0100
0001
0000
0000
0001
,
0010
0000
0000
0010
0100
0000
0000
0100
0010
0000
0000
0000
1001
0000
0000
0000
,
0001
0000
0000
0001
0100
0000
0000
0100
0010
0000
0000
0010
1000
0000
0000
1000
,
0100
0000
0000
0100
0010
0000
0000
0010
0100
0000
0000
0000
0011
0000
0000
0000
,
1000
0000
0000
1000
0010
0000
0000
0010
0100
0000
0000
0100
0001
0000
0000
0001
,
0010
0000
0000
0010
0100
0000
0000
0100
0010
0000
0000
0000
1100
0000
0000
0000
,
0001
0000
0000
0001
0100
0000
0000
0100
0010
0000
0000
0010
1000
0000
0000
1000
,
0100
0000
0000
0100
0010
0000
0000
0010
0100
0000
0000
0000
1001
0000
0000
0000
,
2000
0000
3002
0000
,
0203
0000
0000
0000
0010
0000
0000
0000
0000
0310
0000
0000
0000
0000
2002
0000
,
0000
0000
3003
0000
;

//--------------- dance-single - M. Puls ----------------
#NOTES:
     dance-single:
     M. Puls:
     Challenge:
     13:
     0.563,0.673,0.071,0.031,0.306:
0000
0000
0000
0000
,
0000
0000
0000
0000
,
0000
0000
0000
0000
,
0000
0000
0000
0000
,
0001
0000
1000
0000
0000
0100
0000
0010
,
0100
0000
1000
0001
0000
1000
1100
0000
,
0010
0000
0100
0100
0000
0001
0101
0000
,
0001
0000
0000
0000
0100
0000
0010
0000
0000
0000
1000
0001
1000
0000
0000
0000
,
1000
0000
0000
0000
0001
0000
0000
1000
0010
0000
1000
0000
0001
0000
0000
0000
,
1000
0000
0010
0000
1000
0000
0001
0000
1000
0000
0000
0010
1000
0000
0000
0000
,
0001
0000
0000
0000
0100
0000
0000
0001
1000
0000
0001
0000
1000
0000
0000
0000
,
0001
0000
0100
0000
0001
0000
1000
0000
0001
0000
0100
0001
0100
0000
0001
0000
,
0010
0000
0000
0000
0001
0000
0000
1000
0010
0000
1000
0000
0001
0000
0000
0000
,
1000
0000
0010
0000
1000
0000
0001
0000
1000
0000
0000
0010
1000
0000
0000
0000
,
0001
0000
0000
0000
0100
0000
0000
0001
0010
0000
0001
0000
1000
0000
0000
0000
,
0010
0000
0100
0000
0010
0000
1000
0000
0100
0000
0100
1000
0100
0000
1000
0000
,
0010
0000
1000
0001
1000
0000
0100
1000
0100
0000
1000
0000
0001
0000
1000
0000
,
0010
0000
1000
0001
0010
0000
0100
0000
1000
0000
0010
0000
1000
0000
1000
0000
,
0001
0000
0001
1000
0001
0000
0001
0010
0001
0000
0100
0000
0100
0000
0010
0000
,
1000
0000
0001
0010
0001
0000
1000
0000
0001
0000
1000
0100
0010
0000
0001
0000
,
1000
0000
0010
0100
0010
0000
1000
0000
0001
0000
0001
0000
1000
0000
0000
0000
,
0010
0000
0100
0001
0100
0000
0010
0000
1000
0000
0001
0000
0001
0000
0000
0000
,
1000
0000
0100
1000
0100
0000
0010
0001
0010
0000
0001
0000
0100
0000
0001
0000
,
1000
0000
0010
1000
0010
0000
1000
0100
1000
0000
0001
0000
0100
0000
0010
0000
,
1001
0000
0000
0000
1000
0000
0000
0001
0010
0000
0001
0000
1000
0000
0000
0000
,
0001
0000
0100
0000
0001
0000
1000
0000
0001
0000
0000
0100
0001
0000
0000
0000
,
1000
0000
0000
0000
0001
0000
0000
1000
0010
0000
1000
0000
0001
0000
0000
0000
,
1000
0000
0010
0000
1000
0000
0001
0000
1000
0000
0010
1000
0010
0000
1000
0000
,
0100
0000
0000
0000
1000
0000
0000
0001
0100
0000
0001
0000
1000
0000
0000
0000
,
0001
0000
0010
0000
0001
0000
1000
0000
0001
0000
0000
0100
0001
0000
0000
0000
,
1000
0000
0000
0000
0010
0000
0000
1000
0010
0000
1000
0000
0001
0000
0000
0000
,
1000
0000
0010
0000
1000
0000
0001
0000
0010
0000
0010
0001
0100
0000
0001
0000
,
1000
0000
1000
0000
0010
0000
1000
0000
0001
1000
0001
1000
0100
0000
0010
0000
,
0001
0000
0100
0000
0001
0000
1000
0001
1000
0001
0100
0000
0100
0000
0001
0000
,
1000
0000
1000
0000
0010
0000
1000
0001
1000
0001
1000
0001
0100
0000
0010
0000
,
1000
0000
0010
0000
1000
0000
0001
1000
0001
1000
0100
0000
0100
0000
1000
0000
,
1001
0000
0010
0000
0010
0000
0100
0001
1000
0000
0001
0000
0100
0000
0001
1000
,
0001
0000
0001
0000
1001
0000
0001
0000
0001
0010
0100
0000
1000
0000
1000
0000
,
1001
0000
1000
0000
1000
0000
0100
0010
0001
0000
0001
0000
1001
0000
0001
0000
,
0010
0001
0010
0000
1000
0100
1000
0000
0001
0010
0100
1000
0100
0010
0001
0010
,
0001
0000
0000
0000
1000
0000
0000
0001
0100
0000
0001
0000
1000
0000
0000
0000
,
0001
0000
0100
0000
0001
0000
1000
0000
0010
0000
0000
0100
0001
0000
0000
0000
,
1000
0000
0000
0000
1000
0000
0000
0001
0100
0000
0001
0000
1000
0000
0000
0000
,
0001
0000
0100
0000
0001
0000
1000
0000
0001
0000
0100
0001
0100
0000
0001
0000
,
0010
0000
0000
0000
0001
0000
0000
0100
0010
0000
1000
0000
0001
0000
0000
0000
,
1000
0000
0010
0000
1000
0000
0001
0000
1000
0000
0000
0010
1000
0000
0000
0000
,
0010
0000
0000
0000
0100
0000
0000
0001
0010
0000
0001
0000
0100
0000
0000
0000
,
0010
0000
0100
0000
0010
0000
1000
0000
1000
0000
0001
0010
0001
0000
1000
0000
,
0010
0000
1000
0001
1000
0000
0100
1000
0100
0000
0010
0000
0001
0000
1000
0000
,
0010
0000
1000
0001
0010
0000
0100
0000
1000
0000
0010
0000
1000
0000
0010
0000
,
0100
0000
0010
0100
0010
0000
1000
0100
1000
0000
0010
0000
0100
0000
0001
0000
,
1000
0000
0001
1000
0010
0000
0100
0000
0001
0000
1000
0100
0010
0000
0001
0000
,
1000
0100
0010
0001
1000
0001
1000
0000
,
0010
0000
0100
0001
0100
0000
0010
0000
1000
0000
0001
0000
1000
0000
1000
0000
,
0001
0000
0100
0010
0100
0000
0001
0100
0001
0000
1000
0000
0010
0000
0100
0000
,
0002
0100
0103
0001
1000
0010
1000
0000
,
1001
0000
0000
0000
1000
0000
0000
0001
0010
0000
0001
0000
1000
0000
1000
0000
,
0010
0000
0100
0000
0001
0000
0100
0000
0001
0000
0000
0100
0001
0000
1000
0000
,
1000
0000
0000
0000
0010
0000
0000
1000
0010
0000
1000
0000
0001
0000
0001
0000
,
0100
0000
0001
0000
0100
0000
0010
0000
1000
0000
0100
1000
0100
0000
1000
0000
,
0010
0000
0000
0000
0100
0000
0000
0001
0100
0000
0001
0000
1000
0000
0000
0000
,
0010
0000
0100
0000
0001
0000
1000
0000
0010
0000
0000
0100
0001
0000
0000
0000
,
1000
0000
0000
0000
0001
0000
0000
1000
0010
0000
1000
0000
0001
0000
0001
0000
,
1000
0000
0010
0000
1000
0000
0001
0000
1000
0000
0001
0100
0001
0000
1000
0000
,
0002
0000
0000
0000
0103
0000
0000
0001
0100
0000
0010
0000
2000
0000
0000
0000
,
0100
0000
0000
0000
0000
0000
3000
0000
0200
0000
0000
0000
0000
0000
0000
0000
0000
0000
0310
0000
0000
0000
0000
0001
0000
0000
0000
0000
1001
0000
0000
0000
;

//--------------- dance-double - M. Emirzian ----------------
#NOTES:
     dance-double:
     M. Emirzian:
     Easy:
     4:
     0.226,0.235,0.031,0.031,0.008:
00000000
00000000
00000000
00000000
,
00000000
00000000
00000000
00000000
,
00000000
00000000
00000000
00000000
,
00000000
00000000
00000000
00000000
,
01000000
00000000
00100000
00000000
00010000
00000000
00000000
01000000
,
00001000
00010000
00000100
00000010
,
00000000
00000001
00000100
00000000
,
00000010
00010000
00001000
00000000
01000000
00000000
00100000
00000000
,
10000000
01000000
00010000
00000000
,
00010000
00001000
00000010
00000000
,
00001000
00010000
00001000
00000100
,
00000000
00000001
00000010
00000100
,
00010000
00000000
00001000
00000000
,
00100000
00000000
01000000
10000000
,
00100000
00000000
01000000
00000000
,
00001000
00010000
00001000
00010000
,
00010100
00000000
00010000
00001000
,
00000010
00000000
00000001
00000100
,
00000010
00000000
00010000
00001000
,
00000010
00001000
00010000
00000000
,
01000000
10000000
00100000
00000000
,
01000000
00001000
00010000
00000000
,
01000000
10000000
00100000
00000000
,
00010000
00000000
00001000
00000000
00000010
00000000
00000000
00000001
,
00000100
00000010
00010000
00001000
,
00010000
00001000
00010000
00100000
,
10000000
01000000
00010000
00000000
,
00010000
00001000
01000000
00001000
,
00010000
00000100
00000010
00000000
,
00000001
00000100
00001000
00000000
,
00010000
00001000
00000100
00000000
,
00001000
00010000
01000000
00100000
,
01000000
00000000
00010000
00000000
,
00001000
00000000
00000001
00000000
,
00000100
00000000
00001000
00000000
,
01000000
00000000
10000000
00100000
,
01000000
00000000
00010000
00000000
,
00000010
00000000
00000001
00000000
,
00000100
00000000
00001000
00000000
,
00100000
00010000
01000000
00100000
,
10000000
00000000
10010000
00000000
,
01000000
00001000
00010000
00000000
,
00001000
00000010
00000001
00000100
,
00000000
00000001
00000100
00001000
,
00000000
00000100
00000001
00000010
,
00000000
00001000
00010000
00100000
,
00010000
00000000
00001000
00000000
,
01000000
00010000
00100000
01000000
,
10010000
00000000
10000000
01000000
,
00010000
00000000
00001000
00000010
,
00000001
00000000
00000001
00000010
,
00001000
00000000
00000000
00000000
00010000
00001000
00000010
00000000
,
00000001
00000100
00001000
00010000
,
00100000
10000000
01000000
00100000
,
00000000
00010000
00000000
01000000
,
00000000
00001000
00010000
00001000
,
00010010
00000000
00001000
00000000
,
00000001
00000100
00000010
00000000
,
00010000
00000000
00001000
00000000
,
00010000
01000000
00100000
00010000
,
01000000
00100000
00010000
00001000
,
01000000
00001000
00010000
00000100
,
00001000
00000010
00000100
00000001
,
00000000
00000000
00000010
00000100
00010000
00000000
00001000
00000000
,
00002000
00000000
02003000
00000000
,
03200000
00000000
00000000
00000000
00000000
00000000
00000000
00000000
00000000
00000000
00000000
00000000
00000000
00000000
00000000
00000000
00000000
00000000
00000000
00000000
00000000
00000000
00000000
00000000
00000000
00000000
00000000
00000000
00000000
00000000
00000000
00000000
00300000
00000000
00000000
00000000
00000000
00000000
10000000
00000000
00000000
00000000
00000000
00000000
00000000
00000000
00000000
00000000
00000000
00000000
00000000
00000000
00000000
00000000
00000000
00000000
00000000
00000000
00000000
02000000
00000000
00000000
00000000
00000000
,
00000000
00000000
00000000
00000000
00000000
00000000
00000000
03000000
00000000
00000000
00000000
00000000
00000000
00000000
00000000
00000000
;

//--------------- dance-double - M. Emirzian ----------------
#NOTES:
     dance-double:
     M. Emirzian:
     Medium:
     6:
     0.376,0.339,0.008,0.008,0.016:
00000000
00000000
00000000
00000000
,
00000000
00000000
00000000
00000000
,
00000000
00000000
00000000
00000000
,
00000000
00000000
00000000
00000000
,
00010000
00000000
00001000
00000000
00010000
00001000
00000000
00001000
,
00010000
00000000
00010000
00001000
00000000
00001000
01000000
00010000
,
01000000
00000000
01000000
00100000
00000000
00100000
10000000
01000000
,
00100000
00000000
00100000
00010000
00000000
00010000
01000000
00000000
,
00001000
00000000
00010000
00000000
00001000
00010000
00001000
00010000
,
00001000
00000000
00010000
00000000
00000100
00001000
00000100
00001000
,
00000100
00000000
00000010
00000000
00000001
00001000
00000001
00001000
,
00000001
00000000
00000100
00000010
00000000
00000010
00001000
00000100
,
00000010
00000000
00000100
00000000
00010000
00001000
00010000
00001000
,
00010000
00000000
00010000
01000000
00000000
01000000
10000000
00000000
,
00100000
00000000
01000000
00010000
00000000
00010000
01000000
00100000
,
10000000
00000000
10000000
01000000
00000000
01000000
00100000
00000000
,
00010000
00000000
01000000
00000000
00001000
00010000
00001000
00000000
,
00010000
00000000
00000100
00000000
00001000
00000010
00001000
00000000
,
00000100
00000000
00000010
00000001
00000010
00000001
00000010
00000000
,
00000100
00001000
00000010
00010000
,
00001000
00000000
01000000
00000000
00100000
10000000
00100000
00000000
,
01000000
00000000
00010000
00000000
00100000
01000000
00100000
00000000
,
00001000
00000000
00010000
00000000
00000010
00001000
00000010
00001000
,
00000010
00000000
00000100
00000000
00000001
00001000
00000001
00001000
,
00000001
00000000
00000010
00000000
00000100
00001000
00000100
00001000
,
00000100
00000000
00010000
00000000
00001000
00010000
00001000
00010000
,
00001000
00000000
01000000
00000000
00010000
10000000
00010000
10000000
,
00010000
00000000
00100000
01000000
00000000
01000000
10000000
00000000
,
10000000
00000000
00100000
00000000
01000000
00010000
01000000
00010000
,
01000000
00000000
00001000
00010000
00000000
00010000
00000100
00001000
,
00000100
00000000
00000100
00000010
00000000
00000010
00000001
00000100
,
00000010
00000000
00000010
00001000
00000000
00001000
00000100
00000000
,
00010000
00001000
01000000
00010000
,
00100000
00000000
01000000
00000000
10000000
00010000
10000000
00000000
,
00100000
01000000
00010000
00100000
,
00001000
00000000
00010000
00000000
00000100
00001000
00000100
00000000
,
00000010
00000001
00001000
00001000
,
00000001
00000001
00000100
00001000
,
00010000
00000000
00001000
00000000
01000000
00010000
01000000
00000000
,
00100000
10000000
00100000
00000000
01000000
00000000
10010000
00000000
,
00100000
00000000
01000000
00000000
01000000
10000000
00000000
10000000
,
00100000
00000000
00010000
00000000
00001000
00010000
00001000
00010000
,
00001000
00000000
00000100
00000000
00000001
00001000
00000001
00001000
,
00000001
00000000
00000010
00000100
00000000
00000100
00001000
00000000
,
00000010
00000000
00000100
00000000
00000001
00000100
00000001
00000100
,
00000001
00000000
00000010
00000100
00000000
00000100
00010000
00001000
,
01000000
00000000
01000000
00010000
00000000
00010000
01000000
00100000
,
10000000
00000000
10000000
00100000
00000000
00100000
01000000
00000000
,
00010000
00000000
00100000
00000000
00001000
00010000
00001000
00010000
,
00001000
00000000
00000010
00000000
00000001
00001000
00000001
00000000
,
00000100
00000000
00000010
00000000
00001000
00000100
00001000
00000100
,
00001000
00000000
00000010
00010000
00000000
00010000
00001000
01000000
,
00010000
00000000
00100000
00000000
01000000
10000000
01000000
10000000
,
01000000
00000000
00100000
00010000
00000000
00010000
01000000
00100000
,
10000000
00000000
10000000
00010000
00000000
00010000
00100000
00001000
,
00010000
00000000
00010000
00000100
00000000
00000100
00000010
00000000
,
00000001
00000100
00001000
00010000
,
01000000
00000000
10000000
00000000
00100000
10000000
00100000
10000000
,
00100000
00000000
01000000
00000000
00001000
00100000
00001000
00100000
,
00001000
00000000
00010000
00001000
00000000
00001000
00000010
00000000
,
00000001
00000010
00001000
00010000
,
00100000
00000000
10000000
00010000
00000000
00010000
01000000
00100000
,
10000000
00000000
01000000
00100000
00000000
00100000
00001000
00010000
,
00000010
00000000
00001000
00000100
00000000
00000100
00000010
00000000
,
00000001
00000100
00000010
00000000
,
00010000
00000000
00000000
00000000
00000000
00000000
00000000
00000000
00000000
00000000
00000000
00000000
00000000
00000000
00000000
00000000
00000000
00000000
00001000
00000000
00000000
00000000
00000000
00000000
00000000
00000000
00000000
00000000
00000000
00000000
00000000
00000000
00000000
00000000
00000000
00000000
01000000
00000000
00000000
00000000
00000000
00000000
00000000
00000000
00000000
00000000
00010000
00000000
00000000
00000000
00000000
00000000
00000000
00000000
00000000
00000000
00000000
00000000
00000000
00200000
00000000
00000000
00000000
00000000
,
00000000
00000000
00000000
00000000
00000000
00000000
00000000
00300000
00000000
00000000
00000000
00000000
00000000
00000000
00000000
00000000
;

//--------------- dance-double - M. Emirzian ----------------
#NOTES:
     dance-double:
     M. Emirzian:
     Hard:
     9:
     0.542,0.496,0.11,0.008,0.326:
00000000
00000000
00000000
00000000
,
00000000
00000000
00000000
00000000
,
00000000
00000000
00000000
00000000
,
00000000
00000000
00000000
00000000
,
00010000
00000000
00000000
00000000
00001000
00000000
00000000
00010000
00001000
00000000
00010000
00000000
00010000
00000000
00100000
00000000
,
10000000
00000000
01000000
00000000
00100000
00000000
00010000
00000000
10000000
00000000
00010000
00100000
00010000
00000000
10000000
00000000
,
00100000
00000000
00000000
00000000
01000000
00000000
00000000
00010000
10000000
00000000
00100000
00000000
00100000
00000000
01000000
00000000
,
00001000
00000000
00001000
00000000
00010000
00000000
00010000
00000000
00000100
00001000
00000100
00000000
00001001
00000000
00000000
00000000
,
00000010
00000000
00000000
00000000
00000100
00000000
00000000
00001000
00010000
00000000
00001000
00000000
00001000
00000000
00000100
00000000
,
00000001
00000000
00000001
00000000
00000010
00000000
00000010
00000000
00000100
00000000
00010000
00001000
00010000
00000000
00000100
00000000
,
00010000
00000000
00000000
00000000
00001000
00000000
00000000
00010000
00100000
00000000
10000000
00000000
10000000
00000000
01000000
00000000
,
00100000
00000000
00100000
00000000
00001000
00000000
00001000
00000000
00010000
00001000
00010000
00000000
00010100
00000000
00000000
00000000
,
00000010
00000000
00000001
00000000
00000100
00000000
00000000
00000010
00001000
00000000
00000100
00000000
00000100
00000000
00010000
00000000
,
00100000
00000000
00100000
00000000
10000000
00000000
10000000
00000000
01000000
00000000
00100000
00010000
00100000
00000000
00001000
00000000
,
00010000
00000000
00000100
00000000
00000010
00000000
00000000
00000001
00000100
00000000
00000100
00000000
00000010
00000000
00000100
00000000
,
00000001
00000000
00000001
00000000
00001000
00000000
00001000
00000000
00000100
00010000
00000100
00000000
00011000
00000000
00000000
00000000
,
00100000
00000000
00000000
00100000
10000000
00000000
00000000
10000000
01000000
00000000
00000000
01000000
00100000
00000000
00100000
00000000
,
01000000
00000000
00000000
01000000
00010000
00000000
00000000
00010000
00001000
00000000
00000000
00001000
00000010
00000000
00000010
00000000
,
00000100
00000000
00000000
00000100
00001000
00000000
00000000
00001000
00000010
00000000
00000000
00000010
00000100
00000000
00000100
00000000
,
00000001
00000001
00000100
00000100
00000010
00010000
00001000
00000100
,
00001000
00000000
00000000
00001000
00010000
00000000
00000000
00010000
00001000
00000000
00000000
00001000
01000000
00000000
01000000
00000000
,
00001000
00000000
00000000
00001000
00010000
00000000
00000000
00010000
00100000
00000000
00000000
00100000
10000000
00000000
10000000
00000000
,
01000000
00000000
00000000
01000000
00100000
00000000
00000000
00100000
00001000
00000000
00010000
00000000
00000100
00000000
00001000
00000000
,
00000001
00000000
00000100
00000000
00000010
00000000
00001000
00000010
00001000
00000000
00000001
00000000
00000100
00000000
00001000
00000000
,
00010000
00000000
00000000
00000000
00001000
00000000
00000000
01000000
00001000
00000000
00010000
00000000
00010000
00000000
00001000
00000000
,
01000000
00000000
01000000
00000000
00100000
00000000
00100000
00000000
01000000
00000000
00010000
10000000
00010000
00000000
00100000
00000000
,
01000000
00000000
00000000
00000000
10000000
00000000
00000000
00100000
01000000
00000000
00010000
00000000
00010000
00000000
00100000
00000000
,
00001000
00001000
00010000
00010000
01000000
00010000
00001000
00000000
,
00000010
00000000
00000001
00000000
00000100
00000000
00000000
00000010
00000100
00000000
00000001
00000000
00000001
00000000
00000010
00000000
,
00000100
00000100
00010000
00010000
00001000
01000000
00000100
00010000
,
00001000
00000000
01000000
00000000
00010000
00000000
00000000
10000000
01000000
00000000
00100000
00000000
00100000
00000000
00001000
00000000
,
01000000
00000000
01000000
00000000
00100000
00000000
00100000
00000000
01000000
00001000
01000000
00000000
00011000
00000000
00000000
00000000
,
00010000
00000000
00000000
00010000
01000000
00000000
00000000
00000000
01000000
00000000
00000000
01000000
00100000
00000000
00000000
00000000
,
10000000
00000000
00000000
01000000
00000000
00000000
00010000
00000000
00000000
00001000
00000000
00000000
00000100
00000000
00000000
00000000
,
00000001
00000000
00000000
00000001
00000010
00000000
00000000
00000000
00000010
00000000
00000000
00000010
00000100
00000000
00000000
00000000
,
00001000
00000000
00000000
00000001
00000000
00000000
00000100
00000000
00000000
00001000
00000000
00000000
00010000
00000000
00001000
00000000
,
00011000
01000000
10000000
00100000
,
01000000
00001000
00000010
00001000
,
00010000
00000100
00000001
00000100
,
00010000
00000000
00100000
00000000
10000000
00010000
01000000
00000000
,
10100000
00000000
00000000
00000000
M1000000
00000000
00000000
00100000
00010000
00000000
01000000
00000000
01000000
00000000
00100000
00000000
,
01000000
00000000
01000000
00000000
00001000
00000000
00001000
00000000
00010000
00000000
00000010
00001000
00000010
00000000
00000100
00000000
,
00001001
00000000
00000000
00000000
0000M010
00000000
00000000
00000100
00001000
00000000
00000010
00000000
00000010
00000000
00000100
00000000
,
00001000
00000000
00001000
00000000
00010000
00000000
00010000
00000000
00001000
01000000
00001000
00000000
01010000
00000000
00000000
00000000
,
0M010000
00000000
00000000
00000000
01000000
00000000
00000000
00010000
00100000
00000000
01000000
00000000
01000000
00000000
10000000
00000000
,
00100000
00000000
00100000
00000000
00010000
00000000
00010000
00000000
00001000
00000000
00010000
00000100
00010000
00000000
00000100
00000000
,
00001100
00000000
00000000
00000000
00000110
00000000
00000000
00001000
00000100
00000000
00000010
00000000
00000010
00000000
00000001
00000000
,
00000100
00000000
00000100
00000000
00000010
00000000
00000010
00000000
00001000
00000010
00001000
00000000
00010010
00000000
00000000
00000000
,
00010000
00000000
00000000
00010000
01000000
00000000
00000000
01000000
10000000
00000000
00000000
10000000
00100000
00000000
00100000
00000000
,
01000000
00000000
00000000
01000000
00001000
00000000
00000000
00001000
00010000
00000000
00000000
00010000
00001000
00000000
00001000
00000000
,
00000010
00000000
00000000
00000010
00000100
00000000
00000000
00000100
00001000
00000000
00000000
00001000
00000010
00000000
00000010
00000000
,
00000100
00000100
00000001
00000001
00000100
00000010
00010000
00001000
,
00010000
00000000
00000000
00010000
00001000
00000000
00000000
00001000
00010000
00000000
00000000
00010000
00100000
00000000
00100000
00000000
,
10000000
00000000
00000000
10000000
01000000
00000000
00000000
01000000
00100000
00000000
00000000
00100000
00001000
00000000
00001000
00000000
,
00010000
00000100
00001000
00000000
00000010
00010000
00001000
00000000
,
01000000
00001000
00010000
00000100
00000010
00000001
00000100
00000010
,
00001001
00000000
00000000
00000000
00001100
00000000
00000000
00010000
00001000
00000000
01000000
00000000
01000000
00000000
00100000
00000000
,
10000000
00000000
10000000
00000000
01000000
00000000
01000000
00000000
00100000
00000000
00010000
10000000
00010000
00000000
10000000
00000000
,
01000000
00000000
00100000
00000000
00001000
00000000
00000000
00100000
00001000
00000000
00010000
00000000
00010000
00000000
00000100
00000000
,
00000010
00000000
00000010
00000000
00000001
00000000
00000001
00000000
00000100
00000010
00000100
00000000
00001001
00000000
00000000
00000000
,
00000001
00000000
00000010
00000000
00000100
00000000
00010000
00000000
00001000
00000000
00010000
00001000
00010000
00000000
01000000
00000000
,
10000000
00000000
00100000
00000000
01000000
00000000
00001000
00000000
00010000
00001000
00010000
00000000
00000010
00000000
00010000
00000000
,
00001000
00000000
00000100
00000000
00000001
00000000
00000010
00000000
00000100
00000000
00001000
00000010
00001000
00000000
00000100
00000000
,
00000010
00000001
00000010
00000000
00000001
00000000
00000100
00000000
00001000
00000000
00010000
00000000
00100000
00000000
00000000
00000000
,
10000000
00000000
00000000
10000000
01000000
00000000
00000000
01000000
00100000
00000000
00001000
00000000
00001000
00000000
00010000
00000000
,
00000000
00001000
00000000
00000000
00000000
00000000
00000000
00000000
00000000
00000000
00000000
00000100
00000000
00000000
00000000
00000000
00000000
00000000
00000000
00000001
00000000
00000000
00000000
00000000
00000000
00000000
00000000
00000000
00000100
00000000
00000000
00000000
00000000
00000000
00000000
00000000
00000000
00000000
00001000
00000000
00000000
00000000
00000000
00000000
00000000
00000000
00000000
00010000
00000000
00000000
00000000
00000000
00000000
00000000
00000000
00000000
00200000
00000000
00000000
00000000
00000000
00000000
00000000
00000000
,
00000000
00000000
00000000
00000000
00000000
00000000
00000000
00300000
00000000
00000000
00000000
00000000
00000000
00000000
00000000
00000000
;

//--------------- dance-double - M. Emirzian ----------------
#NOTES:
     dance-double:
     M. Emirzian:
     Challenge:
     9:
     0.636,0.678,0.338,0.008,0.361:
00000000
00000000
00000000
00000000
,
00000000
00000000
00000000
00000000
,
00000000
00000000
00000000
00000000
,
00000000
00000000
00000000
00000000
,
00001001
00000000
00000000
00000000
00000110
00000000
00000000
00000010
00000001
00000000
00000100
00000000
00000010
00000000
00000100
00000000
,
00000001
00000000
00000010
00000000
00000100
00000000
00010000
00000000
00100000
00000000
01000000
00010000
01000000
00000000
00100000
00000000
,
10010000
00000000
00000000
00000000
01100000
00000000
00000000
00100000
00001000
00000000
00010000
00000000
00100000
00000000
01000000
00000000
,
00100000
00010000
00001000
00100000
01000000
10000000
01100000
00000000
,
10010000
00000000
M00M0000
00000000
00011000
00000000
00000000
00000100
00000001
00000000
00000010
00000000
00000100
00000000
00001000
00000000
,
00000010
00000000
00001000
00000000
00000001
00000000
00000100
00000000
00001000
00000000
00010000
00001000
00010000
00000000
00000100
00000000
,
00001001
00000000
0000M00M
00000000
00011000
00000000
00000000
01000000
10000000
00000000
00010000
00000000
01000000
00000000
00100000
00000000
,
01000000
00000000
00001000
00000000
00010000
00000000
01000000
00000000
10000000
00100000
01000000
00000000
01100000
00000000
00000000
00000000
,
10010000
00000000
M00M0000
00000000
00011000
00000000
00000000
00000010
00000100
00000000
00000001
00000000
00000100
00000000
00000010
00000000
,
00001000
00000000
00000100
00000000
00000010
00000000
00001000
00000000
00010000
00000000
00000100
00001000
00000010
00000000
00000100
00000000
,
00001001
00000000
0000M00M
00000000
00011000
00000000
00000000
00100000
10000000
00000000
00100000
00000000
01000000
00000000
00010000
00000000
,
00100000
00000000
00010000
00000000
10000000
00000000
01000000
00000000
00010000
00001000
00010000
00000000
00011000
00000000
00000000
00000000
,
01000000
00000000
00100000
00010000
01000000
00000000
00100000
10000000
01000000
00000000
00100000
00000000
00010000
00000000
00100000
00000000
,
00001000
00000000
00010000
00000010
00010000
00000000
00001000
00000000
00010000
00000000
00001000
00000000
00000100
00000000
00000001
00000000
,
00000010
00000000
00000100
00001000
00000010
00000000
00000100
00000001
00000010
00000000
00000100
00000000
00010000
00000000
00001000
00000000
,
00000100
00000000
00001000
00010000
00001000
00000000
01000000
00000000
00100000
00000000
00010000
00001000
00010000
00000000
01000000
00000000
,
10000000
00000000
00100000
10000000
01000000
00000000
00100000
00000000
00010000
00000000
01000000
00000000
00001000
00000000
00010000
00000000
,
00000100
00000000
00000010
00000001
00000100
00000000
00000010
00000000
00000100
00000000
00000001
00000000
00000010
00000000
00000100
00000000
,
00001000
00000000
00000010
00000100
00000010
00000000
00010000
00001000
00010000
00000000
00001000
00000000
00000100
00000000
00001000
00000000
,
00010000
00000000
01000000
10000000
00100000
00000000
01000000
00010000
00100000
00000000
01000000
00000000
10000000
00000000
00100000
00000000
,
10010000
00000000
M00M0000
00000000
00011000
00000000
00000000
00000010
00000001
00000000
00000100
00000000
00000010
00000000
00000100
00000000
,
00001000
00000000
00010000
00000000
00000100
00000000
00000010
00000000
00000001
00000000
00001000
00000100
00000010
00000000
00000001
00000000
,
00001001
00000000
0000M00M
00000000
00011000
00000000
00000000
01000000
10000000
00000000
00100000
00000000
01000000
00000000
00001000
00000000
,
00010000
00000000
00100000
00000000
01000000
00000000
00100000
00000000
10000000
01000000
00100000
00000000
00110000
00000000
00000000
00000000
,
10010000
00000000
M00M0000
00000000
00011000
00000000
00000000
00000010
00000001
00000000
00000010
00000000
00000100
00000000
00010000
00000000
,
00001000
00000000
00010000
00000000
00000010
00000000
00000100
00000000
00000001
00000000
00000010
00000100
00001000
00000000
00000001
00000000
,
00001001
00000000
0000M00M
00000000
00011000
00000000
00000000
00100000
10000000
00000000
00010000
00000000
10000000
00000000
01000000
00000000
,
00100000
00000000
00010000
00000000
01000000
00000000
00001000
00000000
00010000
00000010
00001000
00000000
00010010
00000000
00000000
00000000
,
00001000
00000000
00010000
00000000
00000010
00000000
00001000
00000000
00000000
00000100
00000010
00000000
00000001
00000000
00000100
00000000
,
00000010
00000000
00000100
00000000
00001000
00010000
00000000
00000100
00000000
00010000
00001000
00000000
01000000
00000000
00000000
00000000
,
00010000
00000000
00100000
00000000
00001000
00010000
00000000
00000010
00000000
00010000
00001000
00000000
00000100
00000000
00000001
00000000
,
00001000
00000000
00000100
00000000
00010000
00001000
00000000
00100000
00000000
00001000
00010000
00000000
01000000
00000000
10000000
00000000
,
00010000
00000000
01000000
00000000
00100000
10000000
01000000
00000000
00100000
00000000
00010000
01000000
00000000
01000000
00001000
00000000
,
00010000
00000000
00001000
00000000
00100000
00000000
00001000
00010000
00000000
00010000
00000100
00000000
00001000
00000010
00000100
00000001
,
00000100
00000000
00000010
00001000
00000100
00000000
00000010
00000001
00000100
00000000
00000010
00010000
00000100
00001000
00000010
00000000
,
00000100
00001000
00010000
00000000
00000100
00010000
00001000
01000000
00100000
00000000
10000000
00000000
01000000
00100000
00010000
00000000
,
01100000
00000000
00000000
00000000
10010000
00000000
00000000
10000000
01000000
00000000
00100000
00000000
00010000
00000000
00100000
00000000
,
01000000
00000000
10000000
00000000
00010000
00000000
00100000
00000000
00001000
00000000
00010000
00001000
00010000
00000000
00000100
00000000
,
00000110
00000000
00000000
00000000
00001001
00000000
00000000
00000100
00000010
00000000
00000100
00000000
00000001
00000000
00001000
00000000
,
00000100
00000010
00000100
00010000
00001000
01000000
00100000
00000000
,
10010000
00000000
00000000
00000000
01100000
00000000
00000000
01000000
10000000
00000000
00100000
00000000
10000000
00000000
01000000
00000000
,
00100000
00000000
00001000
00000000
00010000
00000000
00001000
00000000
00000100
00000000
00000001
00001000
00000001
00000000
00000010
00000000
,
00001001
00000000
00000000
00000000
00000110
00000000
00000000
00001000
00000100
00000000
00000010
00000000
00000001
00000000
00001000
00000000
,
00000010
00000100
00001000
00010000
00100000
00010000
00001000
00000000
,
00010000
00000000
00001000
01000000
00010000
00000000
00100000
01000000
10000000
00000000
01000000
00000000
00010000
00000000
01000000
00000000
,
10000000
00000000
00010000
01000000
00100000
00000000
10000000
00000000
01000000
00000000
00100000
00000000
00001000
00000000
00010000
00000000
,
00000010
00000000
00001000
00000100
00000010
00000000
00000100
00010000
00001000
00000000
00000100
00000000
00000001
00000000
00001000
00000000
,
00000100
00000000
00000010
00000001
00000100
00000000
00000010
00000000
00001000
00000000
00000100
00010000
00001000
00000000
00000100
00000000
,
00001000
00000000
00010000
00001000
00010000
00000000
01000000
00000000
00100000
00000000
01000000
00000000
10000000
00000000
00100000
00000000
,
01000000
00000000
00100000
10000000
01000000
00000000
00100000
00000000
00001000
00000000
00010000
00000000
01000000
00000000
00010000
00000000
,
00001000
00000000
00010000
00000100
00001000
00000000
00000010
00001000
00000100
00000000
00000010
00000000
00000001
00000000
00000100
00000000
,
00000010
00000000
00010000
00001000
00100000
00000000
01000000
10000000
00100000
00000000
01000000
00000000
00010000
00000000
00100000
00000000
,
10010000
00000000
M00M0000
00000000
00011000
00000000
00000000
00000010
00000001
00000000
00000100
00000000
00000010
00000000
00010000
00000000
,
00000010
00000000
00000100
00000000
00000001
00000000
00000010
00000000
00001000
00000000
00010000
00001000
00010000
00000000
00000100
00000000
,
00001001
00000000
0000M00M
00000000
00011000
00000000
00000000
01000000
10000000
00000000
00010000
00000000
01000000
00000000
00100000
00000000
,
01000000
00000000
00001000
00000000
00010000
00000000
00100000
00000000
10000000
00010000
00100000
00000000
01100000
00000000
00000000
00000000
,
10010000
00000000
M00M0000
00000000
00011000
00000000
00000000
00000010
00000001
00000000
00000010
00000000
00001000
00000000
00000100
00000000
,
00000010
00000000
00000001
00000000
00001000
00000000
00000010
00000000
00010000
00000000
00000100
00000010
00000100
00000000
00001000
00000000
,
00001001
00000000
0000M00M
00000000
00011000
00000000
00000000
01000000
10000000
00000000
01000000
00000000
00010000
00000000
00100000
00000000
,
01000000
00000000
10000000
00000000
00010000
00000000
00100000
00000000
00001000
00010000
00000100
00000000
01001000
00000000
00000000
00000000
,
00100000
00000000
00000000
00000000
00000000
00000000
00000000
00000000
00000000
00000000
00000000
00000000
00000000
00000000
00000000
00000000
01000000
00000000
00000000
00000000
00000000
00000000
00000000
00000000
00000000
00000000
00000000
00000000
10000000
00000000
00000000
00000000
00100000
00000000
00000000
00000000
00000000
00000000
00000000
00000000
00010000
00000000
00000000
00000000
00000000
00000000
00000000
00000000
00001000
00000000
00000000
00000000
00000000
00000000
00000000
00000000
00000000
00000010
00000000
00000000
00000000
00000000
00000000
00000000
,
00000000
00000000
00000001
00000000
00000000
00000000
00000000
00000000
00000000
00000000
00000000
00000010
00000000
00000000
00000000
00000000
00000000
00000000
00000000
00001000
00000000
00000000
00000000
00000000
00000000
00000000
00000000
00000000
00010000
00000000
00000000
00000000
00000000
00000000
00000000
00000000
00000000
00000000
00100000
00000000
00000000
00000000
00000000
00000000
00000000
00000000
00000000
10000000
00000000
00000000
00000000
00000000
00000000
00000000
00000000
00000000
02000000
00000000
00000000
00000000
00000000
00000000
00000000
00000000
,
00000000
00000000
00000000
00000000
00000000
00000000
00000000
03000000
00000000
00000000
00000000
00000000
00000000
00000000
00000000
00000000
;

//--------------- dance-couple - M. Puls ----------------
#NOTES:
     dance-couple:
     M. Puls:
     Medium:
     8:
     0.733,0.891,1,0.141,0.283:
00000000
00000000
00000000
00000000
,
00000000
00000000
00000000
00000000
,
00000000
00000000
00000000
00000000
,
00000000
00000000
00000000
00000000
,
00011000
00000000
10000001
00000000
00000000
00100100
00000000
01000010
,
00011000
00000000
10000001
00100100
00000000
01000010
10000001
00000000
,
00011000
00000000
01000100
00000000
00010001
00000000
10000000
00010001
,
00000000
00000000
00000000
01000010
00000000
00100100
10000001
00000000
,
00010001
00000000
00000000
00010000
01000000
00000000
00000000
00000100
00000010
00000000
00000000
00100000
10000000
00000000
00000000
00001000
,
00000100
00000000
00000000
01000000
00100000
00000000
00000000
00000010
00000100
00000000
00000000
00000000
01011100
00000000
00000000
00000000
,
10001000
00000000
00000000
10000000
00100010
00000000
00000000
00100000
01000100
00000000
00000000
01000000
00010001
00000000
00000000
00010000
,
00100010
00000000
00000000
00100000
01000100
00000000
00000000
01000000
00100001
00000000
00000000
00000000
01100110
00000000
00000000
00000000
,
00010001
00000000
00000000
00000001
01000100
00000000
00000000
00000100
00100010
00000000
00000000
00000010
10001000
00000000
00000000
00001000
,
01000100
00000000
00000000
00000100
00100010
00000000
00000000
00000010
01000100
00000000
00000000
00000000
01100110
00000000
00000000
00000000
,
10000001
00000000
00000000
10000001
00100100
00000000
00000000
00100100
01000010
00000000
00000000
01000010
00011000
00000000
00000000
00011000
,
00100100
00000000
00000000
00100100
01000010
00000000
00000000
01000010
00100100
00000000
00000000
00000000
01100110
00000000
00000000
00000000
,
10000000
01000000
10000000
00100000
10000000
00000000
01000100
00000000
,
00000100
00001000
00000100
00000001
00000100
00000000
10000000
00000000
,
10000000
01000000
10000000
00100000
10000000
00000000
01000100
00000000
,
01000100
10001000
01000100
00010001
01000100
00000000
10000001
00000000
,
20000002
01000100
01000100
30100013
,
00022000
01000100
01000100
00133010
,
10000001
01000010
00100100
01000010
10000001
01000010
00100100
01000010
,
00100100
01000010
10000001
01000010
00100100
10000001
00100100
00000000
,
10000001
00000000
00000000
00000000
00010001
00000000
00000000
00010000
01000000
00000000
00000000
00000100
00000010
00000000
00000000
00100000
,
10000000
00000000
00000000
00001000
00000100
00000000
00000000
01000000
00100000
00000000
00000000
00000010
00000100
00000000
00000000
00000000
,
01011100
00000000
00000000
00000000
10001000
00000000
00000000
10000000
00100010
00000000
00000000
00100000
01000100
00000000
00000000
01000000
,
00010001
00000000
00000000
00010000
00100010
00000000
00000000
00100000
01000100
00000000
00000000
01000000
00100001
00000000
00000000
00000000
,
01100110
00000000
00000000
00000000
00010001
00000000
00000000
00000001
01000100
00000000
00000000
00000100
00100010
00000000
00000000
00000010
,
10001000
00000000
00000000
00001000
01000100
00000000
00000000
00000100
00100010
00000000
00000000
00000010
01000100
00000000
00000000
00000000
,
01100110
00000000
00000000
00000000
10000001
00000000
00000000
10000001
00100100
00000000
00000000
00100100
01000010
00000000
00000000
01000010
,
00011000
00000000
00000000
00011000
00100100
00000000
00000000
00100100
01000010
00000000
00000000
01000010
00100100
00000000
00000000
00000000
,
01100110
00100010
01000100
00010001
,
10001000
00010001
01000100
00100010
,
10001000
00010001
01000100
00100010
,
10000001
01000010
00100100
01000010
10000001
00000000
00011000
00000000
,
10000001
00000000
00100010
00000000
01000100
00010000
00010001
00000000
,
10001000
00001000
00010000
00000000
01000000
00100000
00100000
00000000
,
10001000
00000000
00010001
00000000
01000100
01000100
00000000
00000000
,
10000001
01000010
00100100
01000010
10000001
00000000
00011000
00000000
,
00011000
00000000
10000001
00000000
00000000
00100010
00000000
01000100
,
00010001
00000000
10001000
00100010
00000000
01000100
10000001
00000000
,
00011000
00000000
10000001
00000000
00000000
00101000
01000001
00000000
,
00010010
00000000
00000000
01100110
00000000
10000001
01000010
00000000
,
00011000
00000000
10000001
00000000
00000000
00100010
00000000
01000100
,
00010001
00000000
10000100
00100010
00000000
01000100
10001000
00000000
,
00010001
00000000
10000100
00000000
00000000
00010010
10000100
00000000
,
01000001
00000000
00000000
01000010
00000000
00100100
10000001
00000000
,
10000001
01000000
10000001
00100000
10000001
00000000
01001000
00000000
,
01001000
00000100
01001000
00000001
01001000
00000000
10000000
00000000
,
10000000
01000000
10000000
00100000
10000000
00000000
01000001
00000000
,
01000001
00000100
01000001
00000010
01000001
00000000
10011001
00000000
,
20000002
00000020
01000000
30100033
,
20000002
02000000
00000100
33000013
,
10000001
01000010
00100100
01000010
10000001
01000010
00100100
01000010
,
00100100
01000010
10000001
01000010
00100100
10000001
00100100
00000000
,
10000001
00000000
00000000
00000000
00010001
00000000
00000000
00010000
01000000
00000000
00000000
00000100
00000010
00000000
00000000
00100000
,
10000000
00000000
00000000
00001000
00000100
00000000
00000000
01000000
00100000
00000000
00000000
00000010
00000100
00000000
00000000
00000000
,
01011100
00000000
00000000
00000000
10001000
00000000
00000000
10000000
00100010
00000000
00000000
00100000
01000100
00000000
00000000
01000000
,
00010001
00000000
00000000
00010000
00100010
00000000
00000000
00100000
01000100
00000000
00000000
01000000
00100001
00000000
00000000
00000000
,
01100110
00000000
00000000
00000000
00010001
00000000
00000000
00000001
01000100
00000000
00000000
00000100
00100010
00000000
00000000
00000010
,
10001000
00000000
00000000
00001000
01000100
00000000
00000000
00000100
00100010
00000000
00000000
00000010
01000100
00000000
00000000
00000000
,
01100110
00000000
00000000
00000000
10000001
00000000
00000000
10000001
00100100
00000000
00000000
00100100
01000010
00000000
00000000
01000010
,
00011000
00000000
00000000
00011000
00100100
00000000
00000000
00100100
01000010
00000000
00000000
01000010
00100100
00000000
00000000
00000000
,
22000022
00000000
00000000
33000033
,
00100010
10000001
00011000
00000000
10000001
00000000
00011000
00000000
,
20022002
00000000
00000000
30033003
;

//--------------- dance-couple - M. Puls ----------------
#NOTES:
     dance-couple:
     M. Puls:
     Hard:
     9:
     1,1,1,0.33,0.33:
00000000
00000000
00000000
00000000
,
00000000
00000000
00000000
00000000
,
00000000
00000000
00000000
00000000
,
00000000
00000000
00000000
00000000
,
00011000
00000000
00000000
00000000
10000001
00000000
00000000
00000000
00000000
01000100
00000000
00000000
00000000
00100010
00000000
01000100
,
00000000
00000000
00011000
00011000
00000000
10000001
10000001
00000000
,
00100010
00000000
01000100
01000100
00000000
00011000
00000000
01000100
,
10000001
00000000
00000000
00000000
00011000
00000000
00100100
00000000
00000000
00000000
10000001
00011000
10000001
00000000
00000000
00000000
,
10000001
00000000
00000000
00000000
00010000
00000000
00000000
10000000
00100010
00000000
20000001
00000100
30011000
00000000
00000000
00000000
,
10000001
00000000
00000100
00000000
10000001
00000000
00010000
00000000
10000001
00000000
00000000
00100010
10000001
00000000
00000000
00000000
,
00011000
00000000
00000000
00000000
10000001
00000000
00000010
00010000
01000100
00000000
00012000
01000000
10003001
00000000
00000000
00000000
,
00011000
00000000
01000010
00000000
00011000
00000000
10000001
00000000
00011000
00000000
01000010
00011000
01000010
00000000
00010000
00000000
,
00100010
00000000
00000000
00000000
10000000
00001000
01000000
00000000
00100100
00000000
00021000
00000100
10030001
00000000
00000000
00000000
,
10000001
00000000
00100010
00000000
10000001
00000000
00011000
00000000
10000001
00000000
00000000
00100010
10000001
00000000
00000000
00000000
,
00011000
00000000
00000000
00000000
10000001
00000000
00000000
00011000
01000100
00000000
00022000
00000000
10033001
00000000
00000000
00000000
,
00010001
00000000
01000100
00000000
00010001
00000000
10001000
00000000
00010001
00000000
01000010
10000001
01000010
00000000
10000001
00000000
,
00100100
00000000
10001000
00010000
10001000
00000000
01000010
10000001
01000010
00000000
00011000
00000000
10001000
00000000
00011000
00000000
,
01000010
00000000
10001000
00010000
00100100
00000000
01000010
00000000
10000001
00000000
00200020
00000000
10300031
00000000
00000000
00000000
,
00100010
00000000
00011000
00000001
00011000
00000000
00100100
00010000
00100100
00000000
10000001
00000000
10001000
00000000
10000001
00000000
,
01000010
00000000
00011000
00000001
01000010
00000000
00100100
00000000
00010001
00000000
10001000
01000100
00100010
00000000
00000000
00000000
,
10001000
01000100
00010001
00100010
10000001
00011000
10000001
00000000
,
00100010
00000000
01000100
00010001
01000100
00000000
00100010
00000000
10001000
00000000
00010001
00000000
10001000
00000000
01000100
00000000
,
10000001
00000000
01000100
10000001
01000100
00000000
00100010
00011000
00100010
00000000
00000000
00000000
10000001
00000000
00011000
00000000
,
10001000
00000000
00010001
10001000
00010001
00000000
00100010
01000100
00100010
00000000
01000100
00000000
01000100
00000000
00000000
00000000
,
10011001
00000000
00000000
00000000
10000001
00000000
00000000
00011000
00100010
00000000
00022000
00000000
10033001
00000000
00000000
00000000
,
00011000
00000000
01001000
00000000
00011000
00000000
10001000
00000000
00011000
00000000
00000001
01001000
00010001
00000000
00000000
00000000
,
10000002
00000000
00000000
00000000
00011000
00000000
00000000
10000000
00100100
00000000
20000000
00000000
30010013
00000000
00000000
00000000
,
10000001
00000000
00100010
00000000
10000001
00000000
00011000
00000000
10000001
00000000
00100100
10000001
00100100
00000000
00011000
00000000
,
20000010
00000000
00000000
00000000
00010001
00000000
00000000
00001000
00100100
00000000
00002000
00000000
31003001
00000000
00000000
00000000
,
00011000
00000000
00010100
00000000
00011000
00000000
00010001
00000000
00011000
00000000
00010000
10000100
00010001
00000000
00000000
00000000
,
10001000
00000000
00000000
00000000
00011000
00000000
00000000
10000001
00100010
00000000
20000002
00000000
30011003
00000000
00000000
00000000
,
10001000
00000000
00100010
00000000
10001000
00000000
00010001
00000000
10001000
00000000
00100010
00010001
01000100
00000000
00010001
00000000
,
10000000
00000000
10000000
00000000
00100000
00000000
10000000
00000000
00010000
10000000
00010000
10000000
01000000
00000000
00010000
00000000
,
10000000
00000000
01000000
00000000
10000000
00000000
00010000
10000000
00010000
10000000
01000000
00000000
01000000
00000000
00000000
00000000
,
00001000
00000000
00001000
00000000
00000010
00000000
00001000
00000000
00000001
00001000
00000001
00001000
00000100
00000000
00000001
00000000
,
00001000
00000000
00000100
00000000
00001000
00000000
00000001
00001000
00000001
00001000
00000010
00000000
00000010
00000000
00000000
00000000
,
10011001
00000000
00000000
00000000
01000100
00000000
01000100
00011000
10000001
00000000
01000100
00000000
00100010
00000000
10000001
00011000
,
10000001
00000000
10000000
00000000
10011001
00000000
10000000
00000000
10001100
01000000
00100000
00000000
00010011
00000000
00010000
00000000
,
10011001
00000000
00001000
00000000
00111000
00000000
00000100
00000010
11000001
00000000
00000001
00000000
10011001
00000000
10000001
00000000
,
01000010
10000001
01000010
00000000
00011000
00100100
00011000
00000000
10000001
01000010
00100100
00011000
00100100
01000010
10000001
01000010
,
00100100
00000000
00000000
00000000
00010000
00000000
00000000
10000000
00100010
00000000
20000001
00000100
30011000
00000000
00000000
00000000
,
10000001
00000000
00000100
00000000
10000001
00000000
00010000
00000000
10000001
00000000
00000000
00100010
10000001
00000000
00000000
00000000
,
00011000
00000000
00000000
00000000
10000001
00000000
00000010
00010000
01000100
00000000
00012000
01000000
10003001
00000000
00000000
00000000
,
00011000
00000000
01000010
00000000
00011000
00000000
10000001
00000000
00011000
00000000
01000010
00011000
01000010
00000000
00010000
00000000
,
00100010
00000000
00000000
00000000
10000000
00001000
01000000
00000000
00100100
00000000
00021000
00000100
10030001
00000000
00000000
00000000
,
10000001
00000000
00100010
00000000
10000001
00000000
00011000
00000000
10000001
00000000
00000000
00100010
10000001
00000000
00000000
00000000
,
00011000
00000000
00000000
00000000
10000001
00000000
00000000
00011000
01000100
00000000
00022000
00000000
10033001
00000000
00000000
00000000
,
00010001
00000000
01000100
00000000
00010001
00000000
10001000
00000000
00010001
00000000
01000010
10000001
01000010
00000000
10000001
00000000
,
00100100
00000000
10001000
00010000
10001000
00000000
01000010
10000001
01000010
00000000
00011000
00000000
10001000
00000000
00011000
00000000
,
01000010
00000000
10001000
00010000
00100100
00000000
01000010
00000000
10000001
00000000
00200020
00000000
10300031
00000000
00000000
00000000
,
00100010
00000000
00011000
00000001
00011000
00000000
00100100
00010000
00100100
00000000
10000001
00000000
10001000
00000000
10000001
00000000
,
01000010
00000000
00011000
00000001
01000010
00000000
00100100
00000000
00010001
00000000
10001000
01000100
00100010
00000000
00000000
00000000
,
10001000
01000100
00010001
00100010
10000001
00011000
10000001
00000000
,
00100010
00000000
01000100
00010001
01000100
00000000
00100010
00000000
10001000
00000000
00010001
00000000
10001000
00000000
01000100
00000000
,
10000001
00000000
01000100
10000001
01000100
00000000
00100010
00011000
00100010
00000000
00000000
00000000
10000001
00000000
00011000
00000000
,
10001000
00000000
00010001
10001000
00010001
00000000
00100010
01000100
00100010
00000000
01000100
00000000
01000100
00000000
00000000
00000000
,
10011001
00000000
00000000
00000000
10000001
00000000
00000000
00011000
00100010
00000000
00022000
00000000
10033001
00000000
00000000
00000000
,
00011000
00000000
01001000
00000000
00011000
00000000
10001000
00000000
00011000
00000000
00000001
01001000
00010001
00000000
00000000
00000000
,
10000002
00000000
00000000
00000000
00011000
00000000
00000000
10000000
00100100
00000000
20000000
00000000
30010013
00000000
00000000
00000000
,
10000001
00000000
00100010
00000000
10000001
00000000
00011000
00000000
10000001
00000000
00100100
10000001
00100100
00000000
00011000
00000000
,
20000010
00000000
00000000
00000000
00010001
00000000
00000000
00001000
00100100
00000000
00002000
00000000
31003001
00000000
00000000
00000000
,
00011000
00000000
00010100
00000000
00011000
00000000
00010001
00000000
00011000
00000000
00010000
10000100
00010001
00000000
00000000
00000000
,
10001000
00000000
00000000
00000000
00011000
00000000
00000000
10000001
00100010
00000000
20000002
00000000
30011003
00000000
00000000
00000000
,
10001000
00000000
00100010
00000000
10001000
00000000
00010001
00000000
10000001
00000000
00100010
10000001
01000100
00000000
00011000
00000000
,
20000002
00000000
32000203
03000300
,
00200020
10001000
00320032
01030103
00100010
01000100
00020002
00000000
,
00230023
00000000
00000000
00000000
,
00300030
00000000
00000000
00000000
;

//--------------- lights-cabinet - ----------------
#NOTES:
     lights-cabinet:
     :
     Easy:
     1:
     0.701,0.914,0.903,0.11,0.008:
00000000
00000000
00000000
00000000
,
00000000
00000000
00000000
00000000
,
10000000
00000000
00110000
00000000
,
10000000
00010000
01000000
10100000
,
00010000
00000000
10000000
00000000
00000000
00100000
00000000
01000000
,
00010000
00000000
10000000
00100000
00000000
01000000
00010000
00000000
,
10000000
00000000
00010000
00000000
00000000
01000000
00100000
00000000
,
10000000
00000000
00000000
10000000
00000000
00100000
10000000
00000000
,
00000000
11110000
00000000
11110000
00000000
11110000
00000000
11110000
,
00000000
11110000
00000000
11110000
00000000
11110000
00000000
11110000
,
00000000
11110000
00000000
11110000
00000000
11110000
00000000
11110000
,
00000000
11110000
00000000
11110000
00000000
11110000
10110000
11110000
,
00000000
11110000
00000000
11110000
00000000
11110000
00000000
11110000
,
00000000
11110000
00000000
11110000
00000000
11110000
00000000
11110000
,
00000000
11110000
00000000
11110000
00000000
11110000
00000000
11110000
,
00000000
11110000
00000000
11110000
00000000
11110000
11110000
00000000
,
10000000
01000000
00100000
10000000
00000000
00010000
00100000
01000000
,
01100000
10000000
10010000
00000000
01100000
00000000
10000000
00200000
,
01300000
00000000
00010000
00000000
01000000
10100000
01000000
00000000
,
00010000
10000000
00100000
01000000
00200000
10300000
00010000
00000000
,
20000000
00000000
00100000
00000000
00010000
00100000
30010000
00000000
,
00020000
00000000
01000000
00000000
10000000
01000000
10030000
00000000
,
10000000
01000000
00100000
01000000
10000000
01000000
00100000
01000000
,
00100000
01000000
10000000
01000000
10000000
00100000
02000000
00000000
,
03000000
11110000
00000000
11110000
00000000
11110000
00000000
11110000
,
00000000
11110000
00000000
11110000
00000000
11110000
00000000
11110000
,
00000000
11110000
00000000
11110000
00000000
11110000
00000000
11110000
,
00000000
11110000
00000000
11110000
10100000
01010000
11110000
11010000
,
00000000
11110000
00000000
11110000
00000000
11110000
00000000
11110000
,
00000000
11110000
00000000
11110000
00000000
11110000
00000000
11110000
,
00000000
11110000
00000000
11110000
00000000
11110000
00000000
11110000
,
00000000
11110000
00000000
11110000
11110000
10010000
01100000
00000000
,
10000000
00000000
00100000
00000000
01000000
00010000
10000000
00000000
,
00100000
00000000
01000000
00000000
00010000
10000000
00100000
01000000
,
00010000
00000000
10000000
00000000
00100000
01000000
00100000
00000000
,
10000000
01000000
00100000
01000000
20000000
00000000
30100000
00000000
,
10010000
00000000
00010000
00000000
01000000
00100000
10000000
00000000
,
00100000
00000000
01000000
00000000
00010000
01000000
02000000
00000000
,
03010000
00000000
10000000
00000000
01000000
00100000
01000000
00100000
,
00010000
00000000
01000000
00000000
00100000
00000000
01000000
00000000
00010000
00000000
00000000
10000000
00010000
00000000
00000000
00000000
,
10000000
00000000
00100000
00000000
00000000
01000000
00000000
00100000
,
10000000
00000000
00010000
01000000
00000000
00100000
10000000
00000000
,
00010000
00000000
00010000
00000000
00000000
00100000
00010000
00000000
,
00010000
00000000
00000000
01000000
00000000
00100000
01100000
00000000
,
10010000
00000000
10000000
00000000
00000000
00100000
00000000
01000000
,
00010000
00000000
10000000
00100000
00000000
10000000
10000000
00000000
,
00100000
00000000
01000000
00000000
00000000
00010000
10000000
00000000
,
00010000
00000000
00000000
01000000
00000000
00100000
01100000
00000000
,
10000000
01000000
10000000
00100000
10000000
01000000
01000000
00000000
,
10000000
00100000
01000000
00010000
00100000
00010000
00010000
00000000
,
00100000
00010000
01000000
00100000
10000000
01000000
01000000
00000000
,
10000000
00100000
01000000
00010000
10000000
00000000
01100000
00000000
,
00020000
00000000
01000000
00000000
10000000
01000000
10030000
00000000
,
20000000
00000000
00100000
00000000
00010000
00100000
30010000
00000000
,
10000000
01000000
00100000
01000000
10000000
01000000
00100000
01000000
,
00100000
01000000
10000000
01000000
10000000
00100000
01100000
00000000
,
00000000
11110000
00000000
11110000
00000000
11110000
00000000
11110000
,
00000000
11110000
00000000
11110000
00000000
11110000
00000000
11110000
,
00000000
11110000
00000000
11110000
00000000
11110000
00000000
11110000
,
00000000
11110000
00000000
11110000
11110000
01010000
10100000
00000000
,
00000000
11110000
00000000
11110000
00000000
11110000
00000000
11110000
,
00000000
11110000
00000000
11110000
00000000
11110000
00000000
11110000
,
00000000
11110000
00000000
11110000
00000000
11110000
00000000
11110000
,
00000000
11110000
00000000
10110000
11100000
01010000
10100000
00000000
,
20000000
00000000
30020000
00000000
,
02030000
00000000
00000000
00000000
00100000
00000000
00000000
00000000
03000000
00100000
00000000
00000000
00000000
00000000
20020000
00000000
,
00000000
00000000
30030000
00000000
;
