#TITLE:DJ Party;
#SUBTITLE:;
#ARTIST:BB Hayes;
#TITLETRANSLIT:;
#SUBTITLETRANSLIT:;
#ARTISTTRANSLIT:;
#GENRE:;
#CREDIT:;
#MUSIC:DJ Party.ogg;
#BANNER:DJ Party.png;
#BACKGROUND:DJ Party-bg.png;
#CDTITLE:;
#SAMPLESTART:42.353;
#SAMPLELENGTH:16.000;
#SELECTABLE:YES;
#OFFSET:0.002;
#BPMS:0.000=130.000;
#STOPS:;
#BGCHANGES:;
#FGCHANGES:;

//--------------- dance-single - K. Ward ----------------
#NOTES:
     dance-single:
     K. Ward:
     Beginner:
     2:
     0.104321,0.158889,0.064198,0,0,91,83,8,0,0,0,0.104321,0.158889,0.064198,0,0,91,83,8,0,0,0:
0000
0000
0000
0000
,
0000
0000
0000
0000
,
0001
0000
0000
0000
,
1000
0000
0000
0000
,
0001
0000
1000
0000
,
0100
0000
1000
0000
,
1001
0000
0000
0000
,
0000
0001
0000
0000
,
0000
0001
0000
0000
,
0000
1000
0000
0000
,
0000
1000
0000
0000
,
0000
0010
0000
0000
,
0000
0010
0000
0000
,
0000
1000
0000
0001
,
0000
1000
0000
0010
,
0000
0100
0000
0000
,
0000
0100
0000
0000
,
0000
0001
0000
0000
,
0000
0001
0000
0000
,
0000
0100
0000
0000
,
0000
0010
0000
0000
,
0000
0110
0000
0000
,
0000
1001
0000
0000
,
1000
0000
0000
0000
,
0001
0000
0000
0000
,
1000
0000
0000
0000
,
0010
0000
0100
0000
,
0001
0000
0000
0000
,
1000
0000
0000
0000
,
0100
0000
0010
0000
,
0100
0000
1000
0000
,
1001
0000
0000
0000
,
0001
0000
0000
0000
,
1000
0000
0000
0000
,
0001
0000
0001
0000
,
0010
0000
0000
0000
,
0100
0000
0000
0000
,
0010
0000
1000
0000
,
1000
0000
0001
0000
,
1001
0000
0000
0000
,
1000
1000
0000
0000
,
0000
0000
0000
0000
,
0001
0001
0000
0000
,
0000
0000
0000
0000
,
0100
0100
0000
0000
,
0000
0000
0000
0000
,
0010
0000
1000
0000
,
0001
0000
0010
0000
,
0001
0000
0000
0000
,
1000
0000
0000
0000
,
0100
0000
0000
0000
,
0010
0000
0000
0000
,
0001
0000
0000
0000
,
1000
0000
0000
0000
,
0001
0000
0000
0000
,
0100
0000
0100
0000
,
0001
0001
0000
0000
,
1000
1000
0000
0000
,
0100
0100
0000
0000
,
1000
0000
0001
0000
,
1001
0000
0000
0000
,
1000
0000
0010
0000
,
1000
0000
0000
0000
,
0001
0000
1000
0000
,
1001
0000
0000
0000
,
0000
0000
0000
0000
,
0110
0000
0000
0000
;

//--------------- dance-single - K. Ward ----------------
#NOTES:
     dance-single:
     K. Ward:
     Easy:
     3:
     0.142152,0.238334,0.048148,0,0,124,118,6,0,0,0,0.142152,0.238334,0.048148,0,0,124,118,6,0,0,0:
0000
0000
0000
0000
,
0000
0000
0000
0000
,
0001
0000
0000
0000
,
1000
0000
0000
0000
,
0001
0001
1000
1000
,
0010
0010
0100
0000
,
1001
0000
0000
0000
,
0000
0001
0000
0010
,
0000
0001
0000
0100
,
0000
1000
0000
0100
,
0000
0001
0000
0010
,
0000
0001
0000
1000
,
0000
0010
0000
0100
,
0100
0000
0001
0000
,
1000
0000
0010
0010
,
0100
0100
0000
0000
,
0001
0001
0000
0000
,
1000
1000
0000
0000
,
0100
0100
0000
0000
,
1000
1000
0000
0000
,
0010
0010
0010
0000
,
0000
0110
0000
0000
,
0000
0110
0000
0000
,
0001
0000
0000
0000
,
1000
0000
0001
0000
,
0010
0000
0000
0000
,
0100
0000
0010
0000
,
0001
0000
0000
0000
,
1000
0000
0000
0000
,
0010
0000
0100
0000
,
0010
0000
0100
0100
,
0100
0000
0000
0000
,
0001
0000
0000
0000
,
1000
0000
0000
0000
,
0100
0000
0010
0100
,
1000
0000
0000
0000
,
0001
0000
0000
0000
,
0010
0000
0001
0000
,
1000
0000
0001
0000
,
1001
0000
0000
0000
,
1000
1000
0000
0000
,
0001
0001
0000
0000
,
0010
0010
0000
0000
,
0100
0100
0000
0000
,
0010
0000
0001
0000
,
1000
0000
0001
0000
,
0010
0010
0010
0000
,
0100
0100
0100
0000
,
0010
0000
0000
0000
,
0001
0000
0000
0000
,
1000
0000
0000
0000
,
0100
0000
0010
0010
,
0010
0000
0000
0000
,
0100
0000
0000
0000
,
1000
0000
0001
0000
,
0100
0000
0010
0000
,
1000
1000
0000
0000
,
0001
0001
0000
0000
,
0010
0010
0000
0000
,
0100
0100
0100
0000
,
1001
0000
0000
0000
,
1000
0000
0010
0010
,
0100
0000
0001
0000
,
0010
0000
0001
1000
,
0001
0000
0000
0000
,
0000
0000
0000
0000
,
0110
0000
0000
0000
;

//--------------- dance-single - K. Ward ----------------
#NOTES:
     dance-single:
     K. Ward:
     Medium:
     6:
     0.253352,0.370742,0.232717,0.13642,0,221,192,29,17,0,0,0.253352,0.370742,0.232717,0.13642,0,221,192,29,17,0,0:
0000
0000
0000
0000
,
0000
0000
0000
0000
,
2000
0000
0000
0000
,
3002
0000
0000
0000
,
0013
0100
0010
0100
,
1000
0001
1000
0001
1000
0001
1000
0000
,
1001
0000
0000
0000
,
1000
1000
0000
0000
,
0001
0001
0000
0000
,
0100
0100
0000
0000
,
0010
0010
0000
0000
,
1000
0001
0000
0000
,
0100
0010
0000
0000
,
1000
0001
1000
0001
,
1000
0000
1000
0000
0001
1000
0001
0000
,
0002
0000
0203
0000
,
0320
0000
1030
0000
,
2000
0000
3020
0000
,
0230
0000
0301
0000
,
1000
0100
0010
0100
,
1000
0000
1000
0000
0001
0010
0001
0000
,
0002
1003
2000
3001
,
0100
0000
0100
0000
0010
0100
0001
0000
,
0011
0000
1100
0000
,
0010
0100
0010
0100
0010
0000
0000
0000
,
1001
0000
0110
0000
,
1000
0001
1000
0001
1000
0000
0000
0000
,
1000
0110
0001
0110
,
1000
0001
1000
0001
,
0100
0100
0100
0100
,
0010
0000
0100
0001
,
2002
0000
3003
0000
,
0100
0010
0100
0000
0010
0100
1000
0000
,
0100
0010
0001
0010
,
0200
0010
1000
0310
,
0001
0011
0000
1100
,
0000
1001
0000
0110
,
0000
1000
0000
0001
0000
1000
0000
0001
,
0000
0010
0000
0010
0000
0100
0000
0000
,
1001
0000
0000
0000
,
0001
0000
0000
0000
,
1000
0000
0000
0000
,
0100
0000
0000
0000
,
0010
0000
0000
0000
,
1100
0000
0000
0000
,
0010
0000
0100
0000
,
0000
1100
0000
0110
0000
1100
0000
0110
,
0000
0011
0000
0110
0000
2002
0000
0000
,
3003
0100
0010
1100
,
0001
0000
0100
0000
1000
0100
0010
0000
,
1000
0010
0100
0011
,
0100
0010
0100
2000
,
3001
0110
0001
0011
,
1000
0000
1100
0000
0010
0100
0010
0001
,
0010
0100
0001
1000
,
0100
0010
0100
1000
,
1001
0001
0000
0000
,
1000
1000
0000
0000
,
0010
0100
0000
0000
,
0010
0010
0010
0010
,
0100
1001
0000
0100
,
0010
1100
0000
0010
,
0100
1000
0010
0001
,
0010
0100
0001
1000
,
0002
0000
0003
0000
,
0000
0000
0000
0000
,
1000
0000
0000
0000
;

//--------------- dance-single - K. Ward ----------------
#NOTES:
     dance-single:
     K. Ward:
     Hard:
     10:
     0.408114,0.450187,0.401236,0.112346,0.116358,356,306,50,14,0,0,0.408114,0.450187,0.401236,0.112346,0.116358,356,306,50,14,0,0:
0000
0000
0000
0000
,
0000
0000
0000
0000
,
1000
0001
0000
0000
0000
0000
0000
0000
,
0001
1000
0000
0000
0000
0000
0000
0000
,
1001
0110
1100
0011
,
0100
0010
1000
0100
0010
0001
0010
0100
,
1000
0000
0100
0010
,
0100
0000
1001
0000
1000
0100
0010
0000
,
0100
0000
1100
0000
0010
0100
0001
0010
,
0100
0000
1010
0000
0100
0010
0001
0000
,
0010
0000
0010
0000
0100
1000
0100
0010
,
0100
0000
0011
0000
0100
0010
1000
0000
,
0100
0000
1001
0000
0010
0100
1000
0000
,
0100
1100
0001
0011
,
0100
0000
1001
0000
0010
0100
0001
0000
,
0020
0000
0130
0000
0000
1100
0000
0000
,
0200
0000
0310
0000
0000
1001
0000
0000
,
0100
0000
0100
0000
0010
1000
0100
0000
,
0010
0000
0000
0000
0001
0000
0000
0000
0010
0000
0001
0000
0100
0000
0000
0010
,
0100
0000
1000
0000
0100
0010
1000
0000
,
0200
0000
0000
0310
0000
0000
0000
0000
,
0010
0100
0010
0100
,
1001
0000
0110
0000
0001
0100
0010
0000
,
1000
0000
0100
0000
0010
0000
0000
0100
0000
1000
0000
0010
0000
0000
0000
0000
,
0100
0000
0010
0000
0100
0000
0000
0001
0000
1000
0000
0001
0000
0000
0000
0000
,
0100
0000
0100
0000
0100
0000
0000
0001
0000
0010
0000
0010
0000
0000
0000
0000
,
1000
0000
0100
0000
0100
0000
0000
0010
0100
0000
0000
0000
0110
0000
0000
0000
,
0001
0001
0001
0000
0100
0010
1000
0000
,
0100
0010
0001
0010
0001
0010
0100
0000
,
0000
1100
0000
0011
0000
1001
0000
0110
,
0000
0011
0000
0000
0100
0100
0100
0000
,
2002
0000
3003
0000
,
0100
0010
1000
0100
0010
0001
0010
0000
,
0100
0010
0001
0000
0100
0010
1000
0000
,
0001
0000
1000
0000
0001
1000
0000
0001
0000
1000
0000
0001
0000
0000
0000
0000
,
0100
0010
1000
0000
0100
0010
0001
0000
,
0010
0100
1000
0100
0010
0100
0100
0000
,
0010
0011
0100
1100
,
0001
0100
0010
0000
1000
0100
0010
0000
,
2002
0000
0000
3003
,
0100
0000
1010
0000
0000
0011
0000
0000
,
1100
0000
0000
0110
0000
0000
1001
0000
,
0000
0000
0100
0000
0000
0110
0000
0000
,
0011
0000
0000
1100
0000
0000
0000
0000
,
1001
0000
0100
0000
0100
0010
0000
0010
,
1000
0000
1000
0100
0000
0100
0010
0000
,
0000
0011
0000
1100
0000
0110
0000
1001
,
0000
0110
0000
2002
0000
0000
3003
0000
,
0001
0000
0010
0000
0100
0000
0000
1000
0000
0001
0000
1000
0000
0000
0000
0000
,
0100
0000
0010
0000
0001
0000
0000
0010
0000
0100
0000
0010
0000
0000
0000
0000
,
0100
0000
0100
0000
0100
0000
0000
1000
0000
0001
0000
1000
0000
0000
0000
0000
,
0010
0100
0001
0000
0010
0000
0011
0000
,
0100
0000
0010
0000
1000
0000
1000
0000
0100
0000
0000
0100
0010
0000
0000
0000
,
0001
0010
0100
0000
0010
0001
0100
0000
,
1000
1000
0100
0000
0001
0001
0010
0000
,
1001
0010
0100
0000
0101
0010
0100
0000
,
1000
0100
1000
0100
0010
0100
1000
0000
,
0001
0010
0100
0010
0001
0010
0100
0000
,
1000
0100
0010
0100
1000
1000
1000
0000
,
0010
0100
0001
0010
0001
0001
0001
0000
,
0010
0000
1100
0000
0100
0010
1001
0000
,
0001
0000
1000
0000
0001
1000
0000
0001
0000
1000
0000
0002
0000
0000
0000
0000
,
0000
0013
0000
0110
0000
1100
0000
0022
,
0000
0000
0033
0000
0100
0100
0100
0000
,
2002
0000
3003
0000
,
0000
0000
0000
0000
,
0100
0000
0000
0000
;

//--------------- dance-double - M. Emirzian ----------------
#NOTES:
     dance-double:
     M. Emirzian:
     Easy:
     1:
     0.074515,0.132408,0.040124,0.048148,0,65,60,5,6,0,0,0.074515,0.132408,0.040124,0.048148,0,65,60,5,6,0,0:
00000000
00000000
00000000
00000000
,
00000000
00000000
00000000
00000000
,
00000000
00000000
00000000
00000000
,
00000000
00000000
00000000
00000000
,
10000000
00000000
00010000
00000000
,
00100000
00000000
00000000
00000000
,
00022000
00000000
00000000
00033000
,
00010000
00000000
00000000
00000000
,
00000100
00000000
00000000
00000000
,
00000010
00000000
00000000
00000000
,
00000001
00000000
00000000
00000000
,
00010000
00000000
00000000
00000000
,
00100000
00000000
00000000
00000000
,
10000000
00000000
00000000
00000000
,
00010000
00000000
00000000
00000000
,
00001000
00000000
00000000
00000000
,
00000010
00000000
00000000
00000000
,
00001000
00000000
00000000
00000000
,
01000000
00000000
00000000
00000000
,
00001000
00000000
00000000
00000000
,
00000001
00000000
00000000
00000000
,
00000100
00000000
00000000
00000000
,
00010000
00000000
00000000
00000000
,
10000000
00000000
00000000
00000000
,
00010000
00000000
00000000
00000000
,
00001000
00000000
00000000
00000000
,
00000010
00000000
00000000
00000000
,
00010000
00000000
00000000
00000000
,
10000000
00000000
00000000
00000000
,
00001000
00000000
00000000
00000000
,
00000100
00000000
00000001
00000000
,
00000110
00000000
00000000
00000000
,
00010000
00000000
00000000
00000000
,
00001000
00000000
00000000
00000000
,
01000000
00000000
00000000
00000000
,
10000000
00000000
00000000
00000000
,
00001000
00000000
00000000
00000000
,
00000100
00000000
00000000
00000000
,
00000001
00000000
00000000
00000000
,
00022000
00000000
00000000
00033000
,
00001000
00000000
00000000
00000000
,
00000000
00000000
00000000
00000000
,
00000001
00000000
00000000
00000000
,
00000000
00000000
00000000
00000000
,
00100000
00000000
00000000
00000000
,
00000000
00000000
00000000
00000000
,
00000100
00000000
00000000
00000000
,
00000000
00000000
00000000
00000000
,
00010000
00000000
00000000
00000000
,
10000000
00000000
00000000
00000000
,
00010000
00000000
00000000
00000000
,
00001000
00000000
00000000
00000000
,
00000010
00000000
00000000
00000000
,
00000100
00000000
00000000
00000000
,
00010000
00000000
00000000
00000000
,
01000000
00000000
00000000
00000000
,
00000010
00000000
00000000
00000000
,
00000001
00000000
00000000
00000000
,
00010000
00000000
00000000
00000000
,
01000000
00000000
00000000
00000000
,
10000000
00000000
00000000
00000000
,
00001000
00000000
00000000
00000000
,
00000100
00000000
00000000
00000000
,
00010000
00000000
00000000
00000000
,
00022000
00000000
00000000
00033000
,
00000000
00000000
00000000
00000000
,
01100000
00000000
00000000
00000000
;

//--------------- dance-double - M. Emirzian ----------------
#NOTES:
     dance-double:
     M. Emirzian:
     Medium:
     4:
     0.229278,0.264816,0.048148,0.048148,0,200,194,6,6,0,0,0.229278,0.264816,0.048148,0.048148,0,200,194,6,6,0,0:
00000000
00000000
00000000
00000000
,
00000000
00000000
00000000
00000000
,
00000000
00000000
00000000
00000000
,
00000000
00000000
00000000
00000000
,
10000000
00000000
00010000
00000000
,
00000000
00010000
00000000
10000000
00000000
01000000
00000000
00010000
,
00022000
00000000
00000000
00033000
,
00000100
00000000
00000010
00000000
,
00000001
00000000
00000000
00000000
00000100
00000000
00000010
00001000
,
00000010
00000000
00010000
00000000
,
00001000
00000000
00000000
00000000
01000000
00000000
00100000
01000000
,
00100000
00000000
10000000
00000000
,
00010000
00000000
00000000
00000000
00100000
00000000
00001000
00010000
,
00001000
00000000
00010000
00000000
,
00000100
00000000
00000000
00000000
00001000
00000000
00000001
00000100
,
00000001
00000000
00000100
00000000
,
00000010
00000000
00000000
00000000
00010000
00000000
00001000
00010000
,
00001000
00000000
01000000
00000000
,
00010000
00000000
00000000
00000000
00100000
00000000
01000000
10000000
,
01000000
00000000
00100000
00000000
,
00001000
00000000
00000000
00000000
00010000
00000000
00001000
00010000
,
00001000
00000000
00010000
00000000
,
00000100
00000000
00000000
00000000
00000010
00000000
00000001
00001000
,
00000001
00000100
00000010
00001000
,
00000100
00000010
00000001
00000100
,
00001000
00010000
00001000
00010000
,
00100000
10000000
00010000
00100000
,
01000000
10000000
00010000
01000000
,
00001000
00010000
00000010
00001000
,
00000100
00000010
00000001
00001000
,
00000010
00000100
00000001
00001000
,
00000110
00000001
00000010
00001000
,
00010000
00001000
01000000
00010000
,
10000000
00100000
01000000
00010000
,
00100000
01000000
10000000
01000000
,
00010000
00001000
00010000
00000100
,
00001000
00000010
00000100
00000001
,
00000000
00000010
00000000
00000100
00000000
00001000
00000000
00000001
,
00000000
00000100
00000000
00001000
00000000
00010000
00000000
00000100
,
00022000
00000000
00000000
00033000
,
00011000
00000000
00000000
00000000
,
00010000
00000000
00000000
00000000
,
01000000
00000000
00000000
00000000
,
10000000
00000000
00000000
00000000
,
00100000
00000000
00000000
00000000
,
00010000
00000000
00000000
00000000
,
00001000
00000000
00000000
00000000
,
00000010
00000000
00000000
00000000
,
00000001
00000100
00000001
00000010
,
00000100
00001000
00000010
00010000
,
00001000
00010000
00001000
00010000
,
00100000
10000000
00010000
10000000
,
01000000
00100000
01000000
00100000
,
00001000
00010000
00001000
00000100
,
00000000
00000001
00000000
00000010
00000000
00000100
00000000
00001000
,
00000000
00000001
00000000
00000010
00000000
00001000
00000000
00010000
,
00001000
00010000
00000100
00010000
,
00001000
01000000
00010000
00100000
,
01000000
10000000
00100000
01000000
,
00010000
00100000
00001000
00010000
,
00000100
00001000
00000010
00000100
,
00000001
00000010
00000100
00001000
,
00000000
00000001
00000000
00000100
00000000
00001000
00000000
00010000
,
00000000
01000000
00000000
10000000
00000000
01000000
00000000
00010000
,
00022000
00000000
00000000
00033000
,
00000000
00000000
00000000
00000000
,
10010000
00000000
00000000
00000000
;

//--------------- dance-double - M. Emirzian ----------------
#NOTES:
     dance-double:
     M. Emirzian:
     Hard:
     7:
     0.374869,0.397223,0.192593,0.048148,0,327,303,24,6,0,0,0.374869,0.397223,0.192593,0.048148,0,327,303,24,6,0,0:
00000000
00000000
00000000
00000000
,
00000000
00000000
00000000
00000000
,
00000000
00000000
00000000
00000000
,
00000000
00000000
00000000
00000000
,
00100000
10000000
01000000
00100000
,
00001000
00011000
00000000
00100000
00000000
00010010
00000000
00000001
,
00002002
00000000
00000000
00003003
,
00000100
00000010
00000001
00000100
,
00000010
00000000
00001000
00000000
00000100
00000000
00000010
00000100
,
00001000
00000001
00000100
00001000
,
00010000
00000000
00001000
00000000
01000000
00000000
00010000
00100000
,
01000000
10000000
00100000
01000000
,
00010000
00000000
00100000
00000000
01000000
00000000
10000000
00010000
,
01000000
00001000
00010000
00000010
,
00001000
00000000
00000100
00000000
00000010
00000000
00000001
00001000
,
00000100
00000010
00000001
00000100
,
00000010
00000000
00010000
00000000
00001000
00000000
01000000
00010000
,
10000000
01000000
00010000
00001000
,
00010000
00000000
00000100
00000000
00000010
00000000
00000100
00001000
,
00000001
00000100
00000010
00010000
,
00001000
00000000
01000000
00000000
00100000
00000000
10000000
01000000
,
00100000
00010000
10000000
00100000
,
01000000
00001000
00010000
00011000
,
00000100
00001000
00000001
00000000
00000010
00000100
00001000
00000000
,
00000001
00000100
00000010
00001000
00000100
00000010
00000001
00000000
,
00000001
00000100
00001000
00000000
00010000
01000000
10000000
00000000
,
00010000
01000000
00100000
10000000
01000000
00100000
00010000
00000000
,
10000000
00100000
00010000
00000000
00001000
00000010
00000001
00000000
,
00001000
00000010
00000100
00000001
00000010
00000100
00001000
00000000
,
00000010
00010010
00000000
00001000
00000000
01001000
00000000
00010000
,
00000000
01100000
00000000
10000000
00000000
01010000
00000000
00100000
,
10000000
01000000
00100000
00000000
00010000
01000000
00100000
00000000
,
10000000
01000000
00010000
00001000
00000100
00000001
00000010
00000000
,
00000100
00001000
00000001
00000000
00000100
00000010
00001000
00000000
,
00000100
00000010
00000001
00000100
00000010
00010000
00001000
00000000
,
00010000
00001000
01000000
00000000
00100000
01000000
00010000
00000000
,
00100000
01000000
10000000
00100000
01000000
00010000
00100000
00000000
,
01000000
00110000
00000000
01000000
00000000
01001000
00000000
00010000
,
00000000
00101000
00000000
00010000
00000000
00010010
00000000
00000100
,
00002020
00000000
00000000
00003030
,
00001001
00000000
00001000
00000000
00000000
00000100
00000000
00000000
,
00000010
00000000
00000000
00000001
00000000
00000100
00000000
00000001
,
00000000
00000000
00000100
00000000
00000000
00001000
00000000
00000000
,
00000100
00000000
00000000
00000001
00000000
00000010
00000000
00000100
,
00000000
00000000
00010000
00000000
00000000
00001000
00000000
00000000
,
01000000
00000000
00000000
00100000
00000000
10000000
01000000
10000000
,
00000000
00100000
00000000
10000000
00000000
01000000
00000000
00010000
,
00000000
01000000
00000000
10000000
00000000
00100000
00000000
00010000
,
00001000
00100000
00001000
00000000
00010000
00000100
00001000
00000000
,
00000001
00000100
00000010
00001000
00000100
00000010
00000001
00000000
,
00000100
00000010
00001000
00000000
00000001
00000100
00001000
00000000
,
00010000
00001000
01000000
00010000
00100000
01000000
10000000
00000000
,
10000000
00100000
01000000
00000000
00010000
00100000
01000000
00000000
,
10000000
00100000
00010000
00001000
00010000
00000100
00001000
00000000
,
00000000
00000011
00000000
00000100
00000000
00001010
00000000
00000100
,
00000000
00010010
00000000
00001000
00000000
01001000
00000000
00100000
,
00010000
01000000
00100000
00000000
10000000
00010000
01000000
00000000
,
10000000
01000000
00010000
00100000
01000000
10000000
00010000
00000000
,
10000000
01000000
00010000
00000000
00001000
00000100
00000001
00000000
,
00000010
00000100
00001000
00000010
00000100
00000001
00000010
00000000
,
00000100
00001000
00000001
00000000
00000100
00000010
00010000
00000000
,
00001000
00000100
00001000
00010000
00100000
10000000
01000000
00000000
,
00100000
01010000
00000000
00100000
00000000
01001000
00000000
00010000
,
00000000
00010010
00000000
00001000
00000000
00000110
00000000
00000001
,
00002002
00000000
00000000
00003003
,
00000000
00000000
00000000
00000000
,
10010000
00000000
00000000
00000000
;

//--------------- dance-double - M. Emirzian ----------------
#NOTES:
     dance-double:
     M. Emirzian:
     Challenge:
     9:
     0.572048,0.609076,0.569755,0.016049,0.216667,499,428,71,2,50,2,0.572048,0.609076,0.569755,0.016049,0.216667,499,428,71,2,50,2:
00000000
00000000
00000000
00000000
,
00000000
00000000
00000000
00000000
,
10001000
01010000
00000000
00000000
00000000
00011000
00000000
00000000
,
00010001
00001010
00000000
00000000
00000000
00011000
00000000
00000000
,
00010100
00000000
00011000
00000000
01001000
00000000
00010000
00001000
,
01000000
10010000
00000000
01001000
00000000
00010010
00000000
00001001
,
00000101
00000M0M
00000000
00000000
00000010
00000100
00001000
00000001
,
00000100
00000000
00000010
00001000
00000100
00000000
00010000
00001000
00000000
00000000
00010000
00001000
01000000
00000000
00010000
01000000
,
00000000
00000000
00100000
10000000
01000000
00000000
01000000
00100000
00010000
00000000
00010000
01000000
00001000
00000000
00010000
00000000
,
00000100
00000000
00000010
00000100
00001000
00000000
00000010
00001000
00000000
00000000
00000100
00000001
00000010
00000000
00001000
00000100
,
00000000
00000000
00010000
00001000
01000000
00000000
01000000
00100000
10000000
00000000
10000000
01000000
00100000
00000000
00010000
00000000
,
00100000
00000000
00001000
00010000
00000100
00000000
00010000
00001000
00000000
00000000
00000010
00000100
00000001
00000000
00001000
00000010
,
00000000
00000000
00000100
00010000
00001000
00000000
00001000
01000000
00001000
00000000
00001000
00010000
00001000
00000000
00010000
00000000
,
00011000
01000100
00011000
01001000
,
00011000
00000000
00000110
00000000
00000001
00001000
00000100
00000010
,
00000001
00000000
00001000
00000010
00000100
00000000
00000001
00000100
00000000
00000000
00000010
00001000
00000100
00000000
00010000
00000100
,
00000000
00000000
00010000
00001000
01000000
00000000
01000000
00010000
10000000
00000000
10000000
01000000
00100000
00000000
00010000
00000000
,
01000000
00000000
00001000
00010000
00000100
00000000
00001000
00010000
00000000
00000000
00000010
00000100
00000001
00000000
00000010
00001000
,
00000000
00000000
00000100
00000010
00000001
00000000
00000001
00000100
00000010
00000000
00000010
00001000
00000100
00000000
00010000
00000000
,
00001000
00000000
01000000
00010000
00100000
00000000
00010000
10000000
00000000
00000000
00100000
00001000
00010000
00000000
00001000
00100000
,
00000000
00000000
00010000
00001000
01000000
00000000
01000000
00010000
00100000
00000000
00001000
00000000
00010000
00000000
00001000
00000000
,
00100010
00011000
01001000
00010100
,
00011000
00000000
00000100
00000000
00010000
00001000
00000100
00000001
,
00001000
0000M00M
00000010
0000M0M0
00010000
000M00M0
00001000
000MM000
,
10000000
00010000
10000000
00000000
01000000
00000000
00100000
00000000
00001000
00000000
00010000
00000000
00001000
00000000
00100000
00000000
,
00001000
01000000
00001000
00010000
00000010
00001000
00000010
00000001
,
00000100
00000010
00000100
00000000
00000001
00000000
00000100
00000000
00000010
00000000
00010000
00000000
00001000
00000000
00000100
00000000
,
00000001
0000M00M
00000010
000000MM
00001000
0000M0M0
01000000
0M0M0000
,
01000000
00010000
01000000
00000000
00100000
00000000
10000000
00000000
01000000
00000000
00010000
00000000
00001000
00000000
00010000
00000000
,
01000000
10010000
00000000
01001000
00000000
00011000
00000000
01000100
,
00000000
00011000
00000000
00010000
00001000
00100000
00001000
00010000
,
00100000
01000000
10000000
01000000
00100000
00010000
00001000
01000000
,
00001000
00010000
00001000
00000000
01000000
00000000
00001000
00000000
00100000
00000000
00001000
00000000
01000000
00000000
10000000
00000000
,
01000000
MM000000
00001000
0M00M000
00100000
00M0M000
00000100
00M00M00
,
00010000
00001000
00010000
00000000
00000100
00000000
00000010
00000000
00000100
00000000
00010000
00000000
00000100
00000000
01000000
00000000
,
00001000
10000000
00001000
00010000
00000100
00010000
00001000
00010000
,
00000010
00010000
00000010
00000000
00001000
00000000
00000100
00000000
00000001
00000000
00000100
00000000
00001000
00000000
00000100
00000000
,
00000001
00001001
00000000
00010001
00000000
00011000
00000000
01000100
,
00000000
00011000
00000000
01000000
00010000
10000000
01000000
01010000
,
10010000
00000000
00000000
00000000
,
01001000
00000000
00110000
00000000
00000000
10001000
00000000
00000000
,
00001100
00000000
00000000
10010000
00000000
01000000
00100000
00010000
,
00000000
00000000
00022000
00000000
00000000
00100000
00000000
00000000
,
00000010
00033000
00000000
00000000
00000000
00000000
00010001
00000000
00000000
00000000
00001000
00000000
00000100
00000000
00000010
00000000
,
00000000
00000000
00010001
00000000
00000000
01001000
00000000
00000000
,
00000110
00000000
00000000
00010100
00000000
00001000
00000100
00010000
,
00011000
01000100
00011000
00100010
,
00011000
00000000
01100000
00000000
00010000
00001000
01000000
00100000
,
10000000
M0M00000
00001000
M000M000
00010000
000MM000
00000001
000M000M
,
00000010
00000100
00000010
00000000
00000001
00000000
00000100
00000000
00001000
00000000
00000010
00000000
00001000
00000000
00000100
00000000
,
00000001
00000M0M
00010000
000M000M
00001000
000MM000
10000000
M000M000
,
01000000
00100000
01000000
00000000
00010000
00000000
00100000
00000000
01000000
00000000
00010000
00000000
10000000
00000000
00010000
00000000
,
01000000
0M0M0000
00100000
00MM0000
00000100
00M00M00
00010000
000M0M00
,
00001000
00010000
00001000
00000000
00000100
00000000
00000001
00000000
00010000
00000000
00001000
00000000
10000000
00000000
00001000
00000000
,
00010000
00011000
00000000
01000100
00000000
00011000
00000000
00101000
,
00000000
01001000
00000000
00101000
00000000
00010000
00000000
01000000
,
00100000
10000000
01000000
00100000
00001000
00010000
00000010
00010000
,
00001000
00010000
00001000
00000000
01000000
00000000
00001000
00000000
00010000
00000000
00100000
00000000
01000000
00000000
00010000
00000000
,
10000000
01000000
00100000
00010000
00001000
00000100
00010000
00001000
,
00010000
00001000
00010000
00000000
00100000
00000000
00010000
00000000
10000000
00000000
00010000
00000000
00001000
00000000
00010000
00000000
,
00000100
00000010
00000001
00000010
00000100
00010000
00000100
00001000
,
00000010
00000100
00000010
00000000
00001000
00000000
00000100
00000000
00010000
00000000
00001000
00000000
01000000
00000000
00100000
00000000
,
10000000
11000000
00000000
00011000
00000000
00000110
00000000
00001000
,
00000000
01010000
00000000
00011000
00010000
00000010
00010000
00001010
,
00010010
00000000
00000000
00000000
,
00000010
00000000
00000000
00011000
00000000
00000000
01000000
00000000
01100000
00000000
00000000
00000000
10010000
00000000
00000000
00000000
,
01001000
00000000
00000000
00000000
;

//--------------- lights-cabinet - ----------------
#NOTES:
     lights-cabinet:
     :
     Easy:
     1:
     0.614464,0.741484,1.364202,0,0,536,332,170,0,0,29,0.614464,0.741484,1.364202,0,0,536,332,170,0,0,29:
00000000
00000000
00000000
00000000
,
00000000
00000000
00000000
00000000
,
10000000
01000000
00000000
00100000
00000000
10000000
00000000
00100000
,
00010000
10000000
00000000
01000000
00000000
00100000
00000000
10000000
,
00100000
10000000
00010000
10000000
01000000
10000000
00100000
00100000
,
10000000
10010000
10000000
10010000
10000000
00010000
10000000
10010000
,
10010000
00000000
00000000
00000000
,
10000000
11100000
00110000
01100000
,
11000000
00000000
00010000
00000000
10100000
00000000
00010000
01000000
,
01100000
10100000
01010000
01000000
,
00110000
00000000
10000000
00000000
01000000
00000000
00110000
00110000
,
10000000
00100000
11000000
00010000
,
10000000
00000000
00100000
00000000
01000000
00000000
00010000
00100000
,
00010000
10100000
00010000
10010000
,
01000000
11000000
00110000
10000000
,
10100000
01000000
01010000
10000000
,
00100000
00000000
00010000
00000000
01010000
00000000
00110000
00110000
,
11000000
00100000
01100000
00010000
,
11000000
00000000
00100000
00000000
01010000
00000000
01010000
01000000
,
01010000
11000000
00100000
11000000
,
10010000
00000000
10100000
00000000
01100000
00000000
00010000
01100000
,
00010000
10010000
10100000
10010000
,
10100000
00000000
10100000
00000000
11000000
01100000
10000000
01000000
,
10000000
00000000
00100000
00000000
01000000
00010000
00110000
00000000
,
10100000
00000000
01010000
00000000
10100000
01010000
10010000
00000000
,
10000000
01010000
10100000
11000000
,
10100000
00000000
01100000
00000000
10010000
01100000
10010000
00000000
,
11000000
00000000
01100000
00000000
10000000
01000000
11000000
00000000
,
00010000
00000000
11000000
00000000
01010000
00100000
10100000
00000000
,
00000000
11110000
00000000
10100000
00000000
01010000
00000000
10100000
,
00000000
01010000
00000000
10100000
00000000
11010000
10100000
10010000
,
10100000
00000000
01100000
00000000
10000000
10100000
01010000
00000000
,
10010000
00000000
00100000
00000000
01000000
00010000
01000000
00100000
,
10100000
00000000
00010000
00000000
10000000
10100000
00110000
00000000
,
11000000
00000000
00100000
00000000
11000000
00000000
01010000
00100000
,
10000000
00000000
11000000
00000000
11000000
00100000
01010000
00000000
,
10100000
00000000
00110000
00000000
10000000
00010000
10010000
00000000
,
10010000
11100000
00000000
01110000
00000000
11010000
00000000
10110000
,
00000000
01100000
00000000
10110000
00000000
10000000
00100000
01000000
,
10010000
00000000
00000000
00000000
,
10000000
00010000
10110000
00100000
10000000
01010000
00000000
01100000
,
11010000
01000000
10100000
10010000
00000000
01000000
00100000
10000000
,
00110000
01000000
00100000
10000000
00010000
01000000
00100000
10000000
,
10110000
01000000
00100000
10000000
01010000
01000000
00100000
10000000
,
11010000
01000000
00100000
10000000
00010000
01000000
00100000
10000000
,
00110000
01000000
00100000
10000000
11010000
01000000
00100000
10000000
,
00010000
11000000
00100000
11100000
00000000
11110000
00000000
11110000
,
00000000
10110000
00000000
11100000
00000000
11010000
01010000
00000000
,
00010000
00000000
01000000
00000000
00100000
10000000
11000000
00000000
,
00010000
00000000
01000000
00000000
10100000
01010000
10100000
00000000
,
10010000
00000000
10100000
00000000
00010000
01100000
00110000
00000000
,
11000000
00000000
01100000
00000000
10010000
01000000
11000000
00000000
,
00100000
00000000
01100000
00000000
00010000
10000000
10110000
00000000
,
10000000
00000000
11100000
00000000
01100000
01010000
00010000
00000000
,
10010000
00100000
01000000
10110000
00100000
01010000
10000000
10100000
,
01000000
10010000
10000000
01010000
00100000
10100000
10100000
01000000
,
00010000
00010000
00010000
00000000
01000000
01000000
01000000
00000000
,
10000000
10000000
10000000
00000000
01000000
01000000
01100000
00000000
,
01010000
01010000
01110000
00000000
10000000
10000000
11010000
00000000
,
01100000
01000000
00110000
00010000
01010000
00000000
10100000
00010000
,
10100000
10000000
10110000
00000000
00100000
00100000
01100000
00000000
,
10100000
10000000
11000000
00000000
00010000
00010000
00110000
00000000
,
10000000
11000000
00110000
00110000
00000000
01100000
00000000
10010000
,
00000000
01000000
11000000
10110000
00000000
11000000
11000000
01110000
,
11110000
00000000
00000000
00000000
,
00000000
00000000
00000000
00000000
,
11110000
00000000
00000000
00000000
;
