#TITLE:Crazy;
#SUBTITLE:;
#ARTIST:DJ Doo;
#TITLETRANSLIT:;
#SUBTITLETRANSLIT:;
#ARTISTTRANSLIT:;
#GENRE:;
#CREDIT:J. Cooney;
#MUSIC:Crazy.ogg;
#BANNER:Crazy.png;
#BACKGROUND:Crazy-bg.png;
#CDTITLE:;
#SAMPLESTART:37.320;
#SAMPLELENGTH:14.200;
#SELECTABLE:YES;
#OFFSET:-0.005;
#BPMS:0.000=135.000;
#STOPS:;
#BGCHANGES:;
#FGCHANGES:;

//--------------- dance-single - M. Puls ----------------
#NOTES:
     dance-single:
     M. Puls:
     Beginner:
     1:
     0.083,0.138,0.04,0,0:
0000
0000
0000
0000
,
0000
0000
0000
0000
,
0000
0000
0000
0000
,
1000
0000
0000
0000
,
1000
0000
0000
0000
,
0001
0000
0000
0000
,
0001
0000
0000
0000
,
1000
0000
0000
0000
,
0001
0000
0000
0000
,
1000
0000
0000
0000
,
0100
0000
0000
0000
,
1000
0000
0000
0000
,
0001
0000
0000
0000
,
0100
0000
0000
0000
,
0001
0000
0000
0000
,
1000
0000
0000
0000
,
0001
0000
0000
0000
,
1000
0000
0000
0000
,
0001
0000
0000
0000
,
0001
0000
0000
0000
,
1001
0000
0000
0000
,
0000
0000
0000
0000
,
0000
0000
1001
0000
,
0000
0000
0000
0000
,
0000
0000
1001
0000
,
1000
0000
0000
0000
,
0010
0000
0000
0000
,
0100
0000
0000
0000
,
0001
0000
0000
0000
,
1000
0000
0000
0000
,
1000
0000
0000
0000
,
0001
0000
0000
0000
,
0001
0000
0000
0000
,
0100
0000
0000
0000
,
0100
0000
0000
0000
,
0010
0000
0000
0000
,
0010
0000
0000
0000
,
0001
0000
0000
0000
,
1000
0000
0000
0000
,
1001
0000
0000
0000
,
0000
0000
0000
0000
,
1001
0000
0000
0000
,
0010
0000
0000
0000
,
0100
0000
0000
0000
,
1000
0000
1000
0000
,
0001
0000
0001
0000
,
1000
0000
1000
0000
,
0010
0000
0010
0000
,
1000
0000
1000
0000
,
0001
0000
0001
0000
,
0000
0000
0000
0000
,
1000
0000
0000
0000
,
0001
0000
0000
0000
,
1000
0000
0000
0000
,
0001
0000
0000
0000
,
1000
0000
0000
0000
,
0001
0000
0000
0000
,
0100
0000
0000
0000
,
0100
0000
0000
0000
,
0010
0000
0000
0000
,
0010
0000
0000
0000
,
0000
0000
0000
0000
,
0010
0000
0000
0000
,
0010
0000
0000
0000
,
0100
0000
0000
0000
,
0100
0000
0000
0000
,
0100
0000
0000
0000
,
0001
0000
0000
0000
,
1000
0000
0000
0000
,
0001
0000
0000
0000
;

//--------------- dance-single - M. Puls ----------------
#NOTES:
     dance-single:
     M. Puls:
     Easy:
     3:
     0.194,0.221,0.104,0,0:
0000
0000
0000
0000
,
0000
0000
0000
0000
,
0000
0000
0000
0000
,
1000
0000
0000
0000
,
1000
0000
0001
0000
,
1000
0000
0100
0000
,
1000
0000
0001
0000
,
1000
0000
0010
0000
,
1000
1000
0001
0000
,
1000
0000
0010
0000
,
0100
0000
0010
0000
,
1000
0000
1000
0000
,
0001
0000
0001
0000
,
1000
0010
0100
0000
,
0001
0010
0001
0000
,
1000
0100
1000
0000
,
0001
0001
0001
0000
,
1000
0010
0010
0000
,
1000
0100
1000
0000
,
0001
0000
1000
0000
,
1001
0000
1001
0000
,
0001
0001
0001
0000
,
1000
0000
1001
0000
,
1000
1000
1000
0000
,
0001
0000
1001
0000
,
1000
0100
1000
0000
,
0010
0000
0110
0000
,
0001
0010
0001
0000
,
0010
0000
0001
0001
,
1000
0000
0100
0000
,
1000
0000
0010
0000
,
1000
0000
0100
0000
,
1000
1000
1000
0000
,
0001
0000
0010
0000
,
0001
0000
0100
0000
,
0001
0000
0010
0000
,
0001
1000
0001
0000
,
0011
0000
0000
0000
,
1100
0000
0000
0000
,
0110
0000
0000
0000
,
0010
0000
0100
0000
,
1001
0000
0000
0000
,
1010
0000
0000
0000
,
0101
0000
0000
0000
,
1000
1000
1000
0000
,
0001
0000
0001
0000
,
1000
0000
1000
0000
,
0010
0000
0010
0000
,
1000
0000
1000
0000
,
0001
0000
0001
0000
,
0010
0000
0001
0000
,
1000
0100
1000
0100
,
1000
1000
0010
0000
,
1000
1000
1000
0000
,
0001
0000
1001
0000
,
0001
0001
0001
0000
,
1000
0000
1001
0000
,
0001
0010
0001
0000
,
0100
0000
0010
0000
,
1000
0100
1000
0000
,
0100
0000
1000
1000
,
0001
0001
0001
0000
,
0010
0001
0001
0000
,
1000
1000
1000
0000
,
0100
1000
1000
0000
,
0010
0010
0010
0000
,
0100
0100
0010
0000
,
1000
0000
0100
0000
,
1000
0010
1000
1000
,
0001
0000
0000
0000
;

//--------------- dance-single - M. Puls ----------------
#NOTES:
     dance-single:
     M. Puls:
     Medium:
     7:
     0.325,0.359,0.28,0.04,0:
0000
0000
0000
0000
,
0000
0000
0000
0000
,
0000
0000
0000
0000
,
0000
0000
0000
0000
,
1100
0010
1100
0000
,
1000
1000
0010
0000
,
1000
0100
0100
0000
,
0001
0010
0010
0000
,
0001
1000
1000
0000
,
0010
0010
1000
0000
,
0001
0100
0100
0000
,
0001
0010
0001
0000
0001
0010
0001
0000
,
1000
1000
1100
0000
,
0001
0010
0001
0000
,
1000
0100
1000
0000
,
0010
0100
0010
0000
0010
0000
0000
0000
,
1000
0100
1000
0000
1000
0000
0000
0000
,
0110
0110
0110
0000
,
0011
0011
0011
0000
,
1000
0100
1000
0000
0010
0100
0010
0000
,
1000
0100
1100
0000
,
1000
0100
1000
0010
,
0100
0001
0010
0001
,
0001
0010
0001
0100
,
0010
0000
1000
0000
0100
0000
1000
0010
,
1000
0110
0000
0001
,
0001
0000
0110
0000
0000
0000
1000
0010
,
0100
0100
0020
0000
,
1030
0000
0001
0001
,
1000
0000
0100
0000
1000
0010
0100
0000
,
0001
0000
0010
0000
0001
0010
0001
0000
,
1000
0000
1000
0000
0010
0100
0010
0000
,
1000
0100
0010
0001
,
1000
0000
1000
0000
0100
1000
0100
0000
,
1000
0000
0001
0000
0001
0010
0001
0000
,
1000
0001
0110
0000
,
0001
0100
0110
0000
,
0001
1000
0001
0000
,
1001
1001
1001
0000
,
0100
0010
0100
0000
,
0110
0110
0110
0000
,
0001
1000
1000
0001
,
0100
0010
0100
0100
,
0010
0000
0100
0000
0100
0000
0100
0010
,
1000
0100
0100
0000
,
2000
0000
3100
0000
,
0020
0000
0130
0000
,
0002
0000
0103
0000
,
0020
1000
1030
0000
,
0001
0000
0001
0000
0001
0010
0001
0000
,
0001
0000
0011
0000
,
1000
0000
1000
0000
1000
0100
1000
0000
,
1000
1100
1100
0000
,
1000
0100
1000
0000
0010
0000
0010
0000
,
1000
0010
0110
0000
,
0001
0010
0001
0000
0100
0000
0100
0000
,
0001
0100
0110
0000
,
0010
0000
0010
0100
0010
0000
1000
0000
,
0001
0100
0010
1000
,
1000
0100
1000
0000
1000
0100
1000
0000
,
1100
0000
0110
0110
,
0001
0010
0001
0000
0100
0000
0001
0000
,
1000
0010
0110
0000
,
1000
0010
1000
0000
0100
0000
0100
0000
,
1000
0110
0110
0000
,
0001
0100
0001
0000
0010
0000
0010
0000
,
0001
1000
1100
0000
,
1000
0010
1000
0000
0001
0100
0001
0000
,
1001
0000
0011
0100
,
0011
0000
0000
0000
;

//--------------- dance-single - J. Cooney ----------------
#NOTES:
     dance-single:
     J. Cooney:
     Hard:
     10:
     0.429,0.469,0.12,0.04,0.044:
0000
0000
0000
0000
,
0000
0000
0000
0000
,
0000
0000
0000
0000
,
0000
0000
0000
0000
,
1000
0001
0000
1000
0001
0000
0000
0000
1001
0000
0000
0000
0000
0000
0000
0000
,
1000
0100
0010
0001
1000
0100
0010
0001
,
0100
0010
1000
0001
0100
0010
1000
0000
,
1000
0100
0010
0001
1000
0100
0010
0001
,
0100
0010
0100
0001
0100
0010
0100
0000
,
0001
0010
0100
0000
0100
0010
0001
0000
,
0100
0010
1000
0000
1000
0010
0100
0000
,
0001
1000
0001
1000
0001
0000
0001
0000
,
1000
0100
0010
0100
0000
0000
0000
0000
,
0001
0010
0100
1000
0001
0010
0100
1000
,
0010
0100
0001
0010
0001
0100
0001
0000
,
0001
0010
0100
1000
0001
0010
0100
1000
,
0000
0001
0000
0100
0000
0011
0000
0000
,
1000
0100
0010
0000
0010
0100
1000
0000
,
0010
0100
0001
0000
0001
0100
0010
0000
,
0110
1001
0110
1001
,
2002
0000
0000
3003
0000
0000
0000
0000
,
0001
0100
0010
0100
0001
0100
0010
0000
,
1000
0010
0100
0010
1000
0010
0100
0000
,
0010
0100
0001
0100
0010
0100
0001
0000
,
1000
0010
0100
0010
1000
0010
1000
0000
,
0100
0100
0100
0000
0010
0000
0100
0000
,
1000
0010
0100
0010
1000
0010
1000
0000
,
0100
1010
0100
0011
,
0000
0100
0100
0000
0100
0010
1000
0000
,
0100
0000
0000
1000
0000
0000
0010
0000
0100
0000
0001
0000
0010
0000
0000
0000
,
0100
0000
0000
0010
0000
0000
0001
0000
0100
0000
0000
0000
0100
0000
0000
0000
,
0001
0000
0000
1000
0000
0000
0100
0000
1000
0000
0100
0000
0010
0000
0000
0000
,
0100
0000
0000
0010
0000
0000
0100
0000
1000
0000
1000
0000
1000
0000
0000
0000
,
0001
0000
0000
0100
0000
0000
0010
0000
0100
0000
0001
0000
0010
0000
0000
0000
,
0100
0000
0000
0010
0000
0000
0001
0000
0100
0000
0000
0000
0100
0000
0000
0000
,
0010
0000
0000
1000
0000
0000
0100
0000
0010
0000
0001
0000
0010
0000
0000
0000
,
0100
0010
0200
0000
,
0300
1000
0000
1000
0000
0001
0000
0001
,
0000
1000
0000
1000
0000
0001
0000
1000
,
0000
0100
0000
0100
0000
0010
0000
0010
,
0000
0100
0000
0100
0000
0010
0100
0000
,
0000
1000
0100
0000
0000
0001
0010
0000
,
0000
1000
0100
0000
0000
0001
0010
0000
,
0000
0100
1000
0000
0000
0100
0010
0000
,
0100
0010
1001
0000
,
0001
0000
0001
0010
0000
0000
0100
0000
,
0200
0000
0300
0000
,
1000
0000
1000
0100
0000
0000
0010
0000
,
0020
0000
0030
0000
,
1100
0000
0000
0000
,
0011
0000
0000
0000
,
0100
0010
0100
0010
0100
0100
0100
0000
,
0001
0000
1000
0000
0001
0000
1000
0000
0001
1000
0001
1000
0001
0000
0000
0000
,
1000
0010
0100
0010
1000
0010
0100
0000
,
0001
0100
0010
0100
0001
0100
0010
0000
,
0100
0010
1000
0010
0100
0010
1000
0000
,
0001
0010
0100
0010
0001
0010
0001
0000
,
1000
1000
1000
0000
0100
0000
0010
0000
,
0100
1000
0100
0010
0100
1000
0100
0000
,
0010
0101
0010
1100
,
0000
0100
0100
0000
0010
0001
1000
0000
,
0010
0100
0001
0010
0100
1000
0001
0000
,
1000
0001
0100
0010
1000
0100
0010
0000
,
0001
1000
0010
0100
0001
0010
0100
0000
,
0010
0100
1000
0001
0100
0010
1000
0000
,
0100
1000
0100
1000
0100
0010
0100
0000
,
0010
0001
0010
0100
0010
0001
0100
0000
,
0010
0100
1000
0000
0100
0010
1000
0100
,
0000
0010
0010
0000
0100
0010
0100
1001
;

//--------------- dance-single - J. Cooney ----------------
#NOTES:
     dance-single:
     J. Cooney:
     Challenge:
     12:
     0.545,0.606,0.088,0.064,0.288:
0000
0000
0000
0000
,
0000
0000
0000
0000
,
0000
0000
0000
0000
,
0000
0000
0000
0000
,
0001
1000
0000
0100
0010
0000
0100
0000
1000
0000
0000
0000
0000
0000
0000
0000
,
0001
0100
1000
0100
0001
0100
1000
0100
,
0010
0100
0001
0100
0010
0100
0001
0010
,
0001
0100
1000
0100
0001
0100
1000
0100
,
0000
0000
0001
0000
1000
0000
0100
1000
0100
0000
1000
0000
1000
0000
0000
0000
,
0100
0010
0001
0100
1000
0100
0001
0010
,
1000
0010
0001
0100
0010
0100
1000
0100
,
0001
0010
0100
0000
0100
1000
0001
0000
,
0010
0001
0100
1000
0000
0000
0110
0000
,
0000
0000
1000
0000
1000
0000
0100
0010
0100
0000
0010
0000
0010
0000
0010
0000
,
0000
0000
0001
0000
0001
0000
1000
0001
1000
0000
0100
0000
0100
0000
0100
0000
,
0000
0000
1000
0000
1000
0000
0100
0010
0100
0000
0010
0000
0010
0000
0010
0000
,
0000
0000
0001
0000
0001
0000
0100
0010
0100
0000
0010
0000
0010
0000
0010
0000
,
0000
0100
0100
0110
0000
0001
0001
0011
,
0000
1000
1000
1100
0000
0100
0010
0000
,
0001
0100
1000
0100
0001
0010
1000
0010
,
0001
0000
1000
0000
0001
0000
0000
0100
0010
0000
0100
0000
0100
0000
0000
0000
,
0001
0010
0100
1000
0001
0010
0100
1000
,
0100
1000
0100
1000
0100
1000
0100
1000
0100
0000
0000
0000
0000
0000
0000
0000
,
1000
0100
0010
0001
1000
0100
0010
0001
,
0010
0100
0010
0100
0010
0100
0010
0100
0010
0000
0000
0000
0000
0000
0000
0000
,
0010
0001
1000
0010
0010
0100
0001
0001
,
1000
0001
1000
0001
1000
0001
1000
0001
1000
0000
0000
0000
0000
0000
0000
0000
,
0100
0010
0010
0010
0100
0000
0100
1000
,
0000
1000
0100
0000
0001
0010
0100
0000
,
0001
0000
0000
0001
1000
0000
0000
1000
0100
0000
0000
0100
1000
0000
0000
1000
,
0010
0000
0000
0010
0100
0000
0000
0100
0001
0000
0000
0001
0010
0000
0000
0010
,
0001
0000
0000
0001
0100
0000
0000
0100
1000
0000
0000
1000
0100
0000
0000
0100
,
0001
0000
0000
0001
1000
0000
0000
1000
0100
0000
0000
0100
1000
0000
0000
1000
,
0010
0000
0000
0010
0100
0000
0000
0100
0001
0000
0000
0001
0010
0000
0000
0010
,
1000
0000
0000
1000
0010
0000
0000
0010
0001
0000
0000
0001
1000
0000
0000
1000
,
0100
0000
0000
0100
1000
0000
0000
1000
0010
0000
0000
0010
0100
0000
0000
0100
,
0001
0000
0000
0001
0100
0000
0000
0100
1000
0000
0000
1000
0100
0000
0000
0100
,
0001
0000
1000
0000
1000
0100
0001
0100
,
1000
0000
0000
0000
1000
0000
0000
0010
0100
0000
0001
0000
0010
0000
0000
0000
,
0100
0000
0010
0000
0010
0001
1000
0000
,
0100
0000
1000
0000
1000
0100
0010
0100
,
0100
0000
0010
0000
0001
0100
1000
0100
,
0010
0000
0000
0000
0100
0000
0000
0100
0001
0000
0010
0000
0100
0000
0000
0000
,
2000
0000
0000
0200
0000
0000
0000
0000
,
0001
0000
0010
0000
0001
3300
0000
0000
,
0002
0000
0000
0200
0000
0000
0000
0000
,
0010
1000
0010
1000
0010
0000
0303
0000
,
2000
0000
0000
0200
0000
0000
0000
0000
,
0001
0010
0001
0010
0001
0000
3300
0000
,
1M11
0000
1111
0000
,
11M1
0000
1111
0000
,
1000
0100
0010
0001
1000
0100
0010
0M00
,
0010
0100
0010
0100
0010
0100
0010
0100
1000
0100
1000
0100
1000
0000
M000
0000
,
1000
0001
0100
1000
0100
0001
0010
0001
,
0100
1000
0100
0001
0010
0100
0010
0001
,
0100
0010
1000
0010
0100
0010
0001
0010
,
1000
0001
0010
0100
0010
0100
0010
0001
,
1000
1000
1000
0010
0001
0010
0100
0001
,
1000
0100
0010
0001
0010
0100
0010
0100
,
2000
0100
0100
0000
3002
0010
0010
0000
,
0103
0100
1000
0000
0100
0010
1001
0000
,
0001
0010
0100
1000
0001
0010
0100
1000
,
0100
1000
0100
1000
0100
1000
0100
1000
0100
0000
0000
0000
MM00
0000
0000
0000
,
1000
0100
0010
0001
1000
0100
0010
0001
,
1000
0001
1000
0001
1000
0001
1000
0001
1000
0000
0000
0000
M00M
0000
0000
0000
,
0010
0001
0010
1000
0100
0001
0100
1000
,
0100
0010
0100
0010
0100
0010
0100
0010
0100
0000
0000
0000
0MM0
0000
0000
0000
,
1100
0010
0100
0010
0101
0000
0100
1000
,
0000
1000
0100
0001
0001
0100
1000
0100
;

//--------------- dance-double - M. Emirzian ----------------
#NOTES:
     dance-double:
     M. Emirzian:
     Easy:
     3:
     0.192,0.275,0.176,0.008,0:
00000000
00000000
00000000
00000000
,
00000000
00000000
00000000
00000000
,
00000000
00000000
00000000
00000000
,
00000000
00000000
00000000
00000000
,
00010000
00000000
00000000
00000000
,
10000000
00000000
00000000
00000000
,
00010000
00000000
00000000
00100000
,
00100000
00000000
00000000
00000000
,
00001000
00001000
00000000
00000000
,
00010000
00010000
00000000
00000000
,
00000010
00000010
00000000
00000000
,
00010000
00010000
00000000
00000000
,
00001000
00001000
00000000
00000000
,
01000000
01000000
00000000
00000000
,
00001000
00001000
00000000
00000000
,
00100000
00100000
00000000
00000000
,
00001000
00001000
00000000
00000000
,
00010000
00010000
00000000
00000000
,
00000100
00000100
00000000
00000000
,
00010000
00010000
00000000
00000000
,
00001000
01000000
00200000
00000000
,
10300000
10000000
10010000
00000000
,
01000000
01000000
01010000
00000000
,
00010000
00010000
00011000
00000000
,
00000010
00000010
00001010
00000000
,
00000001
00000001
00001001
00000000
,
00000100
00000100
00010100
00000000
,
00010000
00010000
00011000
00001000
,
00001000
00000000
00000000
00000000
,
01000000
01000000
00100000
00000000
,
10000000
10000000
01000000
00000000
,
00100000
00100000
00001000
00000000
,
00010000
00010000
00000010
00000100
,
00000100
00000100
00000000
00000000
,
00000001
00000001
00000000
00000000
,
00000100
00000100
00000000
00000000
,
00000010
00000010
00000000
00000000
,
00010000
00000000
00000000
00000000
,
00001000
00000000
00000000
00000000
,
01000000
00000000
00000000
00000000
,
00100000
00000000
00000000
00000000
,
10000000
00000000
00000000
00000000
,
01000000
00000000
00000000
00000000
,
00100000
00000000
00000000
00000000
,
00001000
00000000
00000000
00000000
,
00010000
00000000
00000000
00000000
,
00000100
00000000
00000000
00000000
,
00000010
00000000
00000000
00000000
,
00000001
00000000
00000000
00000000
,
00000100
00000000
00000000
00000000
,
00000010
00000000
00000000
00000000
,
00010000
00000000
00001000
00000000
,
01000000
00100000
10000000
10010000
,
00010000
00010000
00110000
00000000
,
10000000
10000000
10010000
00000000
,
01000000
01000000
00110000
00000000
,
00001000
00001000
00101000
00000000
,
00010000
00010000
00010010
00000000
,
00001000
00001000
00001001
00000000
,
00000010
00000010
00000110
00000000
,
00001000
00001000
00011000
00010000
,
00010000
00000000
00000000
00000000
,
00000010
00000010
00001010
00000000
,
00010000
00010000
00011000
00000000
,
01000000
01000000
10010000
00000000
,
00100000
00100000
01100000
00000000
,
00010000
00010000
00010100
00000000
,
00010000
00010000
00011000
00001000
,
00001000
00000010
00000001
00000001
;

//--------------- dance-double - M. Emirzian ----------------
#NOTES:
     dance-double:
     M. Emirzian:
     Medium:
     6:
     0.332,0.413,0.096,0.064,0:
00000000
00000000
00000000
00000000
,
00000000
00000000
00000000
00000000
,
00000000
00000000
00000000
00000000
,
00000000
00000000
00000000
00000000
,
00000010
00001000
00000100
00000010
00000002
00000000
00000000
00000000
,
00000003
00000100
00000000
00001000
00000000
00010000
00000000
00000100
,
00000000
00010000
00000000
00001000
00000000
00100000
00000000
01000000
,
00000000
10000000
00000000
00100000
00000000
01000000
00000000
00010000
,
00000000
00100000
00000000
00001000
00000000
00010000
00000000
00000010
,
00000000
00000100
00000000
00000001
00000000
00000010
00000000
00000100
,
00000000
00010000
00000000
00001000
00000000
00100000
00000000
01000000
,
00000000
10000000
00000000
10000000
00000000
00010000
00000000
00010000
,
00000000
00100000
00000000
00100000
00000000
00001000
00010000
00000100
,
00000000
00000010
00000000
00000010
00000000
00000001
00000000
00000100
,
00000000
00000010
00000000
00010000
00000000
00001000
00000000
01000000
,
00000000
00100000
00000000
10000000
00000000
00010000
00000000
00100000
,
00000000
00001000
00000000
00010000
00000000
00000010
00000000
00001000
,
00000000
00000001
00000000
00000100
00000000
00000010
00000000
00010000
,
00000000
00001000
00000000
00100000
00000000
00010000
00000000
01000000
,
00000000
00100000
00000000
10000000
00000000
10000000
00000000
00010000
,
00000000
00010000
00000000
00100000
00001000
00010000
00001000
00000000
,
00001000
00010000
00000010
00000000
00000010
00001000
00000010
00000000
,
00010000
00001000
01000000
00000000
01000000
00010000
01000000
00000000
,
00001000
00010000
00000100
00000000
00000100
00001000
00000100
00000000
,
00010000
00001000
00100000
00000000
00100000
00010000
00100000
00000000
,
00001000
00010000
00000010
00000000
00000010
00001000
00000010
00000000
,
00010000
00001000
01000000
00000000
01000000
00010000
01000000
00000000
,
00011000
00011000
00010010
00010010
,
00001000
00000000
00000100
00000000
00000010
00000001
00000100
00000000
,
00000001
00000100
00000010
00010000
,
00001000
00010000
00001000
01000000
,
00100000
10000000
01000000
00100000
,
00001000
00010000
00000020
00000000
,
00000030
00001000
00000000
00000100
00000000
00000010
00000000
00000001
,
00000000
00000010
00000000
00000100
00000000
00010000
00000000
00001000
,
00000000
00100000
00000000
01000000
00000000
00100000
00000000
00010000
,
00000000
10000000
00000000
01000000
00000000
00100000
00000000
00001000
,
00010000
00000000
00000100
00000000
,
00000010
00000000
00000001
00000000
,
00000100
00000000
00000010
00000000
,
00010000
00001000
01000000
00000000
,
00100000
00000000
10000000
00000000
,
01000000
00100000
00010000
00000000
,
00100000
00000000
00001000
00000000
,
00010000
00000100
00001000
00000000
,
00000002
00000000
00000000
00000000
,
00000203
00000000
00000000
00000000
,
00000320
00000000
00000000
00000000
,
00020030
00000000
00000000
00000000
,
00032000
00000000
00000000
00000000
,
02003000
00000000
00000000
00000000
,
03100000
10000000
01000000
00100000
,
00010000
00100000
00001000
00011000
,
00010000
00000010
00010000
00000000
00001000
00100000
00001000
00000000
,
00010000
00000100
00010000
00000000
00001000
01000000
00001000
00000000
,
00010000
00000010
00010000
00000000
00001000
00100000
00001000
00000000
,
00010000
00000100
00010000
00000000
00001000
00100000
00001000
00000000
,
00010000
00000010
00010000
00000000
00001000
01000000
00001000
00000000
,
00010000
00000100
00010000
00000000
00001000
00100000
00001000
00000000
,
00010000
00000100
00001000
00000000
00000010
00000000
00001000
00000000
,
00010000
00011000
00010010
00011000
,
00001000
00010000
00000010
00000000
00000010
00001000
00000010
00000000
,
00010000
00001000
01000000
00000000
01000000
00010000
01000000
00000000
,
00001000
00010000
00000100
00000000
00000100
00001000
00000100
00000000
,
00010000
00001000
00100000
00000000
00100000
00010000
00100000
00000000
,
00001000
00010000
00000010
00000000
00000010
00001000
00000010
00000000
,
00010000
00001000
01000000
00000000
01000000
00010000
01000000
00000000
,
00011000
00110000
00011000
00001010
,
00000010
00000000
00000001
00000000
00000100
00000000
00000010
00001000
;

//--------------- dance-double - M. Emirzian ----------------
#NOTES:
     dance-double:
     M. Emirzian:
     Hard:
     7:
     0.487,0.469,0.448,0.152,0.028:
00000000
00000000
00000000
00000000
,
00000000
00000000
00000000
00000000
,
00000000
00000000
00000000
00000000
,
00000000
00000000
00000000
00000000
,
00000100
00000010
00000001
00001000
00000100
00000000
00001010
00000000
,
00000000
00011000
00000000
00011000
00000000
01001000
00000000
01001000
,
00000000
10100000
00000000
10100000
00000000
11000000
00000000
11000000
,
00000000
01100000
00000000
01100000
00000000
00101000
00000000
00101000
,
00000000
00011000
00000000
00011000
00000000
00001001
00000000
00001001
,
00000000
00000110
00000000
00000110
00000000
00010010
00000000
00010010
,
00000000
00011000
00000000
00011000
00000000
00101000
00000000
00101000
,
00000000
11000000
00000000
11000000
00000000
01010000
00000000
00110000
,
00000000
10100000
00000000
00110000
00000000
00020200
00000000
00030300
,
00001000
00000100
00000010
00000000
00000002
00000000
00001003
00000000
,
00000100
00010000
00001000
00000000
00200000
00000000
00301000
00000000
,
00010000
00000100
00001000
00000000
00000100
00000000
00010000
00001000
,
02000000
00000000
03100000
00000000
10000000
00010000
01000000
00000000
,
00100000
00000000
10000000
00000000
01000000
00100000
00010000
00000000
,
02000000
00000000
03001000
00000000
00010000
00000100
00001000
00000000
,
00000002
00000000
00000013
00000100
00001000
00000000
00000100
00010000
,
00001000
01010000
01100000
00011000
,
00000100
00001000
00000100
00010000
00001000
01000000
00010000
01000000
,
00001000
00010000
00000100
00001000
00000100
00010000
00001000
01000000
,
00010000
01000000
00001000
00010000
00000100
00001000
00000100
00010000
,
00001000
01000000
00010000
01000000
00001000
00010000
00000100
00001000
,
00000100
00010000
00001000
01000000
00010000
01000000
00001000
00010000
,
00000100
00001000
00001000
00010000
,
01001000
01001000
01010000
01010000
,
10010000
01100000
00110000
00101000
,
00010000
00000000
00001000
00010000
00000100
00001000
00000010
00000000
,
00000100
00000000
00000000
00000020
00000000
00000000
00001000
00000030
00000100
00000000
00010000
00000000
00001000
00000000
01000000
00000000
,
00100000
00000000
00000000
02000000
00000000
00000000
00000000
03000000
00010000
00000000
00100000
00000000
00001000
00000000
00010000
00000000
,
00000100
00000000
00000000
00000020
00000000
00000000
00000000
00000030
00000100
00000000
00010000
00000000
00001000
00000000
01000000
00000000
,
00100000
00000000
00000000
20000000
00000000
00000000
00000000
30000000
01000000
00000000
00000000
00000000
01000000
00000000
00100000
00000000
,
00010000
00000000
00000000
02000000
00000000
00000000
00000000
00000000
03001000
00000000
00000000
00000000
00010000
00000000
00000100
00000000
,
00001000
00000000
00000000
00000002
00000000
00000000
00000000
00000000
00000013
00000000
00000000
00000000
00000100
00000000
00001000
00000000
,
00000001
00000000
00000000
00000200
00000000
00000000
00000000
00000000
00000310
00000000
00000000
00000000
00010000
00000000
00001000
00000000
,
01000000
00000000
00020000
00000000
00130000
00000000
01000000
10000000
,
00010000
00000000
00200000
00000000
00301000
00010000
00000100
00000000
,
00001000
00000000
00000010
00000000
00000200
00000000
00000301
00000010
,
00000100
00000000
00010000
00001000
00100000
00000000
00011000
00000000
,
00010000
00000000
00001000
00000000
02000000
00000000
03100000
10000000
,
00010000
00000000
00100000
01000000
10000000
00000000
00110000
00000000
,
01000000
00000000
00100000
00000000
00002000
00000000
00013000
00000100
,
00001000
00000000
00000010
00000000
00000100
00000001
00001000
00000000
,
00000100
00000000
00000010
00000000
,
00000001
00000000
00000100
00000000
,
00000010
00000000
00010000
00000000
,
00001000
00000000
01000000
00000000
,
00100000
00000000
10000000
00000000
,
01000000
00000000
00100000
00000000
,
00001000
00010000
00000010
00000100
,
00000001
00000100
00000010
00001000
00000100
00010000
00001000
00000000
,
00001000
00010000
00000100
00010000
00001000
00100000
00001000
00010000
,
00000010
00010000
00001000
01000000
00001000
00010000
00000100
00010000
,
00001000
00100000
00001000
00010000
00000010
00010000
00001000
01000000
,
00001000
00010000
00000100
00010000
00001000
00100000
00001000
00010000
,
00000010
00010000
00001000
01000000
00001000
00010000
00000100
00010000
,
00001000
00010000
00010000
00001000
,
00101000
01010000
01100000
10010000
,
00101000
00110000
00011000
00010010
,
00100000
00001000
00010000
00000010
00001000
00000010
00010000
00001000
,
00100000
00010000
00100000
00001000
00010000
00000010
00001000
00000010
,
00010000
00001000
00100000
00010000
00100000
00001000
00010000
00000010
,
00001000
00000010
00010000
00001000
00100000
00010000
00100000
00001000
,
00100000
00010000
00100000
00001000
00010000
00000010
00001000
00000010
,
00010000
00001000
00100000
00010000
00100000
00001000
00010000
00000010
,
00001000
00000010
00010000
00001000
00100000
00010000
00100000
00001000
,
00010000
00000000
00010010
00000000
00001100
00000000
00000011
00000010
;

//--------------- dance-double - M. Emirzian ----------------
#NOTES:
     dance-double:
     M. Emirzian:
     Challenge:
     10:
     0.474,0.469,0.52,0.016,0.028:
00000000
00000000
00000000
00000000
,
00000000
00000000
00000000
00000000
,
00000000
00000000
00000000
00000000
,
00000000
00000000
00000000
00000000
,
10000000
00001000
00010000
00000001
00001000
00000000
00011000
00000000
,
00000000
11000000
00000000
00011000
00000000
00000011
00000000
00011000
,
00000000
10100000
00000000
00011000
00000000
00000101
00000000
00011000
,
00000000
01100000
00000000
00001100
00000000
01100000
00000000
00001010
,
00000000
00110000
00000000
01001000
00000000
00010010
00000000
00010001
,
00000000
00010100
00000000
00001010
00000000
00101000
00000000
10001000
,
00000000
01001000
00000000
00110000
00000000
00010010
00000000
00100010
,
00000000
00010100
00000000
01000100
00000000
00101000
00000000
10001000
,
00000000
00011000
00000000
00010001
00000000
00000220
00000000
00000330
,
00000010
00010000
00001000
00000000
01000000
00000000
00100000
00000000
,
00001000
00010000
00000010
00000000
00000100
00000000
00000010
00000000
,
00001000
00010000
00000100
00000000
00100000
00000000
00010000
00001000
,
01000000
00000000
00100000
00000000
00001000
00010000
00000100
00000000
,
00100010
00000000
00011000
00000000
00000001
00010000
00001000
00000000
,
10000000
00000000
01000000
00000000
00001000
00010000
00000001
00000000
,
00000100
00000000
00000010
01000000
00001000
00000000
01000000
00000010
,
00010000
10001000
00011000
00010001
,
00001000
01000000
00001000
10000000
00010000
00100000
00000010
00010000
,
00000001
00001000
00000100
01000000
00001000
10000000
00010000
00100000
,
00000010
00010000
00000001
00001000
00000100
01000000
00010000
10000000
,
00001000
00010000
00000100
00010000
00001000
00100000
00000010
00010000
,
00001000
01000000
00000100
00010000
00001000
01000000
00000100
00100000
,
00000010
00100000
00000100
01000000
,
01000100
00011000
00100010
01010000
,
01000100
00001010
00010001
00011000
,
01000000
00000000
00100000
01000000
00001000
00010000
00001000
00000000
,
00100000
00000000
00000000
00010000
00000000
00000000
10000000
00000000
01000000
00000000
00100000
00000000
00000100
00000000
00001000
00000000
,
00000010
00000000
00000000
00000100
00000000
00000000
00000000
00000000
00000001
00000000
00000100
00000000
00000010
00000000
00010000
00000000
,
00100000
00000000
00000000
01000000
00000000
00000000
00000000
00000000
00010000
00000000
10000000
00000000
01000000
00000000
00100000
00000000
,
00001000
00000000
00000000
00000010
00000000
00000000
00000000
00000000
00001001
00000000
00000000
00000000
00000010
00000000
00001000
00000000
,
00000100
00000000
00000000
01000000
00000000
00000000
00000000
00000000
00001000
00000000
00000000
00000000
00000010
00000000
00001000
00000000
,
00000100
00000000
00000000
00100000
00000000
00000000
00000000
00000000
10000000
00000000
00000000
00000000
01000000
00000000
00010000
00000000
,
00100000
00000000
00000000
00000100
00000000
00000000
00000000
00000000
00000010
00000000
00000000
00000000
00001000
00000000
00000100
00000000
,
00000001
00000000
00010000
00000000
00001000
00000000
10000000
00001000
,
00010000
00000000
00000100
00000000
10000000
00001000
00010000
00000000
,
00000010
00000000
10000000
00000000
01000000
00000000
00100000
00001000
,
00010000
00000000
00000010
01000000
00000100
00000000
00011000
00000000
,
00000010
00000000
01000000
00000000
00001000
00000000
00010000
00000001
,
00001000
00000000
00010000
00001000
10000000
00000000
01100000
00000000
,
00100000
00000000
00001000
00000000
00010000
00000000
00001000
00000001
,
00010000
00000000
00001000
00000000
00010000
10000000
00001000
00000000
,
00010000
00000000
00000001
00000000
,
10000000
00000000
00000001
00000000
,
10000000
00000000
00000001
00000000
,
10000000
00000000
00000001
00000000
,
01000100
00000000
00000000
00000000
,
00100010
00000000
00000000
00000000
,
10010000
01100000
10010000
01010000
,
00000000
01000000
00100000
00010000
10000000
01000000
00100000
00000000
,
10000000
00100000
01000000
00010000
00001000
00000010
00000100
00000001
,
00000010
00000100
00001000
00010000
00100000
01000000
10000000
00001000
,
10000000
00010000
01000000
01000000
00000010
00000010
00010000
00000001
,
00010000
00000100
00000001
00000100
00000010
00001000
00010000
01000000
,
00100000
10000000
00010000
00001000
00010000
00000010
00010000
00000001
,
00000010
00000100
01000000
00000010
,
00011000
01100000
00001010
01100000
,
00001100
01000100
00011000
00100010
,
00010000
00001000
10000000
00001000
00010000
00000001
00010000
00001000
,
01000000
00100000
00010000
00001000
00000100
00000010
00000100
00001000
,
00010000
00001000
01000000
00001000
00010000
00001000
10000000
00001000
,
00010000
00000001
00010000
00001000
01000000
00000100
00010000
00001000
,
00100000
00000010
01000000
00000100
00100000
00000010
00010000
00000001
,
00010000
00000100
01000000
00001000
10000000
00010000
00100000
00000010
,
00010000
00000001
00010000
00000100
01000000
00001000
10000000
00010000
,
00100000
00000000
00011000
00000000
00000110
00000000
00010001
00001000
;

//--------------- lights-cabinet - ----------------
#NOTES:
     lights-cabinet:
     :
     Easy:
     1:
     0.517,0.525,0.304,0.056,0.064:
00000000
00000000
00000000
00000000
,
00000000
00000000
00000000
00000000
,
10000000
01000000
00100000
00010000
00100000
01000000
10000000
01000000
,
00100000
00010000
00100000
01000000
10000000
00100000
01000000
00000000
,
10000000
00100000
00000000
01000000
00100000
00000000
01000000
00000000
00010000
00000000
00000000
00000000
00000000
00000000
00000000
00000000
,
10000000
00000000
00100000
00000000
10000000
00000000
01000000
10000000
00100000
00000000
01000000
00000000
00010000
00000000
00100000
00000000
,
00010000
00000000
01000000
00000000
00100000
00000000
10000000
01000000
10000000
00000000
00100000
00000000
01000000
00000000
00010000
00000000
,
00100000
00000000
00010000
00000000
01000000
00000000
00100000
10000000
01000000
00000000
10000000
00000000
00100000
00000000
01000000
00000000
,
00010000
00000000
00100000
00000000
00010000
00000000
01000000
00100000
10000000
00000000
01000000
00000000
10000000
00000000
00000000
00000000
,
00010000
00000000
01000000
00000000
00100000
00000000
10000000
00100000
01000000
00000000
00010000
00000000
00200000
00000000
00000000
00000000
,
00310000
00000000
00010000
00000000
01000000
00000000
00100000
10000000
00100000
00000000
10000000
00000000
02000000
00000000
00000000
00000000
,
13000000
00100000
01000000
00010000
00100000
00010000
10000000
00100000
,
01000000
00010000
00100000
00010000
00000000
00000000
00110000
00000000
,
10000000
00000000
10000000
00000000
00100000
00000000
10000000
00100000
01000000
00000000
00000000
00000000
00010000
00000000
00000000
00000000
,
00010000
00000000
00100000
00000000
00010000
00000000
01000000
00100000
01000000
00000000
00000000
00000000
00100000
00000000
00000000
00000000
,
10000000
00000000
01000000
00000000
10000000
00000000
00100000
01000000
00100000
00000000
00000000
00000000
10000000
00000000
00000000
00000000
,
00010000
00000000
10000000
00000000
00100000
00000000
10000000
01000000
10000000
00000000
00000000
00000000
10000000
00000000
00000000
00000000
,
00100000
00100000
10100000
00000000
00100000
00100000
01100000
00000000
,
10000000
10000000
10010000
00000000
10000000
10000000
11000000
00000000
,
00100000
10000000
00100000
01000000
00010000
00100000
00010000
01000000
,
00100000
10000000
01000000
11000000
00000000
00000000
00000000
00000000
,
00010000
00010000
00010000
10000000
00100000
00000000
01000000
00100000
,
00000000
10000000
00100000
00000000
01100000
00000000
00000000
00000000
,
10000000
10000000
10000000
00100000
01000000
00000000
00010000
01000000
,
00000000
00100000
01000000
00000000
01100000
00000000
00000000
00000000
,
00010000
10000000
00100000
01000000
00010000
00000000
01000000
00100000
,
00000000
10000000
00100000
00000000
01100000
00000000
00000000
00000000
,
10000000
01000000
10000000
00100000
01000000
00010000
00100000
00010000
,
00100000
00010000
00110000
01101100
,
10000000
00000000
00000000
00010000
00000000
00000000
01000000
00000000
00100000
00000000
10000000
00000000
01000000
00000000
10000000
00000000
,
00100000
00000000
00000000
01000000
00000000
00000000
00010000
00000000
00100000
00000000
00010000
00000000
01000000
00000000
00100000
00000000
,
10000000
00000000
00000000
01000000
00000000
00000000
10000000
00000000
00100000
00000000
01000000
00000000
00010000
00000000
00100000
00000000
,
00010000
00000000
00000000
01000000
00000000
00000000
00100000
00000000
10000000
00000000
00000000
00000000
01100000
00000000
00000000
00000000
,
10000000
01000000
10000000
00100000
10000000
01000000
10000000
00100000
,
01000000
00010000
00100000
00010000
10000000
00010000
01000000
00000000
,
00010000
00100000
00010000
01000000
00010000
00100000
00010000
01000000
,
00100000
10000000
01000000
10000000
00100000
01000000
00010000
00000000
,
10000000
00000000
01100000
00000000
10000000
00100000
01000000
00000000
,
00010000
00000000
01100000
00000000
00010000
01000000
00100000
00000000
,
10000000
00000000
01010000
00000000
10000000
01000000
10000000
00000000
,
00010000
00000000
10100000
00000000
00010000
01000000
00100000
10000000
,
01000000
11000000
00010000
00110000
,
10000000
00000000
01100000
00000000
10000000
01000000
00000000
00000000
,
10000000
00100000
01000000
00010000
01000000
00100000
10000000
00100000
,
01100000
00000000
00110000
00000000
00010000
00100000
00000000
00000000
,
00020000
00000000
00000000
01030000
00000000
00000000
00100000
01000000
,
00020000
00000000
00100000
00000000
00130000
00010000
00000000
00000000
,
02000000
00000000
00000000
03100000
00000000
00000000
01000000
00100000
,
10000000
00000000
10000000
00000000
00100000
10000000
00000000
00000000
,
02000000
00000000
00000000
13000000
00000000
00000000
00100000
10000000
,
02000000
00000000
10000000
00000000
13000000
10000000
00000000
00000000
,
00100000
00100000
01000000
01000000
00010000
00010000
10000000
10000000
,
00010000
01000000
00100000
01000000
00010000
00000000
00110000
00000000
,
10000000
10000000
10000000
00010000
01000000
00000000
00100000
10000000
,
00000000
00100000
01000000
00000000
01100000
00000000
00000000
00000000
,
00010000
00010000
00010000
00100000
00010000
00000000
01000000
00100000
,
00000000
10000000
00100000
00000000
01100000
00000000
00000000
00000000
,
00010000
00100000
00010000
01000000
00100000
00000000
10000000
00100000
,
00000000
01000000
00010000
00000000
00110000
00000000
00000000
00000000
,
10000000
00010000
01000000
00100000
10000000
01000000
10000000
00100000
,
01000000
00010000
00100000
00000000
00110000
00000000
00110000
00000000
,
10000000
00100000
01100000
00000000
01000000
00100000
11000000
00000000
,
00010000
01000000
00010000
00000000
00110000
00000000
00000000
00000000
,
00010000
01000000
01100000
00000000
00100000
10000000
11000000
00000000
,
10000000
01000000
11000000
00000000
01100000
00000000
00000000
00000000
,
10000000
00100000
01100000
00000000
01000000
00010000
00110000
00000000
,
00010000
10000000
00010000
00000000
00110000
00000000
00000000
00000000
,
10000000
00010000
01000000
00100000
01000000
00010000
01000000
00100000
,
10000000
00100000
01000000
00010000
00100000
00010000
10000000
00000000
,
11110000
00000000
00000000
00000000
;
