#TITLE:Come With Me;
#SUBTITLE:;
#ARTIST:Good-cool feat. Aundrea L. Hopkins;
#TITLETRANSLIT:;
#SUBTITLETRANSLIT:;
#ARTISTTRANSLIT:;
#GENRE:;
#CREDIT:;
#MUSIC:comewithme.ogg;
#BANNER:comewithme.png;
#BACKGROUND:comewithme-bg.png;
#CDTITLE:;
#SAMPLESTART:0.000;
#SAMPLELENGTH:0.000;
#SELECTABLE:YES;
#OFFSET:-8.555;
#BPMS:0.000=125.010;
#STOPS:158.000=0.480;
#BGCHANGES:;
#FGCHANGES:;

//--------------- dance-single - ----------------
#NOTES:
     dance-single:
     :
     Easy:
     2:
     0,0,0,0,0:
1000
0000
0000
0000
,
0001
0000
0000
0000
,
0100
0000
0000
0000
,
0010
0000
0000
0000
,
1001
0000
0000
0000
,
0010
0000
0000
0000
,
0100
0000
0000
0000
,
1000
0000
0000
0000
,
0001
0000
0001
0000
,
1000
0000
1000
0000
,
0010
0000
0100
0000
,
0010
0000
0100
0000
,
1001
0000
0000
0000
,
0010
0000
0000
0000
,
0100
0000
0000
0000
,
1000
0000
0000
0000
,
0110
0000
0000
0000
,
1000
0000
0000
0000
,
0010
0000
0000
0000
,
0100
0000
0000
0000
,
1001
0000
1000
0000
,
0001
0000
0001
0000
,
1000
0000
0100
0000
,
0010
0000
0001
0000
,
0100
0000
0010
0000
,
1000
0000
0001
0000
,
1001
0000
0000
0000
,
0110
0000
0000
0000
,
2000
0000
0000
0000
,
0000
0000
3000
0000
,
0002
0000
0000
0000
,
0000
0000
0003
0000
,
0110
0000
0100
0000
,
1001
0000
0001
0000
,
1000
0000
1000
0000
,
0002
0000
0000
0003
,
1000
0000
1000
0000
,
0100
0000
0100
0000
,
0010
0000
0010
0000
,
0001
0000
1001
0100
,
0000
0100
0000
0010
,
0000
0010
0000
0001
,
0000
0001
0000
1000
,
0000
1000
0000
0000
;

//--------------- dance-single - ----------------
#NOTES:
     dance-single:
     :
     Medium:
     8:
     0,0,0,0,0:
1000
0000
0010
0000
1000
0001
1000
0000
,
0010
0000
0100
0000
0001
1000
0001
0000
,
1000
0000
0010
0000
0100
0001
0100
0000
,
2000
0000
0000
0000
3000
0000
1000
0001
,
2000
3100
0002
0103
,
1000
0010
1000
0000
0001
0100
0001
0000
,
2000
3010
0002
0013
,
1000
0100
0001
0000
0001
0100
1000
0000
,
2010
3100
0012
0103
,
1000
0100
0010
0000
0001
0010
0100
0000
,
1200
0310
0102
1003
,
1000
0100
0010
0001
1000
0100
0010
0000
,
2000
0100
0010
3001
,
0002
0010
0100
1003
,
1000
0000
0010
0000
0100
0001
0100
0000
,
0001
0000
0010
0000
0100
1000
0100
0000
,
0200
1000
0001
1300
,
0020
0001
1000
0031
,
1000
0000
0100
0000
1000
0010
1000
0000
,
1000
0010
0100
0001
1000
0100
0010
0000
,
1000
1100
0010
0011
,
0100
0110
0010
0110
,
1000
0000
0100
0001
0100
0010
0100
0000
,
0001
0000
1000
0010
1000
0100
1000
0000
,
1000
1100
1010
1001
,
0001
0011
0101
1001
,
2000
0100
0001
3100
,
1000
0010
0001
0000
0001
0010
1000
0000
,
1000
0000
1100
0000
0001
0010
0001
0000
,
1000
0100
0001
0000
1001
0000
0000
0000
,
0001
0000
0101
0000
1000
0010
1000
0000
,
0001
0010
1000
0000
0110
0000
0000
0000
,
2000
0001
0010
3001
,
0002
0010
1000
0013
,
1000
0100
0010
0000
0001
0010
0100
0000
,
1000
0100
1000
0100
1000
0001
0100
0000
,
1000
0000
0010
0000
0100
0100
0100
0000
,
0001
0000
0100
0000
0010
0010
0010
0000
,
1000
0000
0100
0000
1000
0100
0010
0000
,
1000
0000
0100
0010
1001
0000
1000
0000
,
1100
0100
0110
0010
,
0011
0001
1001
0100
,
0010
0000
1000
0010
1000
0000
0100
0000
,
0001
0000
0100
0001
1000
0100
0000
0000
;

//--------------- dance-single - ----------------
#NOTES:
     dance-single:
     :
     Hard:
     11:
     0,0,0,0,0:
1000
0000
0000
0100
0000
0000
0010
0000
0001
0000
0000
1000
0000
0000
0010
0000
,
0100
0000
0000
0001
0000
0000
1000
0000
0200
0000
0000
0000
1300
0000
0000
0000
,
0010
0000
0000
0100
0000
0000
0001
0000
1000
0000
0000
0001
0000
0000
0010
0000
,
0200
0000
0000
0000
0001
0000
0000
0000
1300
0000
0000
1000
0001
0000
0010
0000
,
1001
0000
0000
0000
0110
0000
0000
0000
0001
1000
0000
1000
0000
0000
0001
0000
,
0000
0100
0100
0010
1000
0100
0010
0001
,
1100
0000
0000
0000
0011
0000
0000
0000
0001
0010
0000
0010
0000
0000
0100
0000
,
1000
0010
1000
0010
0100
0001
0100
0001
,
0110
0000
0000
0000
1001
0000
0000
0000
0010
0001
0000
0001
0000
0000
0100
0000
,
0000
0010
1000
0001
0100
0001
0010
0001
,
0011
0000
0000
0000
1010
0000
0000
0000
0100
0001
0000
0001
0000
0000
0010
0000
,
0001
0010
0100
1000
0010
0100
0001
1000
,
0020
0000
0130
0000
1000
0100
0010
0000
,
1000
0010
0100
0001
0100
0010
1000
0100
,
0020
0001
0100
0001
,
0130
1000
0001
0000
1000
0010
1000
0001
,
0020
0000
0000
0000
0000
0000
0000
0000
0000
0000
0000
0000
0100
0000
0000
0000
0000
0000
0000
0000
0000
0000
0000
0030
0000
0000
0100
0000
0010
0000
0000
0000
,
0001
0100
0010
1000
0100
1000
0100
1000
,
0001
0100
0010
0000
0001
0100
0010
0000
,
1100
1000
0100
0010
0001
0010
0100
0000
,
1000
0100
0001
0100
1000
0010
0200
0000
,
0301
0010
0100
1000
0010
0100
0002
0000
,
0013
0001
1000
0100
0010
0001
0200
0000
,
0310
0100
0010
1000
0100
1000
0001
0100
,
0020
0000
0000
1000
0000
0000
0130
0000
1001
0000
0000
0000
0010
0000
0100
0000
,
0002
0000
0000
0000
0000
0000
1000
0000
0000
0000
0000
0000
0103
0000
0000
0000
0220
0000
0000
0000
0000
0000
0000
0330
0000
0000
0000
0000
1000
0000
0010
0000
,
0100
0000
0000
0001
0000
0000
1000
0000
0010
0000
0000
0100
0000
0000
0001
0000
,
0010
0100
1000
1000
0010
0100
0001
0001
,
0010
0001
1000
0010
0200
0000
0310
1000
,
0100
0000
0000
0010
0000
0000
0001
0000
1000
0000
0010
0000
1000
0000
0010
0000
,
0100
0001
0100
0010
1000
0100
1000
0010
,
0200
0000
0000
0000
0301
0000
0010
0000
0000
0000
0100
0000
1000
0000
0000
0001
,
0010
0100
0010
0001
2000
0000
3010
0100
,
0001
0000
0000
0010
0000
0000
0100
0000
1000
0000
0010
0000
1000
0000
0010
0000
,
0100
0000
0001
0000
0100
0000
0001
0000
0010
0000
0000
0100
1000
0000
0100
0000
,
0010
0001
0010
0001
0010
0001
0000
0010
0000
0100
1000
0000
0000
0000
0010
0000
,
0200
0000
0000
0000
0301
0000
0000
0000
1000
0000
0000
0010
0000
0000
1001
0000
,
0000
0100
0000
0000
0010
0000
0000
0000
0001
0000
1000
0000
0000
0000
0010
0000
,
0020
0000
0000
0000
1030
0000
0000
0000
0001
0000
0000
0100
0000
0000
1010
0000
,
0000
1000
0000
0000
0100
0000
0000
0000
1001
0000
0000
0000
1000
0000
0000
0000
,
0100
0000
1000
0100
0001
0000
1010
0000
,
0011
0000
0001
0100
1000
0000
1100
0000
,
0101
0000
1000
0010
0001
0000
0010
0001
,
1000
0100
0010
0001
1000
0200
0000
0000
,
0000
0300
0000
0000
0000
0000
0000
0000
;
