#TITLE:Changes;
#SUBTITLE:;
#ARTIST:Rivera & Haze;
#TITLETRANSLIT:;
#SUBTITLETRANSLIT:;
#ARTISTTRANSLIT:;
#GENRE:;
#CREDIT:;
#MUSIC:Changes.ogg;
#BANNER:changes-bn.png;
#BACKGROUND:Changes-bg.png;
#CDTITLE:;
#SAMPLESTART:54.730;
#SAMPLELENGTH:15.300;
#SELECTABLE:YES;
#OFFSET:-0.968;
#BPMS:0.000=124.997;
#STOPS:;
#BGCHANGES:;
#FGCHANGES:;

//--------------- dance-single - M. Puls ----------------
#NOTES:
     dance-single:
     M. Puls:
     Beginner:
     1:
     0.067767,0.120602,0.040201,0,0,59,54,5,0,0,0,0.067767,0.120602,0.040201,0,0,59,54,5,0,0,0:
0000
0000
0000
0000
,
0000
0000
0000
0000
,
0000
0000
0000
0000
,
0000
0000
0000
0000
,
1000
0000
0000
0000
,
0001
0000
0000
0000
,
0010
0000
0000
0000
,
0001
0000
0000
0000
,
1001
0000
0000
0000
,
0000
0000
0000
0000
,
1000
0000
0000
0000
,
0001
0000
0000
0000
,
1000
0000
0000
0000
,
0100
0000
0000
0000
,
1000
0000
0000
0000
,
0001
0000
0000
0000
,
0100
0000
0000
0000
,
0000
0000
0000
0000
,
0010
0000
0000
0000
,
0010
0000
0000
0000
,
1000
0000
0000
0000
,
1000
0000
0000
0000
,
0001
0000
0000
0000
,
0001
0000
0000
0000
,
0010
0000
0000
0000
,
0010
0000
0000
0000
,
0100
0000
0000
0000
,
0100
0000
0000
0000
,
0001
0000
0000
0000
,
0001
0000
0000
0000
,
1000
0000
0000
0000
,
1000
0000
0000
0000
,
0100
0000
0000
0000
,
0010
0000
0000
0000
,
0100
0000
0000
0000
,
0100
0000
0000
0000
,
1001
0000
0000
0000
,
0000
0000
0000
0000
,
0100
0000
0000
0000
,
0010
0000
0000
0000
,
1000
0000
0000
0000
,
0001
0000
0000
0000
,
1000
0000
1000
0000
,
1000
0000
0000
0000
,
1001
0000
0000
0000
,
0000
0000
0000
0000
,
0010
0000
0000
0000
,
0100
0000
0000
0000
,
0001
0000
0000
0000
,
0010
0000
0000
0000
,
0001
0000
0000
0000
,
1000
0000
0000
0000
,
1001
0000
0000
0000
,
0100
0000
0000
0000
,
0010
0000
0000
0000
,
0010
0000
0000
0000
,
0100
0000
0000
0000
,
0001
0000
0000
0000
,
1000
0000
0000
0000
,
0001
0000
0000
0000
,
1001
0000
0000
0000
;

//--------------- dance-single - K. Ward ----------------
#NOTES:
     dance-single:
     K. Ward:
     Easy:
     3:
     0.121751,0.241204,0.112562,0,0,106,92,14,0,0,0,0.121751,0.241204,0.112562,0,0,106,92,14,0,0,0:
0000
0000
0000
0000
,
0000
0000
0000
0000
,
0000
0000
0000
0000
,
0000
0000
0000
0000
,
1000
0000
0000
0000
,
0001
0000
0000
0000
,
0100
0000
0000
0000
,
0010
0000
0000
0000
,
0011
0000
0000
0000
,
1000
0000
0000
0000
,
0001
0000
0000
0000
,
0100
0000
0010
0000
,
1001
0000
0000
0000
,
0000
0000
0010
0010
,
0010
0000
0000
0000
,
0000
0000
0000
0000
,
0011
0000
0000
0000
,
1000
0000
0000
0000
,
0001
0000
1000
0000
,
0001
0000
0000
0000
,
0100
0000
0010
0000
,
0100
0000
0010
0000
,
0001
0000
0010
0000
,
0001
0000
0000
0000
,
1000
0000
0100
0000
,
1000
0000
0100
0000
,
0010
0000
0100
0000
,
0010
0000
0000
0000
,
0001
0000
0001
0000
,
1000
0000
1000
0000
,
0001
0000
0001
0000
,
0100
0000
0100
0000
,
0010
0000
0010
0000
,
0100
0000
0100
0000
,
0001
0000
0001
0000
,
1000
0000
0001
0000
,
1001
0000
0000
0000
,
0011
0000
0000
0000
,
0110
0000
0000
0000
,
0001
0000
1000
0000
,
0100
0000
0000
0000
,
0010
0000
0000
0000
,
0100
0000
1000
0000
,
0001
0000
0000
0000
,
0000
1100
0000
1100
,
0000
0011
0000
0011
,
0000
1001
0000
1001
,
0000
0101
0000
0101
,
0000
0001
0000
0001
,
0000
1000
0000
1000
,
0000
0010
0000
0100
,
0000
0001
1000
0001
,
0000
1000
0000
0001
,
0000
1000
0000
0001
,
0000
0100
0000
1000
,
0000
0100
0000
0001
,
0000
0010
0000
0100
,
0000
0010
0000
0001
,
0000
1000
0000
0001
,
0000
1000
0000
0001
,
1000
0000
0000
0000
;

//--------------- dance-single - K. Ward ----------------
#NOTES:
     dance-single:
     K. Ward:
     Medium:
     7:
     0.251541,0.318791,0.184923,0.088441,0,219,196,23,11,0,0,0.251541,0.318791,0.184923,0.088441,0,219,196,23,11,0,0:
0000
0000
0000
0000
,
0000
0000
0000
0000
,
0000
0000
0000
0000
,
0000
0000
0000
0000
,
0001
0100
0010
1000
,
0010
0100
0001
0010
,
0100
0010
0001
1000
,
0001
1000
2000
0000
,
3001
0000
0000
0011
0000
0000
0000
0000
,
0100
0000
0000
1001
0000
0000
0000
0000
,
0100
0000
0000
1010
0000
0000
0000
0000
,
0100
0010
0001
0010
,
2002
0000
3003
0000
,
0000
0010
0100
0001
,
0002
0000
0000
0000
,
1003
0000
0100
0010
,
2002
0000
3003
0000
,
0000
0000
0000
0000
0001
0010
0100
0010
,
0200
0000
0010
0000
,
1300
0000
0000
0000
,
0010
0001
0100
1000
,
0010
0001
0100
1000
,
0001
0001
1000
1000
,
0100
0010
0100
0000
1001
0000
0000
0000
,
0100
1000
0010
0001
,
0100
1000
0010
0001
,
1000
1000
0001
0001
,
0100
0010
0011
0000
,
0100
0010
0100
0000
1000
0000
0000
0000
,
0100
0010
0100
0000
0001
0000
0000
0000
,
0010
0100
1000
0000
1000
0000
0000
0000
,
0010
0100
0001
0000
0001
0000
0000
0000
,
0010
0100
0010
0000
0010
0000
0000
0000
,
0100
0010
0100
0000
0100
0000
0000
0000
,
0001
1000
0001
0000
0010
0000
0000
0000
,
0100
0010
1000
0000
1001
0000
0000
0000
,
0010
0100
0010
0100
,
0010
0100
1000
0000
,
0010
0000
0100
0000
0001
0010
0001
0000
,
1000
1000
1000
0000
,
0110
0011
0000
0000
,
0110
1001
0000
0000
,
0120
0001
0100
0130
,
0010
0110
0100
0000
,
1000
0100
1000
0000
0001
0010
0001
0000
,
0100
0010
0100
0000
0001
0010
0001
0000
,
0100
0010
1000
0000
0010
0100
0001
0000
,
0010
0100
0010
0000
0000
0000
0001
0000
,
0000
1000
0100
0020
0000
0000
0000
0000
,
0130
0100
0010
0000
,
0000
0100
1000
0002
0000
0000
0000
0000
,
0013
0100
0010
0100
,
1001
0100
1001
0010
,
0101
0000
0010
0000
0100
0010
0001
0000
,
1000
1000
0001
0001
,
1000
0000
1000
0000
0001
1000
0001
0000
,
0010
0110
0000
0011
,
0000
1010
0100
0110
,
0001
0000
1000
0000
,
0100
1010
0010
0101
,
0020
0000
0000
0000
,
0030
0000
0000
0000
;

//--------------- dance-single - K. Ward ----------------
#NOTES:
     dance-single:
     K. Ward:
     Hard:
     11:
     0.420384,0.465926,0.313565,0.064321,0.168843,366,327,39,8,0,0,0.420384,0.465926,0.313565,0.064321,0.168843,366,327,39,8,0,0:
0000
0000
0000
0000
,
0000
0000
0000
0000
,
0000
0000
0000
0000
,
0000
0000
0000
0000
,
1000
0000
0000
0010
0000
0000
0100
0000
0000
0000
0011
0000
0000
0000
0000
0000
,
0100
0000
0000
0010
0000
0000
1100
0000
0000
0000
0000
0000
0000
0000
0000
0000
,
0100
0000
0000
0010
0000
0000
0100
0000
0000
0000
1010
0000
0000
0000
0000
0000
,
0001
0000
0000
0010
0000
0000
0011
0000
0000
0000
0000
0000
0000
0000
0000
0000
,
1001
0000
0000
0100
0000
0000
0010
0000
0000
0000
0000
0000
0000
0000
0010
0000
,
0010
0000
0000
0100
0000
0000
0001
0000
0000
0000
0000
0000
0001
0000
0010
0000
,
0100
0000
0000
0010
0000
0000
0100
0000
0000
0000
0000
0000
0000
0000
0100
0000
,
0010
0000
0000
0001
0000
0000
1000
0000
0010
0000
0000
0100
0000
0000
0001
0000
,
0020
0000
0030
0000
,
0000
1000
0100
0010
0001
0100
0010
0000
,
0200
0000
0300
0000
,
0001
0000
0000
0100
0000
0000
1010
0000
0000
0000
0000
0000
0000
0000
0000
0000
,
0011
0000
0000
0110
0000
0000
2200
0000
0000
0000
0000
0000
3300
0000
0000
0000
,
1000
0000
0000
0010
0000
0000
0100
0000
0001
0000
0100
0000
0010
0000
1000
0000
,
0001
0000
0000
0010
0000
0000
0100
0000
1000
0000
0100
0000
0010
0000
0001
0000
,
0010
0000
0000
0100
0000
0000
0010
0000
1001
0000
0000
0000
0000
0000
0000
0000
,
0010
0100
0010
1000
0010
0100
0010
1000
,
0010
0100
0010
1000
0010
0100
0010
0100
,
0010
0001
0010
0001
0010
0100
0010
0100
,
0010
1000
0010
0100
0001
0000
0011
0000
,
0100
1000
0100
0010
0100
1000
0100
0010
,
0100
1000
0100
0010
0100
0010
0100
0001
,
0100
0001
0100
0010
0100
0010
0100
1000
,
0100
0010
0100
1000
0100
0000
0011
0000
,
1000
0100
0000
1000
0000
0000
0010
0000
0100
0000
0001
0000
0010
0000
0000
0000
,
0001
0010
0000
0001
0000
0000
0100
0000
0010
0000
1000
0000
0100
0000
0000
0000
,
1000
0100
0000
1000
0000
0000
0100
0000
0010
0000
0001
0000
0010
0000
0000
0000
,
0100
0010
0000
0100
0000
0000
0010
0000
0100
0000
0000
0000
0011
0000
0000
0000
,
1000
0100
0000
1000
0000
0000
0010
0000
0100
0000
0001
0000
0010
0000
0000
0000
,
0001
0010
0000
0001
0000
0000
0010
0000
0100
0000
1000
0000
0100
0000
0000
0000
,
0010
0100
0000
0010
0000
0000
0001
0000
0100
0000
0001
0000
0010
0000
0000
0000
,
0001
0100
0000
0001
0000
0000
0010
0000
0100
0000
0000
0000
0011
0000
0000
0000
,
1000
0001
0001
0000
0010
0100
0100
0000
,
1000
0000
0010
0000
0100
0000
0000
0001
0000
0000
0010
0000
0011
0000
0000
0000
,
0001
1000
1000
0000
0100
0010
0010
0000
,
0100
0000
1000
0000
0100
0000
0000
1000
0000
0000
0100
0000
1100
0000
0000
0000
,
0011
0000
0000
0110
0000
0000
1100
0000
0000
0000
1010
0000
0000
0000
0000
0000
,
1100
0000
0000
0110
0000
0000
0011
0000
0000
0000
0101
0000
0000
0000
0000
0000
,
0100
0010
1000
0010
0100
0010
1000
0000
,
0100
0000
0000
0110
0000
0000
0001
1000
0001
1000
0000
0000
,
1000
0001
0100
0001
1000
0001
0100
0001
,
0010
0001
0100
0010
0100
0001
0010
0100
,
1000
0001
0100
0001
1000
0001
0100
0001
,
0010
0001
0100
0010
1000
0000
1100
0000
,
0001
0100
0010
1000
0010
0100
0001
0010
,
0001
0100
0010
0100
0010
1000
0010
0100
,
0001
0010
0001
0100
0010
1000
0010
0100
,
0001
0010
0001
0100
0010
0100
0001
0010
,
0100
0000
0000
0000
1010
0000
0000
0000
0100
0000
0000
0000
0011
0000
0000
0001
,
0010
0000
0000
0100
1000
0000
0000
0000
1100
0000
0000
0000
1010
0000
0000
0100
,
0001
0000
0000
0000
0010
0000
0000
0000
0100
0000
0000
0000
0010
0000
0000
0001
,
0010
0000
0010
0000
0100
0010
0100
0000
,
2000
0000
0000
0000
3100
0000
0000
0000
0002
0000
0000
0000
0013
0000
0000
0100
,
0010
0000
0000
0001
0010
0000
0000
0000
0010
0000
0001
0000
1000
0000
0000
0000
,
1100
0101
1100
0110
,
0101
1100
0110
1001
,
2002
0000
0000
0000
,
3003
0000
0000
0000
;

//--------------- dance-single - J. Cooney ----------------
#NOTES:
     dance-single:
     J. Cooney:
     Challenge:
     12:
     0.44795,0.465926,0.289445,0.064321,0.257284,390,354,36,8,9,0,0.44795,0.465926,0.289445,0.064321,0.257284,390,354,36,8,9,0:
0000
0000
0000
0000
,
0000
0000
0000
0000
,
0000
0000
0000
0000
,
0000
0000
0000
0000
,
1100
0000
0000
1001
0000
0000
0110
0000
0000
0000
0011
0000
0000
0000
00MM
0000
,
0100
0000
0000
0010
0000
0000
1100
0000
0000
0000
MM00
0000
0000
0000
0000
0000
,
0010
0000
0000
1001
0000
0000
0110
0000
0000
0000
1100
0000
0000
0000
0000
0000
,
0100
0000
0000
0010
0000
0000
0101
0000
0000
0000
000M
0000
0000
0000
0000
0000
,
0200
0000
0000
1000
0000
0000
0310
0000
0000
0000
0000
0000
0000
0000
1000
0100
,
1000
0000
0000
0010
0000
0000
0101
0000
0000
0000
0000
0000
0100
0000
0001
0000
,
0020
0000
0000
0100
0000
0000
0031
0000
0000
0000
0000
0000
0000
0000
1000
0000
,
1000
0000
0000
0100
0000
0000
0010
0000
0001
0000
0000
0100
0000
0000
0000
0000
,
0120
0100
0100
0100
0130
0000
0MM0
0000
,
0000
0101
0010
0000
0110
0001
0000
2000
,
0000
0000
0001
0100
,
3010
M000
0000
0010
0100
0001
0010
0000
,
0210
0010
0010
0010
0310
0000
01M0
0000
,
1010
0000
0000
0000
0000
0000
0000
0000
0001
1000
0000
0001
0000
1000
0000
0000
,
0200
0000
0001
0000
,
0010
0010
1000
1000
1000
0300
0011
0000
,
0100
0000
1000
0000
0100
0000
0001
0000
0100
0000
1000
0000
0100
0000
0000
0010
,
0100
0000
0000
1000
0100
0000
0000
0000
0010
0000
1000
0000
0100
0000
0000
0000
,
1010
0000
1000
0000
0100
0000
0000
0000
0101
0000
0001
0000
0010
0000
0000
0100
,
0010
0000
0000
0001
0010
0000
0000
0000
1001
0000
0100
0000
0010
0000
0000
0000
,
0100
0000
1000
0000
0100
0000
0001
0000
0100
0000
1000
0000
0100
0000
0000
0010
,
0100
0000
0000
1000
0100
0000
0000
0000
0001
0000
0010
0000
0100
0000
0000
0000
,
1010
0000
1000
0000
0100
0000
0000
0000
1001
0000
0001
0000
0010
0000
0000
0100
,
0010
0000
0000
0001
0010
0000
0000
0000
0100
0000
0000
0000
0011
0000
0000
0000
,
1000
0000
0100
0000
1000
0000
0100
0000
0000
1000
0000
0000
0100
0000
0000
0010
0000
0000
0001
0000
0000
1000
0000
0000
,
0001
0000
0010
0000
0001
0000
0010
0000
0000
0001
0000
0000
0001
0000
0000
0100
0000
0000
0010
0000
0000
0100
0000
0000
,
0100
0000
0001
0000
0100
0000
0001
0000
0000
1000
0000
0000
0100
0000
0000
0010
0000
0000
0100
0000
0000
1000
0000
0000
,
0001
0000
1000
0000
0001
0000
1000
0000
0000
0100
0000
0000
1000
0000
0000
0100
0000
0000
0010
0000
0000
0000
0000
0000
,
0100
0000
1000
0000
0100
0000
1000
0000
0000
0100
0000
0000
0010
0000
0000
0001
0000
0000
0010
0000
0000
0001
0000
0000
,
1000
0000
0010
0000
1000
0000
0010
0000
0000
0100
0000
0000
0010
0000
0000
0100
0000
0000
0001
0000
0000
0010
0000
0000
,
0001
0000
0010
0000
0001
0000
0010
0000
0000
0100
0000
0000
0100
0000
0000
0010
0000
0000
0001
0000
0000
0001
0000
0000
,
0100
0000
0010
0000
0100
0000
0010
0000
0000
0100
0000
0000
0001
0000
0000
0000
0000
0000
0011
0000
0000
0000
0000
0000
,
0001
0000
0000
0001
0010
0000
0000
0000
0100
0000
1000
0000
0010
0000
0000
0000
,
0100
0000
0000
0100
0010
0000
0000
0000
0100
0000
0001
0000
0010
0000
0000
0000
,
0100
0000
0000
0100
1000
0000
0000
0000
0100
0000
0010
0000
0001
0000
0000
0000
,
0001
0100
1000
0100
0001
0100
1000
0000
,
1100
0000
0000
0010
0100
0000
0000
0000
0100
0000
0010
0000
0101
0000
0000
0000
,
0001
0000
0000
0001
0010
0000
0000
0000
0100
0000
0010
0000
1001
0000
0000
0000
,
0100
0010
0100
0001
0100
0010
0100
0001
,
1000
0000
0000
1000
0000
0000
1000
0000
0000
1000
0000
0000
0100
0000
0010
0000
0100
0000
0010
0000
0000
0000
0000
0000
,
1100
0000
0000
0100
1000
0000
0010
0000
0100
0000
0001
0000
0010
0000
0100
0000
,
0010
0000
0000
0010
0100
0000
0010
0000
0001
0000
0100
0000
1000
0000
0100
0000
,
0010
0000
0000
0010
0100
0000
0001
0000
0010
0000
0001
0000
0010
0000
0100
0000
,
1000
0000
0000
1000
0100
0000
0010
0000
0100
0000
0000
0000
1010
0000
0000
0000
,
0001
0000
0000
0001
0010
0000
0100
0000
0010
0000
0001
0000
0100
0000
0001
0000
,
1000
0000
0000
1000
0100
0000
0010
0000
0100
0000
1000
0000
0010
0000
1000
0000
,
1000
0000
0000
1000
0100
0000
0010
0000
0010
0000
0000
0000
0101
0000
0000
0000
,
0100
0000
0000
0001
0010
0000
0000
0100
0010
0000
0000
0001
0010
0000
0000
0100
,
0010
0000
0000
0000
1100
0000
0000
0000
0100
0000
0010
0000
0001
0000
0000
0001
,
0100
0000
0000
0100
0010
0000
0000
0000
0100
0000
0001
0000
0010
0000
0000
0010
,
0100
0000
0000
0000
1010
0000
0000
0000
0100
0000
1000
0000
0010
0000
0000
0010
,
0100
0000
0000
0000
0011
0000
0000
0000
0010
0000
0100
0000
1000
0000
0000
0100
,
0010
0000
0000
0000
0101
0000
0000
0000
0010
0000
0001
0000
1000
0000
0000
1000
,
0100
0000
0000
0100
0010
0000
0000
0000
0010
0000
0100
0000
1000
0000
0000
0000
,
1000
0100
0000
0000
1010
0000
0000
0000
0100
0000
0010
0000
0001
0000
0000
0001
,
0010
0000
0101
0000
0010
0100
0010
0000
,
2002
0000
0000
0000
,
3003
0000
0000
0000
;

//--------------- dance-double - M. Emirzian ----------------
#NOTES:
     dance-double:
     M. Emirzian:
     Easy:
     1:
     0.071213,0.147134,0.00804,0.01608,0,62,61,1,2,0,0,0.071213,0.147134,0.00804,0.01608,0,62,61,1,2,0,0:
00000000
00000000
00000000
00000000
,
00000000
00000000
00000000
00000000
,
00000000
00000000
00000000
00000000
,
00000000
00000000
00000000
00000000
,
10000000
00000000
00000000
00000000
,
00010000
00000000
00000000
00000000
,
01000000
00000000
00000000
00000000
,
00001000
00000000
00000000
00000000
,
00000001
00000000
00000000
00000000
,
00000000
00000000
00000000
00000000
,
00001000
00000000
00000000
00000000
,
00000000
00000000
00000000
00000000
,
00100000
00000000
00000000
00000000
,
00000000
00000000
00000000
00000000
,
10000000
00000000
00000000
00000000
,
00000000
00000000
00000000
00000000
,
00001000
00000000
00000000
00000000
,
00000000
00000000
00000000
00000000
,
00000001
00000000
00000000
00000000
,
00001000
00000000
00010000
00000000
,
01000000
00000000
00000000
00000000
,
00100000
00000000
00000000
00000000
,
10000000
00000000
00000000
00000000
,
00001000
00000000
00000000
00000000
,
00000001
00000000
00000000
00000000
,
00000100
00000000
00000000
00000000
,
01000000
00000000
00000000
00000000
,
00001000
00000000
00000000
00000000
,
10000000
00000000
00010000
00000000
,
01000000
00000000
00000000
00000000
,
00001000
00000000
00010000
00000000
,
00000000
00000000
00000000
00000000
,
00000001
00000000
00000100
00000000
,
00000010
00000000
00000000
00000000
,
00010000
00000000
00001000
00000000
,
00000000
00000000
00000000
00000000
,
01000000
00000000
00000000
00000000
,
00000100
00000000
00000000
00000000
,
00000001
00000000
00000000
00000000
,
00000100
00000000
00000000
00000000
,
00010000
00000000
00000000
00000000
,
10000000
00000000
00000000
00000000
,
00010000
00000000
00000000
00000000
,
00000100
00000000
00000010
00000010
,
00000001
00000000
00000100
00000000
,
00000010
00000000
00000000
00010000
,
00001000
00000000
01000000
00000000
,
00100000
00000000
00000000
10000000
,
00010000
00000000
01000000
00000000
,
00001000
00000000
00000000
00010000
,
00000100
00000000
00000010
00000000
,
00000001
00000000
00000000
00000100
,
00000000
00000000
00000000
00000000
,
00010000
00000000
00000000
00000000
,
00000000
00000000
00000000
00000000
,
00001000
00000000
00000000
00000000
,
00000000
00000000
00000000
00000000
,
01000000
00000000
00000000
00000000
,
00000000
00000000
00000000
00000000
,
00000100
00000000
00000000
00000000
,
00002002
00000000
00000000
00000000
,
00003003
00000000
00000000
00000000
;

//--------------- dance-double - M. Emirzian ----------------
#NOTES:
     dance-double:
     M. Emirzian:
     Medium:
     5:
     0.204449,0.269747,0.02412,0.02412,0,178,175,3,3,0,0,0.204449,0.269747,0.02412,0.02412,0,178,175,3,3,0,0:
00000000
00000000
00000000
00000000
,
00000000
00000000
00000000
00000000
,
00000000
00000000
00000000
00000000
,
00000000
00000000
00000000
00000000
,
10000000
00000000
01000000
00000000
,
00100000
00000000
00001000
00010000
,
00000100
00000000
00000010
00000000
,
00000100
00000000
00001000
00000010
,
00000200
00000000
00000000
00000000
,
00000300
00000000
00000000
00000000
,
00000001
00000000
00000000
00000000
,
00000000
00000000
00000000
00000000
,
00000100
00000000
00000000
00000000
,
00000000
00000000
00000000
00000000
,
00001000
00000000
00000000
00000000
,
00000000
00000000
00000000
00000000
,
00010000
00000000
00000000
00000000
,
00000000
00000000
00000000
00000000
,
01000000
00000000
00000000
00000000
,
10000000
01000000
00010000
00001000
,
00010000
00000100
00000010
00000100
,
00001000
00000000
00000001
00000000
00000100
00000000
00000010
00010000
,
00001000
00010000
01000000
00100000
,
01000000
00000000
10000000
00000000
00010000
00000000
01000000
00100000
,
10000000
00100000
01000000
00001000
,
00010000
00000000
01000000
00000000
00010000
00000000
00001000
00010000
,
00000010
00000100
00000010
00010000
,
00001000
00000000
00000010
00000000
00000001
00001000
00000001
00000000
,
00000100
00000010
00010000
00001000
,
00000010
00000100
00000010
00001000
,
00010000
00000000
00100000
00000000
10000000
00010000
01000000
00000000
,
10000000
01000000
00010000
00100000
,
01000000
00100000
00001000
00010000
,
01000000
00000000
10000000
00000000
01000000
00000000
00100000
00010000
,
01000000
00100000
00010000
00001000
,
00000010
00000000
00001000
00000000
00010000
00000000
00000100
00000010
,
00000100
00001000
00000001
00000100
,
00001000
00000100
00000010
00001000
,
00000100
00000010
00000100
00010000
,
00100000
01000000
00001000
00010000
,
01000000
00100000
01000000
10000000
,
00100000
00010000
00100000
10000000
,
01000000
00010000
00001000
00000100
,
00001000
00010000
00010010
00000110
,
00000001
00000100
00000010
00001000
,
00000100
00000000
00000010
00000000
00000100
00000000
00001000
00000001
,
00000100
00001000
00000100
00000010
,
00010000
00000000
00001000
00000000
01000000
00000000
00100000
01000000
,
00001000
00010000
01000000
10000000
,
00010000
00000000
01000000
00000000
00100000
00000000
01000000
00001000
,
00010000
01000000
00010000
00001000
,
00000100
00000001
00000010
00000100
,
00000001
00000000
00000100
00000000
,
00001000
00000000
00010000
00000000
,
00001000
00000000
01000000
00000000
,
00100000
00000000
10000000
00000000
,
01000000
00000000
00010000
00000000
,
00001000
00000000
00010000
00000000
,
00000100
00000000
00000010
00000000
,
00000001
00000000
00001000
00000000
,
00000220
00000000
00000000
00000000
,
00000330
00000000
00000000
00000000
;

//--------------- dance-double - M. Emirzian ----------------
#NOTES:
     dance-double:
     M. Emirzian:
     Hard:
     7:
     0.421533,0.415173,0.144722,0.01608,0.116582,367,349,18,2,0,0,0.421533,0.415173,0.144722,0.01608,0.116582,367,349,18,2,0,0:
00000000
00000000
00000000
00000000
,
00000000
00000000
00000000
00000000
,
00000000
00000000
00000000
00000000
,
00000000
00000000
00000000
00000000
,
00100000
00000000
00010000
01000000
00010000
10000000
00100000
00000000
,
01000000
00000000
00010000
00100000
00010000
00000000
00100000
00000000
,
00001000
00010000
00000100
00000000
00010000
00000000
00000100
00001000
,
00000001
00000000
00000010
00000100
00000010
00000001
00001000
00000000
,
00000010
00000000
00000000
00001000
00000000
00000000
00000100
00000000
00000000
00000000
00010000
00000000
00000000
00000000
00000000
00000000
,
00001000
00000000
00000000
00010000
00000000
00000000
00100000
00000000
00000000
00000000
00000000
00000000
00000000
00000000
00000000
00000000
,
10000000
00000000
00000000
00010000
00000000
00000000
01000000
00000000
00000000
00000000
00100000
00000000
00000000
00000000
00000000
00000000
,
10000000
00000000
00000000
01000000
00000000
00000000
00010000
00000000
00000000
00000000
00000000
00000000
00000000
00000000
00000000
00000000
,
00001000
00000000
00000000
00000010
00000000
00000000
00000001
00000000
00000000
00000000
00000100
00000000
00000000
00000000
00000000
00000000
,
00000010
00000000
00000000
00001000
00000000
00000000
00000001
00000000
00000000
00000000
00000000
00000000
00000000
00000000
00000000
00000000
,
00000010
00000000
00000000
00001000
00000000
00000000
00010000
00000000
00000000
00000000
00100000
00000000
00000000
00000000
00000000
00000000
,
10000000
00000000
00000000
00010000
00000000
00000000
01000000
00000000
00000000
00000000
00000000
00000000
00000000
00000000
00000000
00000000
,
00100000
00000000
00000000
01000000
00000000
00000000
00010000
00000000
00000000
00000000
10000000
00000000
00000000
00000000
00000000
00000000
,
01000000
00000000
00000000
00100000
00000000
00000000
00010000
00000000
00100000
00000000
00010000
00000000
00100000
00000000
01000000
00000000
,
10000000
00010000
01000000
00100000
10000000
00100000
01000000
00001000
,
00010000
00000100
00001000
00000100
00000010
00000000
00000011
00000000
,
00001000
00000010
00001000
00000100
00000010
00000100
00001000
00000000
,
00000001
00000100
00001000
00000100
00000000
00001000
00010000
00001000
,
01000000
00000000
00000000
00000000
00011000
00000000
00000000
00000000
00100000
00000000
00000000
00000000
00110000
00000000
00000000
00010000
,
10000000
00000000
11000000
00000000
00100000
01000000
00010000
00000000
,
10000000
01000000
00010000
01000000
10000000
01000000
00010000
00000000
,
01000000
10000000
00010000
01000000
00000000
00100000
01000000
00001000
,
00010000
00000000
00000000
00000000
00010010
00000000
00000000
00000000
00001000
00000000
00000000
00000000
00001100
00000000
00000000
00000010
,
00000100
00000000
00000101
00000000
00000010
00000100
00001000
00000100
,
00001000
00000001
00000100
00000010
00001000
00000010
00001000
00000100
,
00010000
00001000
01000000
00001000
00010000
00100000
10000000
00100000
,
01000000
00100000
10000000
00010000
10000000
01000000
00100000
00010000
,
00100000
00010000
01000000
00001000
00010000
00000100
00010000
00001000
,
00000100
00001000
00000100
00001000
00010000
01000000
00010000
01000000
,
00010000
00001000
00000010
00001000
00000010
00001000
00010000
00100000
,
00010000
00100000
00010000
00001000
00010000
00001000
00100000
01000000
,
10000000
00010000
00100000
01000000
10000000
00010000
01000000
00000000
,
00100000
00000000
10000000
00000000
00010000
00000000
00000000
00000000
11000000
00000000
00000000
00000000
00100000
00000000
00000000
00100000
,
00010000
10000000
00100000
01000000
00010000
00100000
00010000
00000000
,
01000000
00000000
00001000
00000000
00010000
00000000
00000000
00000000
00010100
00000000
00000000
00000000
00010000
00000000
00000000
00010000
,
00001000
00000100
00000001
00000100
00000010
00001000
00000010
00000000
,
00001000
00000000
00000001
00000000
00000010
00000000
00000000
00000000
00001100
00000000
00000000
00000000
00000010
00000000
00000000
00000010
,
00001000
00000001
00000100
00001000
00000100
00000001
00000100
00000000
,
00000010
00001000
00000010
00010000
00001000
01000000
00010000
00000000
,
00110000
00000000
00000000
10010000
00000000
00000000
10000000
00100000
01000000
00010000
00000000
00000000
,
10000000
00000000
00100000
00000000
10000000
00000000
01000000
00000000
00100000
00000000
00010000
00000000
00100000
00000000
00000000
00100000
,
00010000
01000000
00001000
00010000
00000100
00001000
00000100
00000000
,
00000010
00000000
00000100
00000000
00001000
00000000
00000001
00000000
00001000
00000000
00000010
00000000
00000100
00000000
00000000
00000100
,
00000001
00001000
00000100
00001000
00000010
00010000
00001000
00000000
,
00010000
00000000
00001000
00000000
00000100
00000000
00001000
00000000
00010000
00000000
01000000
00000000
10000000
00000000
00000000
10000000
,
00010000
01000000
00100000
10000000
00100000
10000000
01000000
00010000
,
00100000
00000000
00000000
00000000
01000000
00000000
00000000
01000000
10000000
00000000
00000000
00000000
00100000
00000000
00000000
00100000
,
01000000
00000000
00000000
00000000
00001000
00000000
00000000
00001000
00010000
00000000
00000000
00000000
00000100
00000000
00000000
00000100
,
00001000
00000000
00000000
00000000
00000010
00000000
00000000
00000000
00000100
00000000
00000000
00000000
00000001
00000000
00000000
00000001
,
00001000
00000000
00000000
00001000
00000100
00000000
00000000
00000000
00000011
00000000
00000000
00000000
00001001
00000000
00000000
00000000
,
00000010
00001000
00000010
00010000
00001000
00010000
00000100
00000000
,
00010000
00001000
00100000
00000000
00010000
01000000
10000000
00000000
,
01000000
00100000
00000000
00000000
10010000
00000000
00000000
00000000
11000000
00000000
00000000
00000000
01100000
00000000
00000000
00100000
,
00010000
00000000
00000000
00010000
01000000
00000000
00000000
00000000
00001000
00000000
00010000
00000000
00000100
00000000
00000000
00000000
,
00010000
00001000
00000010
00000001
00000010
00000001
00000100
00000000
,
00000010
00001000
00000100
00001000
00000100
00010000
00001000
01000000
,
02002000
00000000
00000000
03003000
;

//--------------- dance-double - M. Emirzian ----------------
#NOTES:
     dance-double:
     M. Emirzian:
     Challenge:
     8:
     0.452545,0.490448,0.120602,0.02412,0.233164,394,379,15,3,0,0,0.452545,0.490448,0.120602,0.02412,0.233164,394,379,15,3,0,0:
00000000
00000000
00000000
00000000
,
00000000
00000000
00000000
00000000
,
00000000
00000000
00000000
00000000
,
00000000
00000000
00000000
00000000
,
10000000
00000000
01000000
00000000
10000000
00000000
00000000
01000000
00000000
00000000
00010000
00000000
00000000
00000000
00010000
00000000
,
00001000
00000000
00000010
00000000
00001000
00000000
00000000
00000010
00000000
00000000
00000001
00000000
00000010
00000000
00000100
00000000
,
00001000
00000000
00000000
00000001
00000000
00000000
00000100
00000000
00000000
00000000
00000100
00000000
00000010
00000000
00001000
00000000
,
00000100
00000000
00000000
00010000
00000000
00000000
00001000
00000000
00000000
00000000
00010000
00000000
01000000
00000000
00000000
00000000
,
00110000
00000000
00000000
01000000
00000000
00000000
00100000
00000000
00000000
00000000
10000000
00000000
00000000
00000000
00000000
00000000
,
01000000
00000000
00000000
00100000
00000000
00000000
00001000
00000000
00000000
00000000
00000000
00000000
00000000
00000000
00000000
00000000
,
00010000
00000000
00000000
00100000
00000000
00000000
00010000
00000000
00000000
00000000
00001000
00000000
00000000
00000000
00000000
00000000
,
00000010
00000000
00000000
00000100
00000000
00000000
00001000
00000000
00000000
00000000
00000000
00000000
00000000
00000000
00000000
00000000
,
00001001
00000000
00000000
00000100
00000000
00000000
00000010
00000000
00000000
00000000
00010000
00000000
00000000
00000000
00000000
00000000
,
00001000
00000000
00000000
01000000
00000000
00000000
00100000
00000000
00000000
00000000
00000000
00000000
00000000
00000000
00000000
00000000
,
01000000
00000000
00000000
00010000
00000000
00000000
00100000
00000000
00000000
00000000
01000000
00000000
00000000
00000000
00000000
00000000
,
10000000
00000000
00000000
01000000
00000000
00000000
00010000
00000000
00000000
00000000
00000000
00000000
00000000
00000000
00000000
00000000
,
00011000
00000000
00000000
00001000
00000000
00000000
00000010
00000000
00000000
00000000
00000001
00000000
00000000
00000000
00000000
00000000
,
00000100
00000000
00000000
00000010
00000000
00000000
00001000
00000000
00000000
00000000
00000000
00000000
00000000
00000000
00000000
00000000
,
00000001
00000000
00000000
00000010
00000000
00000000
00000100
00000000
00001000
00000000
00000010
00000000
00000100
00000000
00000010
00000000
,
00010000
00001000
00100000
01000000
00102000
00000000
01000000
00000000
,
00013000
00000000
00100000
00000000
10000000
00000000
00100000
00000000
01000000
00000000
00010000
00100000
00000000
01000000
10000000
00000000
,
01000000
00010000
00001000
00000100
00000010
00000100
00001000
00010000
,
00001000
00000000
00000010
00000000
00000100
00000000
00001000
00000000
00000001
00000000
00000100
00000010
00000000
00000100
00001000
00000000
,
00010000
01000000
00100000
01000000
00010000
00001000
01000000
00100000
,
01000000
00000000
00001000
00000000
00100000
00000000
01000000
00000000
10000000
00000000
01000000
00100000
00000000
01000000
00010000
00000000
,
00001000
00000100
00000001
00000010
00000100
00010000
00001000
00000010
,
00000100
00000000
00010000
00000000
00100000
00000000
01000000
00000000
00001000
00000000
00010000
00001000
00000000
01000000
00100000
00000000
,
10000000
00000000
01000000
00000000
00010000
00000000
01000000
00000000
10000000
00010000
00100000
00000000
11000000
00000000
00000000
00000000
,
00010000
01000000
10000000
01000000
00100000
01000000
00001000
00010000
,
01000000
00010000
00001000
00000100
00000010
00010000
00001000
00000010
,
00000100
00001000
00000001
00000100
00000010
00000100
00000001
00000010
,
00000100
00001000
00000010
00000100
00001000
00010000
00100000
01000000
,
00100000
00010000
10000000
01000000
00010000
01000000
00100000
10000000
,
01000000
00010000
01000000
10000000
00100000
00010000
00000010
00001000
,
00000100
00000001
00000100
00010000
00100000
00010000
00001000
00000100
,
00001000
00000001
00000010
00001000
00000100
00000010
00000100
00000000
,
00001000
00000000
00000010
00000000
00000001
00000000
00000010
00000000
00001000
00000000
00000100
00000010
00000000
00000001
00001000
00000000
,
00000001
00000000
00000100
00000000
00001000
00000000
00010000
00000000
01000000
00000000
00100000
00010000
00000000
10000000
00100000
00000000
,
01000000
00000000
00010000
00000000
00100000
00000000
10000000
00000000
00100000
00000000
00010000
10000000
00000000
00100000
00010000
00000000
,
00001000
00000000
00000010
00000000
00000100
00000000
00001000
00000000
00000010
00000100
00000001
00000000
00001010
00000000
00000000
00000000
,
00000100
00000000
00000001
00000000
00000010
00000000
00000100
00000000
00000010
00000000
00000001
00000100
00000000
00000010
00001000
00000000
,
00000100
00000000
00000010
00000000
00001000
00000000
00010000
00000000
00100000
00000000
01000000
00010000
00000000
10000000
01000000
00000000
,
00100000
00000000
00001000
00000000
00010000
00000000
00100000
00000000
10000000
00000000
01000000
00100000
00000000
00010000
10000000
00000000
,
00100000
00000000
00000000
00010000
00000000
00000000
00001000
00000000
00000000
00000100
00000000
00000000
00000010
00000000
00001000
00000000
00000100
00000000
00000010
00000000
00000000
00000000
00000000
00000000
,
00000001
00000000
00000100
00000000
00000010
00000000
00000000
00001000
00000100
00001000
00000000
00000001
00000000
00000000
00000100
00000000
,
00001000
00000000
00010000
00000000
00001000
00000000
00000000
00010000
00000000
01000000
10000000
00000000
00100000
00000000
10000000
00000000
,
01000000
00000000
00010000
00000000
00001000
00000000
00000000
01000000
00010000
01000000
00000000
00001000
00000000
00000000
00010000
00000000
,
00100000
00000000
00010000
00000000
00001000
00000000
00000000
00000010
00000000
00000100
00001000
00000000
00000001
00000000
00000100
00000000
,
00000010
00000000
00010000
00000000
00001000
00000000
00000000
00000010
00000100
00000010
00000000
00000001
00000000
00000000
00000100
00000000
,
00001000
00000000
00010000
00000000
00001000
00000000
00000000
00000100
00000000
00001000
00010000
00000000
00100000
00000000
10000000
00000000
,
00100000
00000000
00000000
00000000
00000000
00000000
00000000
00000000
00000000
00000000
00000000
00000000
00000000
00000000
00000000
00000000
01010000
00000000
00000000
00000000
00000000
00000000
00000000
00000000
00000000
00000000
00000000
00000000
00000000
00100000
00000000
00000000
01000000
00000000
00000000
00000000
00000000
00000000
00000000
00000000
00000000
00000000
00000000
00000000
00000000
00000000
00000000
00000000
11000000
00000000
00000000
00000000
00000000
00000000
00000000
00000000
00000000
00000000
00000000
00000000
00000000
00100000
00000000
00000000
,
01000000
00000000
00000000
00000000
00000000
00000000
00000000
00000000
00000000
00000000
00000000
00000000
00000000
00000000
00000000
00000000
01001000
00000000
00000000
00000000
00000000
00000000
00000000
00000000
00000000
00000000
00000000
00000000
00000000
00100000
00000000
00000000
00010000
00000000
00000000
00000000
00000000
00000000
00000000
00000000
00000000
00000000
00000000
00000000
00000000
00000000
00000000
00000000
00011000
00000000
00000000
00000000
00000000
00000000
00000000
00000000
00000000
00000000
00000000
00000000
00000000
00000010
00000000
00000000
,
00000001
00000000
00001010
00000000
00000100
00000000
00000001
00000010
,
00001000
00000000
00010000
00001000
01000000
00100000
10000000
00000000
,
00010000
00000000
01100000
00000000
10000000
00000000
01000000
00100000
,
00001000
00000000
00010000
00001000
00000100
00000010
00001000
00000000
,
00000100
00000000
00000011
00000000
00000100
00000000
00000010
00001000
,
00000100
00000000
00000010
00000100
00010000
00001000
01000000
00000000
,
00100000
00000000
01010000
00000000
00100000
00000000
01000000
10000000
,
00100000
00000000
10000000
01000000
00010000
00001000
00000100
00000001
,
00002002
00000000
00000000
00000000
,
00003003
00000000
00000000
00000000
;

//--------------- lights-cabinet - ----------------
#NOTES:
     lights-cabinet:
     :
     Easy:
     1:
     0.449099,0.462107,0.369846,0.072361,0.176883,391,345,46,9,0,0,0.449099,0.462107,0.369846,0.072361,0.176883,391,345,46,9,0,0:
00000000
00000000
00000000
00000000
,
00000000
00000000
00000000
00000000
,
10100000
10000000
01000000
00100000
,
00010000
00010000
01000000
10000000
,
10000000
00000000
00000000
00100000
00000000
00000000
01000000
00000000
00000000
00000000
00110000
00000000
00000000
00000000
00000000
00000000
,
01000000
00000000
00000000
00100000
00000000
00000000
11000000
00000000
00000000
00000000
00000000
00000000
00000000
00000000
00000000
00000000
,
00100000
00000000
00000000
10000000
00000000
00000000
00100000
00000000
00000000
00000000
11000000
00000000
00000000
00000000
00000000
00000000
,
00010000
00000000
00000000
00100000
00000000
00000000
00010000
00000000
00110000
00000000
00000000
00000000
00000000
00000000
00000000
00000000
,
01000000
00000000
00000000
00100000
00000000
00000000
11000000
00000000
00000000
00000000
00000000
00000000
00000000
00000000
00010000
00100000
,
00010000
00000000
00000000
01000000
00000000
00000000
01100000
00000000
00000000
00000000
00000000
00000000
10000000
00000000
00100000
00000000
,
01000000
00000000
00000000
00010000
00000000
00000000
00110000
00000000
00000000
00000000
00000000
00000000
00000000
00000000
00010000
00000000
,
01000000
00000000
00000000
00100000
00000000
00000000
10000000
00000000
00100000
00000000
00000000
01000000
00000000
00000000
00010000
00000000
,
00220000
00000000
00000000
00330000
00000000
00000000
00000000
00000000
,
00000000
00000000
10000000
00000000
00100000
00000000
01000000
00000000
00010000
00000000
00000000
01000000
00000000
00000000
00200000
00000000
,
00000000
00000000
01300000
00000000
,
00010000
00000000
00000000
01000000
00000000
00000000
00100000
00000000
10000000
00000000
00000000
00000000
10000000
00000000
00000000
00000000
,
00110000
00000000
00000000
01100000
00000000
00000000
22000000
00000000
00000000
00000000
00000000
00000000
33000000
00000000
00000000
00000000
,
10000000
00000000
00000000
00100000
00000000
00000000
01000000
00000000
00010000
00000000
01000000
00000000
00100000
00000000
10000000
00000000
,
00010000
00000000
00000000
00100000
00000000
00000000
01000000
00000000
10000000
00000000
00100000
00000000
01000000
00000000
00010000
00000000
,
00100000
00000000
00000000
00010000
00000000
00000000
10000000
00000000
10010000
00000000
00000000
00000000
10100000
00000000
00000000
00000000
,
00100000
01000000
00100000
10000000
00100000
01000000
00100000
10000000
,
00100000
01000000
00100000
10000000
00100000
01000000
00100000
01000000
,
00100000
00010000
00100000
00010000
00100000
01000000
00100000
01000000
,
00100000
10000000
00100000
01000000
00010000
00100000
00110000
00000000
,
00100000
00010000
00100000
01000000
00100000
00010000
00100000
01000000
,
00100000
00010000
00100000
01000000
00100000
01000000
00100000
10000000
,
00100000
10000000
00100000
01000000
00100000
01000000
00100000
00010000
,
00100000
01000000
00100000
00010000
01000000
00000000
00110000
00000000
,
10000000
01000000
00000000
10000000
00000000
00000000
00100000
00000000
01000000
00000000
00010000
00000000
00100000
00000000
00000000
00000000
,
00010000
00100000
00000000
00010000
00000000
00000000
01000000
00000000
00100000
00000000
10000000
00000000
01000000
00000000
00000000
00000000
,
10000000
01000000
00000000
10000000
00000000
00000000
00100000
00000000
01000000
00000000
00010000
00000000
00100000
00000000
00000000
00000000
,
00010000
00100000
00000000
00010000
00000000
00000000
01000000
00000000
00100000
00000000
10000000
00000000
11000000
00000000
00000000
00000000
,
10000000
01000000
00000000
10000000
00000000
00000000
00100000
00000000
01000000
00000000
00010000
00000000
00100000
00000000
00000000
00000000
,
00010000
00100000
00000000
00010000
00000000
00000000
01000000
00000000
00100000
00000000
10000000
00000000
01000000
00000000
00000000
00000000
,
10000000
01000000
00000000
10000000
00000000
00000000
00100000
00000000
01000000
00000000
00010000
00000000
00100000
00000000
00010000
00000000
,
10000000
01000000
00000000
10000000
00000000
00000000
00100000
00000000
01000000
00000000
00010000
00000000
00110000
00000000
00000000
00000000
,
10000000
00010000
00010000
00000000
01000000
00100000
00100000
00000000
,
10000000
00000000
00100000
00000000
01000000
00000000
00000000
00010000
00000000
00000000
00100000
00000000
00110000
00000000
00000000
00000000
,
00010000
10000000
10000000
00000000
00100000
01000000
01000000
00000000
,
00010000
00000000
01000000
00000000
00100000
00000000
00000000
10000000
00000000
00000000
01000000
00000000
11000000
00000000
00000000
00000000
,
00110000
00000000
00000000
01100000
00000000
00000000
11000000
00000000
00000000
00000000
11000000
00000000
00000000
00000000
00000000
00000000
,
11000000
00000000
00000000
01100000
00000000
00000000
00110000
00000000
00000000
00000000
00110000
00000000
00000000
00000000
00000000
00000000
,
10000000
00100000
00100000
00000000
01000000
00010000
00010000
00000000
,
00100000
00000000
00000000
00010000
00000000
00000000
01000000
00000000
00000000
00100000
00000000
00000000
10000000
00000000
01000000
00000000
10000000
00000000
01000000
00000000
00000000
00000000
00000000
00000000
,
10000000
00010000
01000000
00010000
10000000
00010000
01000000
00010000
,
00100000
00010000
01000000
00100000
01000000
00010000
01000000
00010000
,
10000000
00010000
01000000
00010000
10000000
00010000
01000000
00010000
,
00100000
00010000
01000000
00100000
10000000
01000000
11000000
00000000
,
00010000
01000000
00100000
10000000
00100000
01000000
00010000
00100000
,
00010000
01000000
00100000
01000000
00100000
10000000
00100000
01000000
,
00010000
00100000
00010000
01000000
00100000
10000000
00100000
01000000
,
00010000
00100000
00010000
01000000
01100000
00000000
10010000
00000000
,
11000000
00000000
00000000
00000000
10100000
00000000
00000000
00000000
01010000
00000000
00000000
00000000
00110000
00000000
00000000
00010000
,
00100000
00000000
00000000
01000000
10000000
00000000
00000000
00000000
11000000
00000000
00000000
00000000
10100000
00000000
00000000
01000000
,
00010000
00000000
00000000
00000000
00100000
00000000
00000000
00000000
00010000
00000000
00000000
00000000
01000000
00000000
00000000
00100000
,
10000000
00000000
00100000
00000000
01000000
00010000
00100000
00010000
,
00020000
00000000
00000000
00000000
01030000
00000000
00000000
00000000
00200000
00000000
00000000
00000000
10300000
00000000
00000000
00100000
,
01000000
00000000
00000000
00010000
00100000
00000000
00000000
00000000
00010000
00000000
10000000
00000000
00010000
00000000
00000000
00000000
,
11000000
01010000
11000000
01100000
,
01010000
11000000
01100000
11000000
,
20020000
00000000
30030000
00000000
;
