#TITLE:Breakneck Bombing Run;
#SUBTITLE:;
#ARTIST:D-Mode-D;
#TITLETRANSLIT:;
#SUBTITLETRANSLIT:;
#ARTISTTRANSLIT:;
#GENRE:Synthstep;
#CREDIT:;
#MUSIC:bombing.ogg;
#BANNER:bombing.png;
#BACKGROUND:bombing-bg.png;
#CDTITLE:;
#SAMPLESTART:32.360;
#SAMPLELENGTH:12.000;
#SELECTABLE:YES;
#OFFSET:0.000;
#BPMS:0.000=178.000;
#STOPS:;
#CRChallenge:;
#LABEL:Emphatic;
#BGCHANGES:;
#FGCHANGES:;

//--------------- dance-single - Renard ----------------
#NOTES:
     dance-single:
     Renard:
     Easy:
     7:
     0.415,0.511,0.315,0,0:
0000
0000
0000
0000
,
0000
0000
0000
0000
,
0000
0000
0000
0000
,
0000
0000
0000
0000
,
1000
1000
0001
0001
,
1000
0010
0100
0001
,
1000
1000
0001
0001
,
1000
0001
0010
0100
,
1000
1100
1000
0010
,
0100
0001
0010
0000
,
0001
0011
0001
0100
,
0010
1000
0100
0000
,
1000
1001
0001
0100
,
0010
1000
0100
0000
,
1000
1001
1000
0100
,
0010
0001
1000
0000
,
0001
0000
1000
0001
0000
1000
0001
0000
,
1000
0000
0001
0000
,
1000
0000
0001
1000
0000
0001
1000
0000
,
0001
0000
1000
0000
,
0001
0000
1000
0001
0000
1000
0001
0000
,
1000
0000
0001
0000
,
1000
1000
0001
0001
,
1000
0000
1000
0000
0001
1000
0001
0000
,
1000
1000
0010
0010
,
0100
0100
0001
0001
,
1000
0100
0010
0001
,
0010
1000
0010
0001
,
1000
0100
0010
0001
,
1000
0100
0010
0001
,
1000
0010
1000
0001
,
1000
0100
1000
0010
,
1000
0010
0100
0001
,
1000
0010
0100
0001
,
1000
0100
1000
0001
,
1000
0010
1000
0100
,
0001
0010
0100
1000
,
0001
0100
0010
1000
,
0001
0000
1000
0000
,
0001
0000
1000
0001
1000
0000
0001
0000
,
1001
0000
1010
0000
,
0100
0100
0001
0001
,
0011
0000
1100
0000
,
1100
1000
0010
0000
,
0101
0000
0011
0000
,
1001
1000
1100
1000
,
1010
1000
1100
1000
,
1001
1000
1001
0000
,
1001
0110
1000
0010
,
0100
0000
0001
0000
0010
0001
0010
0000
,
0001
0010
0100
1000
,
0001
0001
1000
0000
,
0001
1000
0100
0010
,
0100
0000
1000
0100
1000
0000
0100
0000
,
1000
0000
0010
0000
,
0100
0001
1000
0001
,
1000
1010
0100
0101
,
1001
1001
1001
0000
,
1001
1000
0010
0100
,
0001
0001
1000
1000
,
0001
1000
0100
1000
,
0001
0100
0001
0010
,
0100
0100
1000
1000
,
0010
1001
0000
1001
,
1010
0100
0001
0010
,
0001
0100
0010
1000
,
0100
0100
1000
0010
,
0100
0001
0010
0001
,
0100
0001
1000
0100
,
1000
0001
0010
0100
,
1000
1001
0100
1001
,
0100
0000
1001
0000
0100
0000
0001
1000
;

//--------------- dance-single - Renard ----------------
#NOTES:
     dance-single:
     Renard:
     Medium:
     10:
     0.492,0.511,0.264,0,0:
0000
0000
0000
0000
,
0000
0000
0000
0000
,
0000
0000
0000
0000
,
0000
0000
0000
0000
,
1000
0000
0001
1000
0001
0000
0001
0000
,
1000
1000
0010
0010
,
1000
0000
0100
1000
0100
0000
1000
0000
,
0010
0010
0100
0100
,
0001
0000
1000
0001
1000
0000
0100
0000
,
0010
0010
0001
0001
,
1000
0000
0001
1000
0001
0000
0001
0000
,
0100
0100
0010
0010
,
1000
0000
0001
1000
0001
0000
1000
0100
,
1000
1000
0010
0010
,
0100
0000
0001
1000
0001
0000
0001
0100
,
0001
0001
0010
0100
,
1000
0001
1000
0001
,
0100
0000
0010
0000
1000
0010
0000
1000
,
0010
0100
0001
0010
,
0100
0000
1000
0000
0001
0010
0000
0011
,
0000
0010
0000
0110
,
0000
0000
1000
0000
0010
1000
0000
0010
,
0000
0100
0000
1001
,
1000
0100
1000
0100
1000
0000
1001
0000
,
1000
0000
0100
1000
0000
0100
1000
0000
,
1000
0010
0100
0001
,
0010
0000
0001
0010
0000
0001
0010
0000
,
0001
0100
0010
1000
,
0001
0000
1000
0001
0000
1000
0001
0000
,
1000
1000
0001
0001
,
0100
0000
0100
0010
0000
0100
0010
0000
,
1000
0010
1000
0000
1000
0000
1000
0000
,
0001
0100
0001
0000
1000
0000
0100
0000
,
0010
0001
1000
0100
,
1000
0100
1000
0000
0010
0000
0100
0000
,
0001
0010
0100
1000
,
0001
1000
0001
0000
1000
0100
1000
0000
,
1000
0001
0001
1000
,
0001
1000
0001
0000
0001
0100
0001
0000
,
0001
1000
0100
0010
,
1001
1000
0010
0100
,
0001
0100
0001
0000
0001
0000
0001
0000
,
1000
1000
0100
0100
,
1000
0100
1000
0000
1010
0000
1001
0000
,
1100
0010
0001
0010
,
0100
1000
0100
0000
1000
0000
0010
0000
,
1001
0100
0001
1000
,
0001
1000
0100
1000
0001
1000
0100
0000
,
1000
0001
0100
1001
,
1000
1100
0011
0110
,
1000
1001
1000
1010
,
1000
1100
0110
0011
,
1000
0101
1000
1010
,
1000
0101
1100
1001
,
0010
1001
0010
1001
,
0100
0000
1000
0000
0001
1000
0001
0000
,
1000
1000
0001
0001
,
0100
0001
0100
0000
0001
0000
0001
0000
,
1001
0000
1000
0000
0100
0010
0100
0000
,
0010
0100
0010
0000
0100
0010
0100
0000
,
1000
0000
0001
0000
1000
0001
1000
0000
,
0001
1000
0001
0000
1000
0001
1000
0000
,
1000
1000
0001
0001
,
0100
0000
0100
0000
0010
0100
0000
0010
,
1000
0010
0100
0001
,
1000
0000
0001
0000
1000
0001
1000
0000
,
0001
1000
0100
0010
,
0001
0000
1000
0001
1000
0000
0001
1000
,
0001
0000
1000
0000
0010
0000
0100
0001
,
0100
0000
0001
0000
1000
0000
0100
1000
,
0100
0000
1000
0000
0001
0000
0100
0001
,
1000
0000
0001
0000
1000
0000
0100
1000
;

//--------------- dance-single - Renard ----------------
#NOTES:
     dance-single:
     Renard:
     Hard:
     13:
     0.698,0.657,0.579,0,0:
0000
0000
0000
0000
,
0000
0000
0000
0000
,
0000
0000
0000
0000
,
0000
0000
0000
0000
,
1000
0000
1000
0001
0100
0000
0100
0010
,
1000
1001
1100
1010
,
1001
0000
0100
0001
0010
0000
0010
0001
,
0100
1001
0101
0011
,
1000
0000
0001
0100
0010
1000
0100
0010
,
0011
0110
1010
0110
,
0010
0000
0001
0010
1000
0010
0100
1000
,
0010
0010
1000
1000
0001
0001
0100
0100
,
0110
0000
0010
1000
0010
0100
0001
0010
,
0011
0110
1010
0110
,
0110
0000
0100
1000
0010
0100
0001
0100
,
0010
1000
0010
0000
1001
0000
1100
0000
,
1001
0000
0100
0000
0001
0010
0100
0000
,
0100
1000
0010
0100
0001
0000
1001
0000
,
1100
0000
0011
0001
0000
0001
0101
0000
,
0100
0010
1000
0100
1000
0000
1001
0000
,
1100
0000
1000
0010
0000
0010
0100
0000
,
0001
1000
0100
1000
1001
0000
1100
0000
,
1001
0000
1000
0010
0100
0001
0010
0001
,
1000
0001
0100
0010
1000
0000
1001
0000
,
1000
0000
0010
0100
0001
0010
0100
0000
,
0100
1000
0010
0100
0010
0000
0101
0000
,
0110
0000
0010
1000
0000
1000
0100
0000
,
0100
1000
0010
0100
0001
0010
0100
1000
,
0010
0000
0010
1000
0000
1000
0010
0000
,
0100
0001
0010
0001
0010
0100
0010
1000
,
0010
0000
0010
0100
0000
0100
1000
0000
,
0010
0100
0001
0100
1000
0100
0001
1000
,
0100
0000
0100
1000
0000
1000
0001
0000
,
1010
0000
0101
0000
0011
0010
0011
0000
,
0011
0000
0010
0110
0000
0100
1100
0000
,
1000
0010
0100
0001
1000
0100
1000
0000
,
1001
0000
1000
1001
0000
0001
0101
0000
,
0100
0001
0100
0001
0100
0010
0100
0010
,
1000
0000
1000
0010
0000
0010
1000
0100
,
1000
0100
0010
0001
0010
0100
1000
0000
,
0001
0000
0001
1000
0000
1000
0010
0000
,
0010
0100
0001
0100
0010
0000
0010
0000
,
1000
0000
1000
0100
0000
0100
0010
0000
,
0001
0010
0100
0010
0100
0000
0010
0000
,
0100
0000
0100
1000
0000
1000
0010
0000
,
0100
0001
0100
0010
1000
0000
1000
0000
,
0001
0000
0001
1000
0000
1000
0100
0000
,
1000
0001
0100
0001
1000
0000
1001
0000
,
1000
0000
0100
0010
0001
0010
0100
1000
,
0010
0100
0001
0100
1000
0100
0001
0010
,
1000
0010
0100
1000
0100
0001
0100
1000
,
0010
0100
0001
0100
1000
0100
0001
0010
,
0100
0010
1000
0010
0001
0010
1000
0010
,
0100
1000
0100
0001
0100
1000
0010
0100
,
0001
0100
1000
0100
0001
0010
0100
1000
,
0010
1001
1010
0101
,
1000
0100
0010
0100
1000
0010
0100
0000
,
0001
0100
0010
1000
0001
0000
1001
0000
,
1010
0000
0100
0001
0010
0100
0010
0001
,
0010
1000
0010
0100
1000
0000
1100
0000
,
1010
0000
0100
0001
0010
0100
0010
0000
,
0110
0011
1010
0110
,
0100
1000
0100
0001
0100
1000
0010
1000
,
0010
1000
0010
0100
0001
0100
0001
0100
,
0001
0010
0100
1000
0000
1000
0100
1000
,
0010
0100
0001
0010
0000
0010
0001
0100
,
0010
1000
0100
0010
0000
0010
0001
0010
,
1000
0010
0100
1000
0010
0100
0001
0100
,
1000
0100
0001
0100
0000
0100
0001
1000
,
0100
0010
0001
0010
0000
0010
0100
1000
,
0100
0010
0001
0000
0001
1000
0010
0000
,
0101
0000
1010
0000
1000
0100
0010
0011
;
