#TITLE:Boys of Summer;
#SUBTITLE:;
#ARTIST:Emoticon;
#TITLETRANSLIT:;
#SUBTITLETRANSLIT:;
#ARTISTTRANSLIT:;
#GENRE:Surfpop;
#CREDIT:;
#MUSIC:boys.ogg;
#BANNER:boys.png;
#BACKGROUND:boys-bg.png;
#CDTITLE:;
#SAMPLESTART:41.461;
#SAMPLELENGTH:12.000;
#SELECTABLE:YES;
#OFFSET:0.000;
#BPMS:0.000=162.000;
#STOPS:;
#CRChallenge:;
#LABEL:Emphatic;
#BGCHANGES:;
#FGCHANGES:;

//--------------- dance-single - Renard ----------------
#NOTES:
     dance-single:
     Renard:
     Easy:
     4:
     0.272,0.338,0.01,0.184,0:
0000
0000
0000
0000
,
0000
0000
0000
0000
,
0000
0000
0000
0000
,
0000
0000
0000
0000
,
1000
0000
0001
0100
,
0010
0000
1000
0000
,
0100
0000
0010
0001
,
1000
1000
0010
0000
,
0100
0000
0001
1000
,
0100
0000
0010
0000
,
0001
0000
1000
0001
,
0100
0000
0010
0000
,
1000
0000
0100
0010
,
0001
0000
1000
0000
,
0010
0000
0100
0001
,
1000
1000
1000
1000
,
0100
0010
0001
0010
,
0100
1000
0100
0000
,
1000
0100
0010
0001
,
0010
0100
1000
0000
,
1000
0010
0100
0001
,
0100
0010
1000
0010
,
0100
0000
0001
0100
,
0010
0000
0010
0000
,
1000
0100
0001
0010
,
0010
0001
0100
1000
,
1000
0100
0001
0010
,
0001
0100
1000
0100
,
1000
0000
0010
0100
,
0001
0000
0100
0000
,
0010
0000
1000
0100
,
0010
0000
0001
0000
,
0020
0000
0000
0000
,
0230
0000
0000
0000
,
2300
0000
3020
0000
,
0230
0000
0000
0000
,
0302
0000
0000
0000
,
2003
0000
3200
0000
,
0320
0000
0000
0000
,
0032
0000
0000
0000
,
2003
0000
0000
0000
,
3020
0000
0230
0000
,
0302
0000
0000
0000
,
2003
0000
0000
0000
,
3001
0001
0001
0100
,
0010
0010
0010
1000
,
0100
0100
0100
0010
,
1000
1000
1000
0010
,
0001
0001
0001
1000
,
0010
0010
0010
1000
,
0100
0100
0100
0001
,
2000
0000
0000
0000
,
3001
0001
0001
0000
,
1000
0000
0001
0000
,
0100
0100
0100
0000
,
0010
0000
0100
0000
,
0001
1000
0100
0000
,
1000
0001
0010
0000
,
0001
1000
0001
1000
,
0001
0000
1000
0000
,
0001
0000
0001
1000
,
1000
0000
1000
1000
,
0001
1000
0001
0100
,
0010
1000
0100
0010
,
2002
0000
0000
0000
,
0000
0000
0000
0000
,
3003
0000
0000
0000
;

//--------------- dance-single - Renard ----------------
#NOTES:
     dance-single:
     Renard:
     Medium:
     8:
     0.394,0.405,0.01,0.01,0:
0000
0000
0000
0000
,
0000
0000
0000
0000
,
0000
0000
0000
0000
,
0000
0000
0000
0000
,
1000
0000
0100
0010
0001
0000
1000
0000
,
0001
0000
0100
0010
1000
0000
0001
0000
,
1000
0000
0000
1000
0001
0000
0000
0001
,
0100
0000
0010
1000
0010
0001
0010
0000
,
1000
0000
0000
0100
0001
0000
0000
0100
,
1000
0000
0000
0100
0001
0000
0100
0000
,
1000
0000
0000
0010
0001
0000
0010
0000
,
1000
0000
0000
0010
0001
0000
0010
0000
,
1000
0001
0100
1000
,
0100
0001
0010
1000
,
0010
0001
1000
0010
,
0100
0100
0100
0100
,
0001
0001
1000
1000
,
0100
0000
0010
0001
0000
1000
0010
0000
,
0100
0100
0001
0001
,
1000
0000
0100
0010
0000
0001
1000
0000
,
0010
0010
0100
0100
,
0001
0000
1000
0100
0000
0010
0001
0000
,
1000
1000
0001
0001
,
0100
0000
0010
1000
0000
0001
0100
0000
,
0001
0000
0001
0000
1000
0000
0100
0010
,
0000
0000
0001
0000
0100
0000
0010
1000
,
0010
0010
0100
0100
,
0001
0000
1000
0001
1000
0001
1000
0001
,
1000
0000
0001
0001
0100
0000
0010
0000
,
1000
0000
0100
0100
0010
0000
0001
0000
,
0100
0000
0010
0010
1000
0000
0100
0000
,
0010
0000
0001
0001
0100
0000
0010
0000
,
1000
0000
0100
0100
0010
0000
0001
0000
,
0100
0000
0010
0010
1000
0000
0100
0000
,
0010
0000
0001
0001
0100
0000
0010
0000
,
1000
0000
0100
0100
1000
0000
0010
0010
,
1000
0000
0001
0000
0100
0000
0001
1000
,
0100
0000
1000
0000
0001
0000
0010
0001
,
1000
0000
0001
0000
1000
0000
0001
0001
,
0100
0000
0010
0000
1000
0000
0100
0100
,
1000
1000
0010
0010
,
0100
0001
1000
0100
,
0010
0000
0001
0001
1000
0000
0010
0000
,
1000
0000
0001
0001
1000
0000
0010
0000
,
1000
0000
0001
0010
0001
0000
0000
0000
,
1000
0000
0010
1000
0010
0000
0000
0000
,
1000
0000
0100
1000
0100
0000
0000
0000
,
1000
0000
0001
0100
0001
0000
0000
0000
,
1000
0000
0001
0010
1000
0000
0000
0000
,
0001
0000
1000
0100
0001
0000
0000
0000
,
1000
0000
0001
0010
1000
0000
0001
0000
,
1001
0000
1000
0001
,
0100
0100
0010
1000
,
0100
0100
0010
0001
,
1000
1000
1000
1000
,
0001
0001
0001
0001
,
0100
0100
0010
0010
,
1000
1000
0100
0100
,
0010
0010
0001
1000
,
0001
1000
0001
1000
,
0001
0100
0001
1000
,
0010
0010
1000
0100
,
0010
0010
0001
0010
,
0100
0100
1000
0001
,
0200
0000
0000
0000
,
0000
0000
0000
0000
,
0300
0000
0000
0000
;

//--------------- dance-single - BlueChaos ----------------
#NOTES:
     dance-single:
     BlueChaos:
     Hard:
     12:
     0.614,0.591,0.143,0.358,0.082:
0000
0000
0000
0000
,
0000
0000
0000
0000
,
1001
0000
0100
0010
0000
0100
0010
0000
,
1001
0000
0010
0100
0000
0010
0100
0000
,
1000
0000
0100
0000
1000
0100
0010
0100
,
1000
0100
0010
0001
0000
0010
0001
0100
,
0010
0010
1000
0100
0010
0010
0001
0200
,
0000
0000
0000
0310
,
0110
0000
1001
0000
0001
0100
0001
1000
,
0001
0010
0001
0100
0000
0010
1000
0100
,
0010
0010
0001
1000
0100
0100
1000
0020
,
0000
2000
0000
0030
0000
0000
3000
0000
,
0001
1000
0001
0100
0020
1000
0000
0000
,
1030
0001
1000
0100
0020
0001
0000
0030
,
0001
0100
0001
0100
0010
1000
0010
2000
,
0000
0100
0100
0100
3100
0000
1000
0001
,
1000
0000
0001
0100
1000
0000
1000
0100
,
0001
0000
0100
0001
0010
0000
0001
0010
,
1000
0000
1000
0010
0001
1000
0010
0200
,
0000
0000
0310
1000
0000
0010
1000
0000
,
0002
0000
2003
0000
3010
0100
0010
0000
,
2000
0000
3100
0010
0000
0100
0010
0001
,
1000
0000
0001
0100
0010
0000
1000
0002
,
0000
0200
0000
0000
0003
0000
0310
0000
,
1000
0100
1000
0001
1000
0010
1000
0000
,
0001
0100
0010
0100
0001
0010
0100
0000
,
0010
0100
0010
0001
1000
0010
0100
0010
,
2000
0001
0001
0001
0001
3001
0100
0010
,
2000
0000
3001
0010
0000
0001
0011
0000
,
0002
0000
0000
0000
1003
0000
0010
0000
0000
0000
1000
0000
1010
0000
0000
1000
,
0020
0000
1030
0001
0000
1000
1001
0000
,
0010
0000
0100
0010
0000
0100
0101
0000
,
0100
0000
0000
0000
0001
0000
0010
0000
0000
0000
0001
0000
1001
0000
0000
1000
,
0020
0000
0230
0000
0302
0000
0000
1003
,
0100
1000
0100
0000
1000
0000
0001
0000
0000
0000
1000
0000
0010
0000
0000
0000
,
0200
0000
0301
1000
0000
0010
0100
0000
,
0002
0000
0000
0000
1003
0000
0100
0000
0000
0000
1000
0000
0010
1000
0010
0000
,
2000
0000
0000
0000
3200
0000
0000
0000
0310
0000
0000
0001
0000
0000
0100
0000
,
0001
0100
0001
0000
0100
0000
0010
0000
0000
0000
1000
0000
0100
0000
0000
0000
,
2000
0000
3010
0100
0000
0001
0010
0000
,
0002
0000
0000
0000
1003
0000
0010
0000
0000
0000
0100
0000
0001
1000
0001
0000
,
0020
0230
2300
3001
,
2002
0000
0000
0000
3003
0000
0000
0000
1000
0000
0000
0000
0010
0000
0000
1000
,
0001
0000
0100
0010
0000
1000
1001
0000
,
0001
0010
0100
1000
0001
0100
0010
0000
,
1000
0010
0100
0001
0010
0001
1000
0000
,
0001
0100
0010
1000
0100
0010
0100
0000
,
0010
0100
1000
0001
0100
0010
1000
0000
,
0001
0010
0100
0010
0001
1000
0001
0000
,
1000
0001
0100
0010
1000
0100
0010
0000
,
0100
0010
0001
0100
0010
1000
0010
0000
,
1000
0010
0100
0001
0010
0100
1000
0000
,
1000
0000
0000
0001
0100
0000
0000
0000
0001
0000
0000
0010
0100
0000
0000
0000
,
1000
0000
0000
0001
0100
0000
0000
0000
0001
0000
0000
0100
0010
0000
0000
0000
,
1000
0100
1000
0100
0010
0001
0010
0001
,
0000
0000
0010
0011
0000
0001
1001
0000
,
1000
0000
0000
0010
0100
0000
0000
0000
0010
0000
0000
1000
0100
0000
0000
0000
,
1000
0000
0000
0100
0010
0000
0000
0000
0100
0000
0000
0010
0001
0000
0000
0000
,
1000
0001
1000
0001
0100
0010
0100
0020
,
0000
0000
2000
0000
0000
0030
0000
0000
0000
0000
0000
0000
3001
0000
0000
0000
,
1000
0100
0010
0001
0100
0010
1000
0000
,
0001
0100
0010
1000
0100
0010
0001
0000
,
1000
0100
1000
0010
0100
0010
1000
0002
,
0000
0100
0100
0100
0100
0103
0001
1000
,
2200
3300
0000
0000
;

//--------------- dance-single - Renard ----------------
#NOTES:
     dance-single:
     Renard:
     Challenge:
     15:
     0.659,0.594,0.133,0.031,0.026:
0000
0000
0000
0000
,
0000
0000
0000
0000
,
0000
0000
0000
0000
,
0000
0000
0000
1MM1
,
100M
01M0
0M10
01M0
100M
01M0
0M10
01M0
,
100M
01M0
0M10
01M0
100M
01M0
100M
0000
,
M001
01M0
0M10
01M0
M001
01M0
0M10
01M0
,
M001
01M0
0M10
01M0
M001
01M0
M001
0000
,
100M
01M0
M001
01M0
100M
01M0
M001
01M0
,
100M
01M0
M001
01M0
100M
01M0
M001
01M0
,
100M
0M10
M001
0M10
100M
0M10
M001
0M10
,
100M
0M10
M001
0M10
100M
0M10
01M0
M001
,
100M
M001
01M0
0000
M001
100M
0M10
0000
,
100M
01M0
0M10
0000
M001
01M0
0M10
0000
,
100M
0M10
01M0
0M10
100M
0M10
01M0
0M10
,
M001
0M10
01M0
0M10
M001
0M10
100M
0000
,
M001
0M10
01M0
0M10
M001
0M10
01M0
0M10
,
M001
0M10
01M0
0M10
M001
0M10
M001
0000
,
100M
0M10
01M0
0M10
100M
0M10
01M0
0M10
,
100M
0M10
01M0
0M10
100M
0M10
100M
0000
,
M001
0M10
100M
0M10
M001
0M10
100M
0M10
,
M001
0M10
100M
0M10
M001
0M10
100M
0M10
,
M001
01M0
100M
01M0
M001
01M0
100M
01M0
,
M001
01M0
100M
01M0
M001
01M0
0M10
100M
,
M001
100M
0M10
0000
100M
M001
01M0
0000
,
M001
0M10
01M0
0000
100M
0M10
01M0
0000
,
M001
01M0
0M10
01M0
M001
01M0
0M10
01M0
,
100M
01M0
0M10
01M0
100M
01M0
M001
01M0
,
0010
1000
0100
0000
0100
0010
0001
0000
,
0001
0100
0010
0000
0010
1000
0100
0000
,
0100
1000
0001
0000
0001
0010
0100
0000
,
0100
0010
0001
0000
0001
0100
0010
1000
,
0001
0000
0100
0000
0010
0000
0000
0000
1000
0000
0010
0000
0100
0000
0001
0100
,
0001
0100
0010
0000
1000
0100
0010
0001
,
0010
0001
0010
0000
0100
0000
1000
0000
0001
0000
0000
0000
0100
0000
0000
0000
,
0010
1000
0001
0100
0001
0000
1000
0000
,
0101
0000
0010
1000
0100
0010
0001
0000
,
1100
0000
0010
0001
0100
0010
1010
0000
,
0100
0001
0100
0000
0010
0000
1000
0000
0100
0000
1000
0000
0001
0000
0010
0000
,
0001
1000
0100
0010
0001
1000
0001
0000
,
1001
0000
1100
0000
0010
0001
0100
0000
,
0101
1010
1100
0011
,
1000
0100
1000
0000
0001
0000
0010
0000
0100
0000
1000
0000
1000
0000
0000
0000
,
0001
0010
0001
0000
1000
0000
0010
0000
0100
0000
0001
0000
0001
0000
0000
0000
,
1000
1000
0100
0010
0001
0001
0010
0100
,
1000
1000
0010
0100
0001
0001
0100
0010
,
1000
1000
0100
1000
0100
0100
0010
0001
,
0010
0010
0001
0010
0001
0001
0010
0100
,
1000
1000
0001
0100
0010
0010
1000
0010
,
0100
0100
0001
0010
0001
0001
0010
0100
,
1000
1000
0001
0100
0010
0010
0100
0001
,
0200
0000
0000
0000
0000
0300
1001
0000
,
0010
1000
0100
0001
0010
0001
0100
1000
,
0010
1000
0100
0001
0010
0001
0100
0000
,
1000
0010
0001
0100
0001
0010
1000
0100
,
1000
0010
0001
0100
0001
0010
1000
0000
,
0010
0100
0001
0010
1000
0100
1000
0010
,
0001
0100
0010
1000
0010
0100
1001
0000
,
1000
0010
0100
0000
0001
0100
0010
0000
,
1000
0100
0010
0001
0100
1000
0100
0000
,
0001
0100
1000
0100
0001
0010
1000
0010
,
0001
0010
0100
1000
1000
0010
0100
0001
,
1000
0010
0001
0010
1000
0010
0100
0001
,
0010
0100
1000
0100
0001
0100
1000
0010
,
2002
0000
3003
0000
;
