#TITLE:Bouff;
#SUBTITLE:;
#ARTIST:Machinae Supremacy;
#TITLETRANSLIT:;
#SUBTITLETRANSLIT:;
#ARTISTTRANSLIT:;
#GENRE:;
#CREDIT:;
#MUSIC:Bouff.ogg;
#BANNER:Bouff-bn.png;
#BACKGROUND:Bouff-bg.png;
#CDTITLE:;
#SAMPLESTART:33.600;
#SAMPLELENGTH:17.360;
#SELECTABLE:YES;
#OFFSET:-1.195;
#BPMS:0.000=200.099;
#STOPS:;
#BGCHANGES:;
#FGCHANGES:;

//--------------- dance-single - M. Puls ----------------
#NOTES:
     dance-single:
     M. Puls:
     Beginner:
     1:
     0.086473,0.155219,0.060531,0,0,70,63,7,0,0,0,0.086473,0.155219,0.060531,0,0,70,63,7,0,0,0:
0000
0000
0000
0000
,
0000
0000
0000
0000
,
0000
0000
0000
0000
,
0000
0000
0000
0000
,
0000
0000
0000
0000
,
0000
0000
0000
0000
,
0000
0000
0000
0000
,
0000
0000
0000
0000
,
0000
0000
0000
0000
,
1000
0000
0000
0000
,
0000
0000
0000
0000
,
0001
0000
0000
0000
,
0000
0000
0000
0000
,
0010
0000
0000
0000
,
0000
0000
0000
0000
,
0100
0000
0000
0000
,
0000
0000
0000
0000
,
1001
0000
0000
0000
,
0000
0000
0000
0000
,
1000
0000
0000
0000
,
0001
0000
0000
0000
,
0000
0000
0000
0000
,
1001
0000
0000
0000
,
0000
0000
0000
0000
,
1000
0000
0000
0000
,
0001
0000
0000
0000
,
0000
0000
0000
0000
,
1001
0000
0000
0000
,
0000
0000
0000
0000
,
0001
0000
0000
0000
,
1000
0000
0000
0000
,
0000
0000
0000
0000
,
1001
0000
0000
0000
,
0000
0000
0000
0000
,
0001
0000
0000
0000
,
1000
0000
0000
0000
,
0000
0000
0000
0000
,
1001
0000
0000
0000
,
1000
0000
0000
0000
,
0001
0000
0000
0000
,
0100
0000
0000
0000
,
0010
0000
0000
0000
,
1000
0000
0000
0000
,
0001
0000
0000
0000
,
1000
0000
0000
0000
,
0001
0000
0000
0000
,
0010
0000
0000
0000
,
0001
0000
0000
0000
,
1000
0000
0000
0000
,
0100
0000
0000
0000
,
1000
0000
0000
0000
,
0001
0000
0000
0000
,
0000
0000
0000
0000
,
1001
0000
0000
0000
,
0000
0000
0000
0000
,
0100
0000
0000
0000
,
0000
0000
0000
0000
,
1001
0000
0000
0000
,
0001
0000
0000
0000
,
1000
0000
0000
0000
,
1000
0000
0000
0000
,
1000
0000
0000
0000
,
0001
0000
0000
0000
,
0001
0000
0000
0000
,
1000
0000
0000
0000
,
0001
0000
0000
0000
,
1000
0000
0000
0000
,
0001
0000
0000
0000
,
1000
0000
0000
0000
,
1000
0000
0000
0000
,
0001
0000
0000
0000
,
0001
0000
0000
0000
,
0000
0000
0000
0000
,
0100
0000
0000
0000
,
0100
0000
0000
0000
,
0000
0000
0000
0000
,
0010
0000
0000
0000
,
0010
0000
0000
0000
,
0000
0000
0000
0000
,
0001
0000
0000
0000
,
1000
0000
0000
0000
,
1000
0000
0000
0000
,
0001
0000
0000
0000
,
0001
0000
0000
0000
,
0001
0000
0000
0000
,
0000
0000
0000
0000
,
1000
0000
0000
0000
,
1000
0000
0000
0000
,
1000
0000
0000
0000
,
0001
0000
0000
0001
;

//--------------- dance-single - R. McKanna ----------------
#NOTES:
     dance-single:
     R. McKanna:
     Easy:
     6:
     0.289067,0.388048,0.103768,0.017295,0,234,222,12,2,0,0,0.289067,0.388048,0.103768,0.017295,0,234,222,12,2,0,0:
0000
0000
0000
0000
,
0000
0000
0000
0000
,
0000
0000
0000
0000
,
0000
0000
0000
0000
,
0000
0000
0000
0000
,
0000
0000
0000
0000
,
0000
0000
0000
0000
,
0000
0000
0000
0000
,
0000
0000
0000
0000
,
1000
0000
0000
0000
1000
0000
0000
0100
,
0000
0100
0000
0100
0000
0000
0000
0000
,
0001
0000
0000
0000
0001
0000
0000
0100
,
0000
0100
0000
0100
0000
0000
0000
0000
,
0010
0000
0000
0000
0010
0000
0000
1000
,
0000
1000
0000
1000
0000
0000
0000
0000
,
0100
0000
0000
0000
0100
0000
0000
0001
,
0000
0001
0000
0001
0000
0000
0000
0000
,
1001
0000
0000
0000
0000
0001
0000
0100
,
0000
0000
0000
0000
0000
0100
0000
0010
,
0000
0000
0000
0000
0000
0010
0000
1000
,
0000
0000
0000
1000
0000
0000
0000
0100
,
0000
0000
0000
0010
0000
0000
0000
0000
,
1001
0000
0000
0000
0000
0010
0000
0010
,
0000
0000
0000
0000
0000
0100
0000
0100
,
0000
0000
0000
0000
0000
0001
0000
0001
,
0000
0000
0000
1001
0000
0000
0000
0110
,
0000
0000
0000
0100
0000
0000
0000
0000
,
1001
0000
0000
0000
0000
1000
0000
0010
,
0000
0000
0000
0000
0000
0010
0000
0100
,
0000
0000
0000
0000
0000
0100
0000
0001
,
0000
0000
0000
0001
0000
0000
0000
0010
,
0000
0000
0000
0100
0000
0000
0000
0000
,
1001
0000
0000
0000
0000
0100
0000
0100
,
0000
0000
0000
0000
0000
0010
0000
0010
,
0000
0000
0000
0000
0000
1000
0000
1000
,
0000
0000
0000
1001
0000
0000
0000
0110
,
0000
0000
0000
0010
0000
0000
0000
0000
,
1001
0000
1000
0000
1000
0000
0000
0100
,
0000
0100
0000
0100
0000
0100
0000
0000
,
0010
0000
0010
0000
0010
0000
0000
0001
,
0000
0001
0000
0001
0000
0001
0000
0000
,
0100
0000
0100
0000
0100
0000
0000
0010
,
0000
0010
0000
0010
0000
0010
0000
0000
,
1000
0000
1000
0000
1000
0000
0000
0010
,
0000
0100
0000
1001
0000
0000
0000
0000
,
1000
0000
0001
0000
,
0010
0000
0001
0000
,
1000
0000
0010
0000
,
0100
0000
0010
0000
,
1000
0000
0100
0000
,
0010
0000
0100
0000
,
0001
0000
0100
0000
,
0010
0000
0100
0000
,
1001
0001
0010
0010
,
0100
0100
0010
0010
,
0001
0000
0001
0000
0010
0000
0000
0001
,
0000
0010
0000
0001
0000
0010
0000
0000
,
1001
0001
0100
0100
,
0010
0010
1000
1000
,
0100
0000
0000
1000
0000
0100
0000
1000
,
0000
0001
0010
0100
,
1000
1000
0100
0100
,
0001
0001
0100
0100
,
1000
1000
0001
0001
,
0020
0000
0000
0000
,
0031
0000
0001
0000
0001
0000
0000
0010
,
0000
0010
0000
0010
0000
0010
0000
0000
,
0100
0000
0100
0000
0100
0000
0000
1000
,
0000
1000
0000
1000
0000
1000
0000
0000
,
0010
0000
0010
0000
0010
0000
0000
0100
,
0000
0100
0000
0100
0000
0100
0000
0000
,
0001
0000
0001
0000
0001
0000
0000
0100
,
0000
0100
0000
0100
0000
0100
0000
0000
,
0200
0000
0000
0300
,
0001
0000
0000
0000
0001
0000
0000
0010
,
0000
0010
0000
0010
0000
0000
0000
0000
,
1000
0000
0000
0000
1000
0000
0000
0010
,
0000
0010
0000
0010
0000
0000
0000
0000
,
0100
0000
0000
0000
0100
0000
0000
0001
,
0000
0001
0000
0001
0000
0000
0000
0000
,
0010
0000
0000
0000
0010
0000
0000
1000
,
0000
1000
0000
1000
0000
0000
0000
0000
,
0000
0001
0000
0001
0000
0100
0000
1000
,
0000
0100
0000
0001
0000
0010
0000
0000
,
0000
0100
0000
0100
0000
0000
0000
0010
,
0000
0001
0000
0100
0000
1000
0000
0000
,
0000
1000
0000
1000
0000
0010
0000
0001
,
0000
0010
0000
1000
0000
0100
0000
0000
,
0000
0010
0000
0010
0000
0000
0000
0100
,
0000
1000
0000
0010
0000
0001
1000
0000
;

//--------------- dance-single - R. McKanna ----------------
#NOTES:
     dance-single:
     R. McKanna:
     Medium:
     10:
     0.4126,0.504462,0.138357,0.121062,0,334,318,16,14,0,0,0.4126,0.504462,0.138357,0.121062,0,334,318,16,14,0,0:
0000
0000
0000
0000
,
0000
0000
0000
0000
,
0000
0000
0000
0000
,
0000
0000
0000
0000
,
0000
0000
0000
0000
,
0000
0000
0000
0000
,
0000
0000
0000
0000
,
0000
0000
0000
0000
,
0000
0000
0000
0000
,
0001
0000
0001
0010
0001
0010
0000
0001
,
0000
0010
0000
0100
0000
1000
0000
0000
,
1000
0000
1000
0010
1000
0010
0000
1000
,
0000
0010
0000
0100
0000
0001
0000
0000
,
0001
0000
0001
0100
0001
0100
0000
0001
,
0000
0100
0000
0010
0000
1000
0000
0000
,
1000
0000
1000
0100
1000
0100
0000
1000
,
0000
0100
0000
1001
0000
0110
0000
0000
,
1000
0000
0002
0000
0000
1003
0000
0100
,
0000
0000
0002
0000
0000
0103
0000
0010
,
0000
0000
0002
0000
0000
0013
0000
1000
,
0000
0000
0000
0110
0000
0000
0000
1001
,
0000
0000
0000
0110
0000
0000
0000
0000
,
0100
0000
0002
0000
0000
0013
0000
0100
,
0000
0000
2000
0000
0000
3010
0000
0100
,
0000
0000
0002
0000
0000
0013
0000
0100
,
0000
0000
0000
0011
0000
0000
0000
0110
,
0000
0000
0000
1100
0000
0000
0000
0000
,
0001
0000
2000
0000
0000
3001
0000
0010
,
0000
0000
2000
0000
0000
3010
0000
0100
,
0000
0000
2000
0000
0000
3100
0000
0001
,
0000
0000
0000
0110
0000
0000
0000
1001
,
0000
0000
0000
0110
0000
0000
0000
0000
,
0010
0000
2000
0000
0000
3100
0000
0010
,
0000
0000
0002
0000
0000
0103
0000
0010
,
0000
0000
2000
0000
0000
3100
0000
0010
,
0000
0000
0000
1100
0000
0000
0000
0110
,
0000
0000
0000
0011
0000
0000
0000
0000
,
0010
0000
0001
0010
0001
0010
0001
0010
,
0000
0100
0000
1000
0000
0010
0000
0000
,
0100
0000
0001
0100
0001
0100
0001
0100
,
0000
0010
0000
1000
0000
1000
0000
0000
,
0010
0000
1000
0010
1000
0010
1000
0010
,
0000
0100
0000
0001
0000
0010
0000
0000
,
0100
0000
1000
0100
1000
0100
1000
0100
,
0000
0010
0000
0001
0000
0000
0000
0000
,
0001
1000
0000
0100
0010
0001
0000
0001
,
0000
1000
0000
0100
0010
0001
0000
0001
,
0000
0001
0000
0010
0100
1000
0000
1000
,
0000
0001
0000
0010
0100
1000
0000
1000
,
0000
1000
0000
0010
0100
0001
0000
0001
,
0000
1000
0000
0010
0100
0001
0000
0001
,
0000
0001
0000
0100
0010
1000
0000
0001
,
0010
0100
0010
0001
0000
0100
0010
0100
,
0001
0010
0100
0010
,
0001
1000
0010
1000
,
0001
0100
0010
0100
,
0001
0010
0000
0100
0000
1000
0000
0000
,
1000
0100
0010
0100
,
1000
0001
0100
0001
,
1000
0000
0100
0010
0000
0001
0000
1001
,
0000
0000
0100
0100
,
0100
0001
1000
0010
,
0100
0001
1000
0010
,
0100
0001
0010
0100
,
2000
0000
0000
0000
,
3001
0000
0000
0001
0010
0000
0000
0010
,
0100
0000
0000
0100
1000
0000
0010
0000
,
0100
0000
0000
0100
0001
0000
0000
0001
,
1000
0000
0000
1000
0100
0000
0010
0000
,
0001
0000
0000
0001
0100
0000
0000
0100
,
0010
0000
0000
0010
1000
0000
0100
0000
,
0010
0000
0000
0010
0001
0000
0000
0001
,
0100
0000
0100
0000
0100
0010
1000
0001
,
0200
0000
0000
0300
,
0010
0000
0010
0100
0010
0100
0000
0001
,
0000
0100
0000
0010
0000
1000
0000
0000
,
0100
0000
0100
0010
0100
0010
0000
0001
,
0000
1000
0000
0100
0000
0010
0000
0000
,
0001
0000
0001
0010
0001
0010
0000
1000
,
0000
0010
0000
0100
0000
0001
0000
0000
,
1000
0000
1000
0010
1000
0010
0000
1000
,
0000
0100
0000
0010
0000
1001
0000
0000
,
1000
0001
1000
0001
1000
0001
0000
0001
,
0000
0010
0000
0100
0000
0001
0000
0000
,
0000
0010
0000
0100
0000
0000
0000
0010
,
0000
0001
0000
0100
0000
0010
0000
0000
,
0001
1000
0001
1000
0001
1000
0000
1000
,
0000
0100
0000
0010
0000
1000
0000
0000
,
0000
0100
0000
0010
0000
0000
0000
0100
,
0000
1000
0000
0010
0000
0100
0001
0000
;

//--------------- dance-single - R. McKanna ----------------
#NOTES:
     dance-single:
     R. McKanna:
     Hard:
     14:
     0.670784,0.659681,0.830141,0.025942,0.017295,543,447,96,3,0,0,0.670784,0.659681,0.830141,0.025942,0.017295,543,447,96,3,0,0:
0000
0000
0000
0000
,
0000
0000
0000
0000
,
0000
0000
0000
0000
,
0000
0000
0000
0000
,
0000
0000
0000
0000
,
0000
0000
0000
0000
,
0000
0000
0000
0000
,
0000
0000
0000
0000
,
0000
0000
0000
0000
,
1000
0100
0010
0001
1000
0001
0000
0011
,
0000
0101
0000
1001
0000
1000
0010
0100
,
0001
0010
0100
1000
0001
1000
0000
1100
,
0000
1010
0000
1001
0000
0110
0000
0000
,
0001
0010
0100
1000
0001
1000
0000
1100
,
0000
1010
0000
1001
0000
0001
0100
0010
,
1000
0100
0010
0001
1000
0001
0000
0011
,
0000
0101
0000
1001
0000
0110
0000
0000
,
1001
0000
0100
0010
0001
0100
0000
0110
,
0000
0000
1000
0100
0010
0001
0000
0101
,
0000
0000
0010
1000
0100
0010
0000
0011
,
0000
0001
0100
0110
0000
0010
1000
1100
,
0000
0100
0010
0011
0000
0001
1000
0001
,
1001
0000
0010
0100
1000
0010
0000
0110
,
0000
0000
0001
0010
0100
1000
0000
1010
,
0000
0000
0100
0001
0010
0100
0000
1100
,
0000
1000
0010
0110
0000
0100
0001
0011
,
0000
0010
0100
1100
0000
1000
0001
1000
,
1001
0000
0001
0100
1000
0100
0000
0101
,
0000
0000
0001
0010
1000
0010
0000
0011
,
0000
0000
0001
0010
0100
1000
0000
1100
,
0000
1000
0010
0110
0000
0100
0001
0011
,
0000
0100
1000
1010
0000
0010
1000
0100
,
0110
0000
1000
0010
0001
0010
0000
1010
,
0000
0000
1000
0100
0001
0100
0000
1100
,
0000
0000
1000
0100
0010
0001
0000
0011
,
0000
0001
0100
0110
0000
0010
1000
1100
,
0000
0010
0001
0101
0000
0100
0001
0010
,
0100
0000
0000
0100
1000
0000
0010
0000
1000
0000
0100
0000
1000
0000
0001
0000
,
0000
1001
0000
0101
0000
0011
0000
0000
,
0100
0000
0000
0100
0010
0000
1000
0000
0010
0000
0100
0000
0010
0000
1000
0000
,
0000
1010
0000
1001
0000
1100
0000
0000
,
0100
0000
0000
0010
0001
0000
0100
0000
0001
0000
0010
0000
0001
0000
1000
0000
,
0000
1001
0000
1010
0000
1100
0000
0000
,
0010
0000
0000
0010
0100
0000
0001
0000
0100
0000
0010
0000
0100
0000
0001
0000
,
0000
0101
0000
1001
0000
0000
0000
0000
,
1000
0100
0000
0001
0100
1000
0000
0010
,
0000
0001
0000
0010
1000
0010
0000
0100
,
0001
0010
0000
1000
0010
0001
0000
0100
,
0000
1000
0000
0100
0001
0100
0000
0010
,
1000
0100
0000
0001
0100
1000
0000
1010
,
0000
0011
0000
0010
1000
0010
0000
0100
,
0001
0010
0000
1000
0010
0001
0000
0001
,
0100
0010
1000
0001
0000
0001
0100
0001
,
1000
0010
1000
0001
1000
0010
1000
0100
,
0010
0100
0001
0100
0010
0100
1000
0100
,
0010
0001
0010
0100
0010
1000
0010
0100
,
0010
0001
0000
0101
0000
1010
0000
0000
,
1000
0001
1000
0100
0010
0001
1000
0001
,
1000
0001
0010
0100
1000
0001
1000
0001
,
1000
0100
0010
0001
0000
0101
0000
1001
,
0000
1100
1010
1001
,
0001
0100
0001
1000
0001
0100
0001
0010
,
0100
0010
1000
0010
0100
0010
0001
0010
,
0100
1000
0100
0010
0100
0001
0100
1000
,
0200
0000
0000
0300
,
1000
0100
1000
0010
0100
0001
0000
0010
,
0000
0100
0000
1000
0000
1010
0000
0000
,
0001
0010
0001
0100
0010
1000
0000
0100
,
0000
0010
0000
0001
0000
0101
0000
0000
,
1000
0100
0001
0100
0010
0001
0000
0100
,
0000
0010
0000
1000
0000
0100
0000
0000
,
0001
0100
1000
0100
0010
1000
0000
0100
,
0000
0010
0000
1001
0000
0110
0000
0000
,
2002
0000
0000
3003
,
0001
0010
0100
1000
0001
1000
0000
1100
,
0000
1010
0000
1001
0000
0001
0100
0010
,
1000
0100
0010
0001
1000
0001
0000
0011
,
0000
0101
0000
1001
0000
0110
0000
0000
,
1000
0100
0010
0001
1000
0001
0000
0011
,
0000
0101
0000
1001
0000
1000
0010
0100
,
0001
0010
0100
1000
0001
1000
0000
1100
,
0000
1010
0000
1001
0000
0001
0010
0001
,
0100
0001
1000
0001
1000
0010
0000
0100
,
0000
1100
0000
1010
0000
1001
0000
0100
,
0000
0101
0000
1010
0000
0010
0000
0001
,
0000
0011
0000
1100
0000
1000
0000
0000
,
1000
0100
1000
0010
1000
0001
0000
1000
,
0000
1001
0000
0101
0000
0011
0000
0100
,
0000
1001
0000
0010
0000
0100
0000
1001
,
0000
1010
0000
0110
0000
0101
0101
0000
;

//--------------- dance-single - R. McKanna ----------------
#NOTES:
     dance-single:
     R. McKanna:
     Challenge:
     15:
     0.777022,0.8149,0.795552,0.086473,0.112415,629,537,92,10,93,0,0.777022,0.8149,0.795552,0.086473,0.112415,629,537,92,10,93,0:
0000
0000
0000
0000
,
0000
0000
0000
0000
,
0000
0000
0000
0000
,
0000
0000
0000
0000
,
0000
0000
0000
0000
,
0000
0000
0000
0000
,
0000
0000
0000
0000
,
0000
0000
0000
0000
,
0000
0000
0000
0000
,
0010
1000
0100
0001
0100
1000
0010
0110
,
0000
0101
0000
0011
0000
0110
0100
1000
,
0010
0001
0010
0100
0001
0010
1000
1010
,
0000
0110
0000
0011
0000
1001
0000
0000
,
1000
0100
0001
0100
1000
0010
0100
0110
,
0000
0011
0000
0110
0000
1010
0010
1000
,
0010
0001
0010
0100
1000
0100
0001
0101
,
0000
0110
0000
1010
0000
0110
0000
0000
,
1010
0100
0001
0010
0001
0100
0001
0011
,
0000
0010
0100
1000
0010
1000
0100
1100
,
0000
0100
0010
0001
0100
0001
0010
0011
,
0000
0001
0100
101M
0000
1000
0100
M011
,
0000
0001
0100
101M
0000
1000
0100
0010
,
0011
0001
0100
0010
1000
0010
0100
0101
,
0000
0001
1000
0100
0010
0100
1000
1100
,
0000
0100
0010
0001
1000
0100
0010
0011
,
0000
1000
0001
M110
0000
0001
1000
011M
,
0000
0010
0100
10M1
0000
0010
0100
0001
,
0101
0010
1000
0100
1000
0010
1000
1100
,
0000
0100
0010
0001
0100
0001
0010
0011
,
0000
0010
0100
1000
0010
1000
0100
1100
,
0000
1000
0010
M101
0000
0001
0010
110M
,
0000
1000
0010
M101
0000
0001
0010
0100
,
1100
1000
0010
0100
0001
0100
0010
1010
,
0000
1000
0001
0010
0100
0010
0001
0011
,
0000
0010
0100
1000
0001
0010
0100
1100
,
0000
0001
1000
011M
0000
1000
0001
M110
,
0000
0100
0010
1M01
0000
1000
0100
0010
,
0001
0010
0001
0010
0001
0000
0010
0000
0100
0000
1000
0000
0100
0000
0010
0000
,
0000
MM11
0000
M1M1
0000
1MM1
0000
0010
,
1000
0010
1000
0010
1000
0000
0001
0000
0100
0000
0001
0000
0010
0000
0001
0000
,
0000
11MM
0000
1M1M
0000
M1M1
0000
0001
,
0100
0001
0100
0001
0100
0000
0010
0000
1000
0000
0010
0000
0100
0000
0001
0000
,
0000
1MM1
0000
M1M1
0000
MM11
0000
0001
,
0010
0100
0010
0100
0010
0000
0001
0000
0100
0000
1000
0000
0100
0000
0001
0000
,
0000
1MM1
0000
M11M
0000
0000
0000
0000
,
1000
0200
0000
0001
0001
0301
0000
1MM0
,
0000
0020
0000
0001
0001
0031
0000
0MM1
,
1000
0200
0000
0001
0001
0301
0000
0M10
,
0000
0000
2000
0000
0000
0000
0001
0000
0001
0000
3001
0000
0000
MMMM
0000
0000
,
0001
0200
0000
1000
1000
1300
0000
0MM1
,
0000
0020
0000
1000
1000
1030
0000
1MM0
,
0001
0200
0000
1000
1000
1300
0000
1M00
,
0100
0010
0001
0100
0000
0100
0001
0010
,
0100
1000
0100
0001
0100
1000
0100
0010
,
0001
0100
1000
0100
0001
0100
0010
1000
,
0100
0001
0100
1000
0100
0001
0100
0010
,
0000
0011
0000
0101
0000
0110
0000
0010
,
1000
0100
00M1
0100
1000
0010
0100
100M
,
0100
00M1
0100
100M
0100
0010
MM01
0010
,
0100
10MM
0100
0010
0000
1010
0000
1001
,
0000
0000
1000
0100
0010
0001
1000
0100
,
0010
0001
0010
1000
0010
0001
0100
0001
,
0010
1000
0010
0100
0001
0100
1000
0010
,
0100
0010
0100
0010
0100
0000
0001
0000
0010
0100
0010
0100
0010
0000
0001
0000
,
0200
0000
0000
0300
,
0100
0001
0010
1000
0010
0001
0100
0110
,
0000
1010
0000
1100
0000
0110
0010
0001
,
0100
1000
0100
0010
1000
0100
0001
0101
,
0000
0110
0000
1100
0000
1001
0000
0000
,
0001
0010
1000
0010
0001
0100
0010
0110
,
0000
1100
0000
0110
0000
0101
0100
0001
,
0100
1000
0100
0010
0001
0010
1000
1010
,
0000
0110
0000
0101
0000
0110
0000
0000
,
2002
0000
0000
3003
,
1000
0100
1000
0100
1000
0000
0100
0000
0010
0000
0001
0000
0010
0000
0100
0000
,
0000
11MM
0000
1M1M
0000
1MM1
0000
0100
,
0001
0100
0001
0100
0001
0000
1000
0000
0010
0000
1000
0000
0100
0000
1000
0000
,
0000
MM11
0000
M1M1
0000
1M1M
0000
1000
,
0010
1000
0010
1000
0010
0000
0100
0000
0001
0000
0100
0000
0010
0000
1000
0000
,
0000
1MM1
0000
1M1M
0000
11MM
0000
1000
,
0100
0010
0100
0010
0100
0000
1000
0000
0010
0000
0001
0000
0010
0000
1000
0000
,
0000
1MM1
0000
M11M
0000
1000
0100
0010
,
M001
0000
0010
0000
0100
000M
0010
0000
1000
0000
0001
0000
0100
0000
1000
0000
,
0010
0M01
0010
1000
0100
0001
10M0
0001
,
0100
M010
0001
0100
1000
00M1
1000
0100
,
0010
0000
0001
0000
1M00
0000
0001
0000
0010
0000
1000
000M
0010
0000
0100
0000
,
0001
M000
0100
0000
0010
000M
0100
0000
1000
0000
0001
0M00
0010
0000
1000
0000
,
0100
00M1
0100
1000
0010
0001
1M00
0001
,
0010
M100
0001
0010
1000
010M
1000
0010
,
0001
0101
0100
0110
0010
1010
0101
0000
;

//--------------- dance-double - M. Emirzian ----------------
#NOTES:
     dance-double:
     M. Emirzian:
     Easy:
     5:
     0.26436,0.310438,0,0.086473,0,214,214,0,10,0,0,0.26436,0.310438,0,0.086473,0,214,214,0,10,0,0:
00000000
00000000
00000000
00000000
,
00000000
00000000
00000000
00000000
,
00000000
00000000
00000000
00000000
,
00000000
00000000
00000000
00000000
,
00000000
00000000
00000000
00000000
,
00000000
00000000
00000000
00000000
,
00000000
00000000
00000000
00000000
,
00010000
00000000
00001000
00000000
,
00100000
00000000
01000000
00000000
,
10000000
00000000
00100000
00000000
,
01000000
00010000
01000000
00001000
,
00010000
00000000
00000100
00000000
,
00001000
00000010
00010000
00000010
,
00001000
00000000
00000100
00000000
,
00000010
00000001
00001000
00000010
,
00000100
00000000
00000000
00000000
00000001
00000000
00000000
00000100
,
00000000
00000010
00000000
00010000
00000000
00000000
00000000
00000000
,
00001000
00000000
00000000
00000000
00000000
00001000
00000000
00010000
,
00000000
00000000
00000000
00000000
00000000
00100000
00000000
10000000
,
00000000
00000000
00000000
00000000
00000000
10000000
00000000
01000000
,
00000000
00000000
00000000
00100000
00000000
00000000
00000000
00001000
,
00000000
00000000
00000000
00010000
00000000
00000000
00000100
00000000
,
00001000
00000000
00000000
00000000
00000000
00000010
00000000
00000100
,
00000000
00000000
00000000
00000000
00000000
00000001
00000000
00001000
,
00000000
00000000
00000000
00000000
00000000
00000100
00000000
00010000
,
00000000
00000000
00000000
00001000
00000000
00000000
00000000
01000000
,
00000000
00000000
00000000
00100000
00000000
00000000
10000000
00000000
,
00010000
00000000
00000000
00000000
00000000
00100000
00000000
01000000
,
00000000
00000000
00000000
00000000
00000000
10000000
00000000
00010000
,
00000000
00000000
00000000
00000000
00000000
00100000
00000000
00001000
,
00000000
00000000
00000000
00010000
00000000
00000000
00000000
00000010
,
00000000
00000000
00000000
00000100
00000000
00000000
00000001
00000000
,
00001000
00000000
00000000
00000000
00000000
00000100
00000000
00000010
,
00000000
00000000
00000000
00000000
00000000
00000001
00000000
00001000
,
00000000
00000000
00000000
00000000
00000000
00000010
00000000
00010000
,
00000000
00000000
00000000
00001000
00000000
00000000
00000000
01000000
,
00000000
00000000
00000000
00100000
00000000
00000000
10000000
00000000
,
01000000
00100000
00010000
00100000
,
00001000
00010000
00001000
00000000
,
00010000
00000100
00010000
00001000
,
00010000
00000010
00001000
00000000
,
00000001
00000100
00000010
00000100
,
00000001
00001000
00000100
00000000
,
00000010
00000000
00000100
00000000
00001000
00000000
00000000
00000100
,
00000000
00010000
00000000
00001000
00000000
00000000
00000000
00000000
,
00020000
00000000
00000000
00000000
00000000
00000000
00000000
00032000
,
00000000
00000000
00000000
00000000
01000000
00000000
00000000
02003000
,
00000000
00000000
00000000
00000000
00100000
00000000
00000000
03200000
,
00000000
00000000
00000000
00000000
10000000
00000000
00000000
20300000
,
00000000
00000000
00000000
00000000
01000000
00000000
00000000
32000000
,
00000000
00000000
00000000
00000000
00010000
00000000
00000000
03020000
,
00000000
00000000
00000000
00000000
00001000
00000000
00000000
00032000
,
00000000
00000000
00000000
00003200
00000000
00000000
00000000
00000000
,
00000301
00000010
00000100
00000000
,
00001000
00000000
00000001
00000000
,
00000100
00000000
00000010
00000000
00010000
00000000
00000000
00001000
,
00000000
00010000
00000000
00001000
00000000
00000000
00000000
00000000
,
01000000
00000000
00010000
00000000
,
01000000
00000000
00001000
00000000
,
01000000
00000000
00100000
00000000
,
10000000
00000000
01000000
00000000
,
00100000
00000000
00001000
00000000
,
00010000
00000000
00000100
00000000
,
00010000
00000000
00000000
00000000
00001000
00000000
00000000
00010000
,
00000000
00000010
00000000
00001000
00000000
00000000
00000000
00000000
,
00000100
00000000
00000010
00000000
,
00000001
00000000
00000100
00000010
,
00010000
00000000
00001000
00000000
,
00010000
00000000
00001000
01000000
,
00010000
00000000
00100000
00000000
,
01000000
00000000
10000000
00010000
,
01000000
00000000
00100000
00000000
,
10000000
00000000
01000000
00000000
,
00200000
00000000
00000000
00000000
,
00301000
00010000
00000010
00010000
,
00001000
00010000
00000100
00000000
,
00001000
00000010
00000100
00000010
,
00001000
00000001
00000010
00000000
,
00000100
00010000
00001000
01000000
,
00001000
00010000
00001000
00000000
,
01000000
00000000
00010000
00000000
00100000
00000000
00000000
01000000
,
00000000
00100000
00000000
00010000
00000000
10000000
00000000
00000000
,
01000000
00000000
00100000
00000000
,
00010000
00100000
00001000
00000000
,
00010000
00000000
00000100
00010000
,
00000100
00001000
00000010
00000000
,
00000100
00000000
00000001
00000010
,
00000100
00000010
00000001
00000000
,
00000100
00000000
00000000
00000010
00000000
00010000
00000000
00001000
,
00000000
01000000
00000000
00100000
00000000
10000000
00010000
00000000
;

//--------------- dance-double - M. Emirzian ----------------
#NOTES:
     dance-double:
     M. Emirzian:
     Medium:
     7:
     0.416306,0.582072,0.380481,0.025942,0,337,293,44,3,0,0,0.416306,0.582072,0.380481,0.025942,0,337,293,44,3,0,0:
00000000
00000000
00000000
00000000
,
00000000
00000000
00000000
00000000
,
00000000
00000000
00000000
00000000
,
00000000
00000000
00000000
00000000
,
00000000
00000000
00000000
00000000
,
00000000
00000000
00000000
00000000
,
00000000
00000000
00000000
00000000
,
00001000
00000000
00100000
00001000
,
00010000
00001000
01000000
00100000
,
10000000
00000000
01000000
00000000
00100000
00010000
00000000
00100000
,
00000000
00001000
00000000
00010000
00000000
00000010
00000000
00000000
,
00000100
00000000
00000001
00000000
00000010
00000100
00000000
00010000
,
00000000
00001000
00000000
01000000
00000000
00100000
00000000
00000000
,
01000000
00000000
00010000
00000000
00100000
01000000
00000000
10000000
,
00000000
00010000
00000000
01000000
00000000
00001000
00000000
00000000
,
00010000
00000000
00000010
00000000
00001000
00000100
00000000
00000011
,
00000000
00001001
00000000
00001100
00000000
00000010
00000000
00000000
,
00001000
00000000
00000000
00000000
00000000
00000100
00000000
00011000
,
00000000
00000000
00010000
00000000
00000000
00010000
00000000
01001000
,
00000000
00000000
00010000
00000000
00000000
01000000
00000000
10010000
,
00000000
00000000
00000000
01100000
00000000
00000000
00000000
00101000
,
00000000
00000000
00000000
00010100
00000000
00000000
00001000
00000000
,
00000010
00000000
00000000
00000000
00000000
00000100
00000000
00001001
,
00000000
00000000
00000100
00000000
00000000
00000100
00000000
00011000
,
00000000
00000000
01000000
00000000
00000000
00100000
00000000
01010000
,
00000000
00000000
00000000
10010000
00000000
00000000
00000000
01001000
,
00000000
00000000
00000000
00010100
00000000
00000000
00000010
00000000
,
00000001
00000000
00000000
00000000
00000000
00000100
00000000
00000110
,
00000000
00000000
00010000
00000000
00000000
00010000
00000000
00011000
,
00000000
00000000
00100000
00000000
00000000
00010000
00000000
11000000
,
00000000
00000000
00000000
01100000
00000000
00000000
00000000
00101000
,
00000000
00000000
00000000
00010010
00000000
00000000
00001000
00000000
,
00000100
00000000
00000000
00000000
00000000
00000010
00000000
00000011
,
00000000
00000000
00000000
00000000
00000000
00000100
00000000
00010100
,
00000000
00000000
00001000
00000000
00000000
01000000
00000000
00101000
,
00000000
00000000
00000000
01100000
00000000
00000000
00000000
10010000
,
00000000
00000000
00000000
00011000
00000000
00000000
00000100
00000000
,
00000010
00000000
00000001
00000000
00001000
00000000
00000000
00000100
,
00000000
00000010
00000000
00000100
00000000
00001001
00000000
00000000
,
00000010
00000000
00010000
00000000
00001000
00000000
00000000
01000000
,
00000000
00100000
00000000
01000000
00000000
10010000
00000000
00000000
,
00100000
00000000
10000000
00000000
01000000
00000000
00000000
00100000
,
00000000
00001000
00000000
00100000
00000000
00011000
00000000
00000000
,
00010000
00000000
00000100
00000000
00000010
00000000
00000000
00000001
,
00000000
00000100
00000000
00002002
00000000
00000000
00000000
00003003
,
00000000
00000100
00000000
00010000
00001000
00000000
00000000
01000000
,
00000000
00100000
00000000
10000000
01000000
00000000
00000000
00100000
,
00000000
00001000
00000000
00010000
00000010
00000000
00000000
00010000
,
00000000
00001000
00000000
00010000
00000100
00000000
00000000
00000010
,
00000000
00000001
00000000
00000100
00000010
00000000
00000000
00010000
,
00000000
00000100
00000000
00010000
00001000
00000000
00000000
01000000
,
00000000
00100000
00000000
01000000
00010000
00000000
00000000
00100000
,
00000000
01000000
10000000
00010000
00000000
01000000
00001000
00000000
,
00010000
00000100
00010000
00001000
,
00010000
00000010
00001000
00000100
,
00000010
00000100
00001000
00000001
,
00000100
00000010
00010000
00001000
,
01000000
00001000
00010000
00001000
,
00100000
00010000
01000000
00100000
,
01000000
00010000
00100000
01000000
,
10000000
00100000
01000000
00001000
,
00011000
00010010
00011000
01001000
,
00011000
00010100
00010000
00000100
,
00000010
00000001
00000100
00000010
,
00000000
00001010
00000000
00011000
00000000
01010000
00000000
00000000
,
00100000
00000000
00000000
10000000
01000000
00000000
00000000
00100000
,
00010000
00000000
00000000
01000000
00001000
00000000
00010000
00000000
,
00000100
00000000
00000000
00000010
00000001
00000000
00000000
00000100
,
00000010
00000000
00000000
00010000
00001000
00000000
01000000
00000000
,
00001000
00000000
00000000
00010000
00000100
00000000
00000000
00010000
,
00001000
00000000
00000000
01000000
00100000
00000000
10000000
00000000
,
01000000
00000000
00000000
00100000
00001000
00000000
00000000
00010000
,
00000010
00000000
00000000
00001000
00000100
00000000
00000010
00000000
,
00000002
00000000
00000000
00000000
,
00000103
00000000
00000010
00000000
00010000
00000000
00000000
00001000
,
00000000
01000000
00000000
00010000
00000000
10010000
00000000
00000000
,
00100000
00000000
01000000
00000000
10000000
00000000
00000000
00100000
,
00000000
01000000
00000000
00001000
00000000
00011000
00000000
00000000
,
00000010
00000000
00001000
00000000
00000100
00000000
00000000
00000010
,
00000000
00000001
00000000
00001000
00000000
00000110
00000000
00000000
,
00000010
00000000
00010000
00000000
00001000
00000000
00000000
01000000
,
00000000
00100000
00000000
10000000
00000000
01010000
00000000
00000000
,
00100000
00000000
10000000
00000000
01000000
00100000
00010000
00000000
,
01000000
00000000
00001000
00000000
00010000
00000010
00010000
00000000
,
00000000
00001000
00000000
00010000
00000000
00000100
00000000
00000010
,
00000000
00000001
00000000
00000100
00000000
00000010
00000000
00000000
,
00000100
00000000
00000001
00000000
00000010
00000100
00010000
00000000
,
00001000
00000000
01000000
00000000
00001000
00010000
00001000
00000000
,
00000000
01000000
00000000
00010000
00000000
00100000
00000000
01000000
,
00000000
10000000
00000000
00100000
00000000
01000000
00010000
00000000
;

//--------------- dance-double - M. Emirzian ----------------
#NOTES:
     dance-double:
     M. Emirzian:
     Hard:
     9:
     0.704138,0.698972,0.942556,0.034589,0.017295,570,461,109,4,12,0,0.704138,0.698972,0.942556,0.034589,0.017295,570,461,109,4,12,0:
00000000
00000000
00000000
00000000
,
00000000
00000000
00000000
00000000
,
00000000
00000000
00000000
00000000
,
00000001
00000100
00000010
00000000
00000010
00000100
00000001
00000010
,
00000000
00001000
00000000
00010000
00000000
00100000
10000000
00000000
,
10000000
00100000
01000000
00000000
01000000
00100000
10000000
01000000
,
00000000
00010000
00000000
00001000
00000000
00000010
00000001
00000000
,
00000001
00000010
00000100
00000000
00000100
00000010
00000001
00000100
,
00000000
00000010
00000000
00010000
00000000
00001000
00100000
00000000
,
00001000
00010000
00100000
01000000
00001000
00100000
00000000
01010000
,
00000000
00101000
00000000
01010000
00000000
00100000
00001000
00000000
,
00010000
00100000
01000000
00001000
00010000
00000010
00000000
00001100
,
00000000
00010010
00000000
00001100
00000000
00010010
00000000
00000000
,
00000010
00000100
00001000
00010000
01000000
00100000
00000000
00101000
,
00000000
01100000
00000000
00101000
00000000
00010000
10000000
00000000
,
00100000
00010000
00001000
00000100
00000010
00001000
00000000
00010100
,
00000000
00001010
00000000
00010100
00000000
00001010
0M0M0000
00000000
,
01010000
00000000
00100000
00001000
00010000
00000100
00000000
00001001
,
00000000
00000000
00000010
00010000
00001000
01000000
00000000
10010000
,
00000000
00000000
00100000
00001000
00010000
00000010
00000000
00001001
,
00000000
00001100
00000000
00010010
00000000
00011000
00000000
00101000
,
00000000
00110000
00000000
10010000
00000000
01000000
00100000
00000000
,
10010000
00000000
01000000
00010000
00001000
00000010
00000000
00001001
,
00000000
00000000
00000010
00001000
00010000
01000000
00000000
10010000
,
00000000
00000000
00100000
00010000
00001000
00000100
00000000
00000110
,
00000000
00010010
00000000
00011000
00000000
01001000
00000000
00110000
,
00000000
10010000
00000000
01100000
00000000
10000000
00010000
00000000
,
01001000
00000000
00010000
00001000
00010000
00000010
00000000
00001010
,
00000000
00000000
00010000
00001000
00100000
00010000
00000000
00101000
,
00000000
00000000
00010000
00001000
00010000
00000100
00000000
00000011
,
00000000
00000110
00000000
00001100
00000000
00101000
00000000
01010000
,
00000000
10010000
00000000
01100000
00000000
00010000
10000000
00000000
,
01100000
00000000
01000000
00001000
00010000
00000010
00000000
01001000
,
00000000
00000000
00100000
00001000
00010000
00000100
00000000
00101000
,
00000000
00000000
01000000
00001000
00010000
00000010
00000000
01001000
,
00000000
00011000
00000000
00101000
00000000
00001100
00000000
00001001
,
00000000
00000110
00000000
00001001
00000000
00000010
00000100
00000000
,
00000001
00000100
00000010
00010000
00001000
01000000
00000000
01100000
,
00000000
10010000
00000000
01100000
00000000
01000000
10010000
00000000
,
10000000
00100000
00010000
00001000
00000100
00000001
00000000
00000110
,
00000000
00000000
00001001
00000000
00000000
00000000
00011000
00000000
00000000
00000000
10010000
00000000
00000000
M00M0000
00000000
00000000
,
10000000
00100000
01000000
00001000
00010000
00000010
00000000
00000110
,
00000000
00001001
00000000
00000110
00000000
00000010
00001001
00000000
,
00000001
00000100
00000010
00001000
00000100
00010000
00000000
01100000
,
00000000
00011000
00000000
00002002
00000000
00000000
00000000
00003003
,
00000000
00000001
00000000
00000100
00001000
00010000
00000000
00001000
,
00000000
00100000
00000000
00010000
01000000
00100000
00000000
01000000
,
00000000
00010000
00000000
10000000
01000000
00010000
00000000
01000000
,
00000000
00100000
00000000
00001000
00010000
00100000
00000000
00010000
,
00000000
00001000
00000000
00000100
00000001
00000010
00000000
00000100
,
00000000
00000010
00000000
00001000
00010000
00100000
00000000
00010000
,
00000000
00001000
00000000
00010000
00000010
00001000
00000000
00000100
,
00000010
00000100
00001000
00000001
00000000
00000100
00000010
00010000
,
00001000
00010000
00000100
00000000
00010000
00001000
00100000
00000000
,
01000000
00100000
00010000
00000000
00100000
01000000
10000000
00100000
,
01000000
00100000
10000000
01000000
00010000
00000100
00010000
00011000
,
00000000
00010010
00000000
00001100
00000000
00001001
00000000
0000M00M
,
00000010
00000100
00001000
00000000
00001000
00000100
00000010
00000000
,
00000001
00000100
00000010
00000000
00000100
00001000
00010000
00001000
,
01000000
00100000
01000000
00010000
00000000
00100000
00000000
22000000
,
00000000
00000000
00000000
00000000
00000000
33000000
00000000
00000000
,
00100000
01000000
00001000
00000000
00010000
00001000
00000010
00000000
,
00001000
00010000
01000000
00010000
00001000
00000010
00000001
00001000
,
00000010
00000100
00000010
00001000
00000100
00000010
00000001
00001100
,
00000000
00010010
00000000
00011000
00000000
01001000
00000000
00000000
,
00100000
00000000
00000000
10000000
01000000
00100000
00000000
01000000
,
10000000
00000000
00000000
01000000
00100000
00010000
01000000
00001000
,
00010000
00000000
00000000
00000100
00001000
00000001
00000000
00001000
,
00000100
00000010
00000000
00000001
00000100
00000010
00000100
00000001
,
00001000
00000000
00000000
00000100
00010000
00001000
00000000
00010000
,
00001000
01000000
00000000
00010000
00100000
01000000
10000000
00100000
,
01000000
00000000
00000000
00001000
00010000
00000010
00000000
00010000
,
00001000
00000010
00000000
00000001
00000100
00000010
00001000
00000100
,
00000010
00000001
00000000
00001001
00000000
00000100
00000000
00000010
,
00010000
00001000
00000100
00001000
00010000
01000000
00000000
01100000
,
00000000
10010000
00000000
01100000
00000000
00010000
00011000
00000000
,
00000010
00010000
00001000
00100000
00001000
00010000
00000000
00000110
,
00000000
00000000
00001001
00000000
00000000
00000000
00011000
00000000
00000000
00000000
01100000
00000000
00000000
0MM00000
00000000
00000000
,
00100000
00001000
00010000
00000100
00010000
00001000
00000000
10010000
,
00000000
01100000
00000000
10010000
00000000
00100000
00101000
00000000
,
00001000
00010000
01000000
00010000
00001000
00000010
00000000
00001001
,
00000000
00000110
00000000
00010010
00000000
00011000
00010000
00100000
,
10000000
01000000
00100000
01000000
10000000
00010000
00000000
01001000
,
00000000
00110000
00000000
00101000
00000000
00011000
00000000
00000000
,
00010000
00001000
00000100
00001000
00000100
00000001
00000010
00000100
,
00000000
00001001
00000000
00000110
00000000
00010010
00000000
00000000
,
00010000
00001000
00100000
01000000
10000000
00010000
00000000
01010000
,
00000000
00000000
01001000
00000000
00000000
00000000
00011000
00000000
00000000
00000000
00010010
00000000
00000000
000M00M0
00000000
00000000
,
00001000
00000010
00000100
00000001
00000010
00000100
00001000
00000010
,
00000000
00000000
00001001
00000000
00000000
00000000
00000110
00000000
00000000
00000000
00011000
00000000
00100000
000MM000
00000000
00000000
;

//--------------- dance-double - M. Emirzian ----------------
#NOTES:
     dance-double:
     M. Emirzian:
     Challenge:
     11:
     0.821494,0.856083,0.536133,0.017295,0.233477,665,603,62,2,27,0,0.821494,0.856083,0.536133,0.017295,0.233477,665,603,62,2,27,0:
00000000
00000000
00000000
00000000
,
00000000
00000000
00000000
00000000
00000000
00000000
00000000
00000010
,
00000000
00010000
00000000
00001000
00000000
01000000
00100000
10000000
,
00010000
00000000
00100000
00000000
00001000
00010000
00000000
00000010
,
00000000
00000100
00000000
00000001
00000000
00010000
00001000
00010000
,
00000100
00000000
01000000
00000000
00100000
01000000
00000000
00001000
,
00000000
01000000
00000000
00100000
00000000
10000000
01000000
00100000
,
00010000
00000000
01000000
00000000
00001000
00010000
00000000
00000010
,
00000000
00000110
00000000
00001001
00000000
00001000
00000001
00000010
,
00000100
00001000
00000100
00000000
00000010
00000000
00000001
00000000
00000100
00000000
00000010
00000000
00000000
00000000
00010010
00000000
,
00000000
00011000
00000000
01000100
00000000
00010000
00011000
00000000
,
00001000
00100000
00001000
00000000
00010000
00000000
00100000
00000000
01000000
00000000
10000000
00000000
01000000
00000000
00010000
00000000
,
00000000
10100000
00000000
01001000
00000000
00110000
00000000
00000000
,
00001000
00010000
00001000
00000000
01000000
00000000
00001000
00000000
00010000
00000000
00000010
00000000
00000000
00000000
00100010
00000000
,
00000000
00011000
00000000
01000100
00000000
00010000
00010010
00000000
,
00001000
00000010
00001000
00000000
00000100
00000000
00000010
00000000
00000001
00000000
00001000
00000000
00000000
00000000
00000110
00000000
,
00000000
00011000
00000000
01100000
00000000
11000000
00000000
MM000000
,
10000000
00010000
10000000
00000000
00100000
00000000
01000000
00000000
00010000
00000000
10000000
00000000
01000000
00000000
00100000
00010000
,
00100000
00000000
00001000
00000000
00010000
00000000
00000100
00000000
00001000
00000000
00000010
00000000
00000100
00000000
00000001
00001000
,
00000001
00000000
00000100
00000000
00000010
00000000
00000100
00000000
00000010
00000000
00001000
00000100
00010000
00000000
00001000
00000000
,
00000000
00000000
01000000
00001000
00010000
00000000
00000100
00000000
00000000
00000000
00010000
00001000
00100000
00000000
00000010
00000000
,
00000000
00000000
00010000
00001000
01000000
00000000
00000100
00000000
00000000
00000000
00010000
00000000
00001000
00000000
01000000
00000000
,
00010000
10000000
00010000
00000000
00100000
00000000
01000000
00000000
10000000
00000000
01000000
00000000
00100000
00000000
00010000
10000000
,
00010000
00000000
01000000
00000000
00100000
00000000
01000000
00000000
00001000
00000000
00010000
00000000
00000100
00000000
00001000
00000001
,
00001000
00000000
00000010
00000000
00000100
00000000
00000001
00000000
00001000
00000000
00000100
00000010
00000001
00000000
00001000
00000000
,
00000000
00000000
00000010
00010000
00001000
00000000
00100000
00000000
00000000
00000000
00001000
00010000
00000100
00000000
01000000
00000000
,
00000000
00000000
00001000
00010000
00000010
00000000
00100000
00000000
00000000
00000000
00001000
00000000
00010000
00000000
00001000
00000000
,
01000000
00010000
01000000
00000000
00100000
00000000
10000000
00000000
00100000
00000000
01000000
00000000
00010000
00000000
10000000
01000000
,
10000000
00000000
01000000
00000000
00100000
00000000
00010000
00000000
01000000
00000000
00001000
00000000
00010000
00000000
00001000
01000000
,
00001000
00000000
00010000
00000000
00001000
00000000
01000000
00000000
00001000
00000000
00010000
00001000
00010000
00000000
00100000
00000000
,
00000000
00000000
00010000
00100000
00010000
00000000
00001000
00000000
00000000
00000000
00000010
00001000
00000010
00000000
00001000
00000000
,
00000000
00000000
00010000
00001000
00010000
00000000
01000000
00000000
00000000
00000000
00010000
00000000
00001000
00000000
00000010
00000000
,
00000001
00001000
00000001
00000000
00000100
00000000
00000010
00000000
00001000
00000000
00000010
00000000
00001000
00000000
00000001
00001000
,
00000001
00000000
00000010
00000000
00000100
00000000
00010000
00000000
00001000
00000000
01000000
00000000
00001000
00000000
00010000
00000100
,
00010000
00000000
00001000
00000000
01000000
00000000
00100000
00000000
10000000
00000000
00010000
00100000
00010000
00000000
00100000
00000000
,
00000000
00000000
00000010
00001000
00000010
00000000
00001000
00000000
00000000
00000000
00010000
00100000
00010000
00000000
00100000
00000000
,
00000000
00000000
00000100
00001000
00000100
00000000
00000010
00000000
00000000
00000000
00000001
00000000
00001000
00000000
00000010
00000000
,
00000100
00000001
00001000
00000000
00000100
00000000
00001000
00000000
00001000
00000000
00000010
00001000
00000010
00000000
00010000
00000000
,
00000000
00011000
00000000
00010100
00000000
00010000
00100010
00000000
,
00010000
00001000
00010000
00000000
00001000
00000000
01000000
00000000
01000000
00000000
00010000
10000000
00010000
00000000
00100000
00000000
,
00000000
01010000
00000000
01000100
00000000
00011000
00000000
00000000
,
00000001
00000100
00000001
00000000
00001000
00000000
00000100
00000000
00000100
00000000
00010000
00001000
00010000
00000000
00000010
00000000
,
00010000
00001000
01000000
00010000
10000000
01000000
00100000
00010000
,
01000000
00100000
01000000
00000000
00010000
00000000
01000000
00000000
01000000
00000000
00001000
00010000
00001000
00000000
01000000
00000000
,
00000000
01010000
00000000
00010100
00000000
00000000
00000000
00000000
,
00010000
00001000
00000000
00010000
00001000
0000M010
00000000
00001000
,
00000000
00001010
00000000
00001000
00010000
001M0000
00000000
00010000
,
00000000
00110000
00000000
00001000
00100000
00M00010
00000000
00100000
,
00000000
00011000
00000000
01000000
00000100
00001M00
00000000
00000100
,
00000000
00010100
00000000
00010000
00001000
0000M100
00000000
00001000
,
00000000
00011000
00000000
00100000
00010000
000M1000
00000000
00010000
,
00000000
01001000
00000000
00010000
01000000
00100000
00M00000
00100000
,
10000000
01000000
00100000
00010000
00MM0000
00100000
01000000
10000000
,
00010000
10000000
01000000
10000000
00010000
01000000
00001000
00100000
,
00001000
00010000
00000100
00000010
00000001
00001000
00000010
00100000
,
00000010
00010000
00001000
00100000
00000100
00001000
00000001
00001000
,
00000000
00010100
00000000
00011000
00000000
10010000
00000000
00000000
,
10000000
00100000
01000000
00010000
00100000
00000010
00100000
00001000
,
00010000
00000100
01000000
00000100
00001000
00000001
00010000
00000001
,
00001000
00000010
00010000
00001000
01000000
00001000
00010000
00001000
,
01000000
00100000
10000000
00010000
10000000
01000000
00100000
00010000
,
01000000
00001000
00010000
00000010
00010000
00000001
00000100
00000010
,
00001000
00000010
00010000
00001000
01000000
00001000
10000000
00010000
,
10000000
01000000
10000000
00000000
00010000
01000000
00010000
00000000
01000000
00001000
01000000
00000000
00001000
00010000
00001000
00020000
,
00002000
00000000
00000000
00000000
00000000
00033000
00000000
000MM000
,
00001100
00000000
00000000
00010000
00001000
01000000
0M000000
01000000
,
00001000
00010000
000M0000
00010000
00001000
01000000
00010000
01000000
,
00001000
00000000
00000000
00010000
00000100
01000000
0M000000
01000000
,
00000100
00010000
000M0000
00010000
00000100
01000000
00001000
00010000
,
00000010
00000000
00000000
00000100
00001000
00010000
000M0000
00010000
,
00001000
00000100
00000M00
00000100
00001000
00010000
00000100
00010000
,
00001000
00000000
00000000
00100000
00000100
00001000
0000M000
00001000
,
00000100
00100000
00M00000
00100000
00000100
00001000
00000010
00000100
,
00000001
00010001
00000000
00011000
00000000
01001000
00000000
00010000
,
01000000
00100000
01000000
00000000
00010000
00000000
10000000
00000000
00100000
00000000
01000000
00010000
10000000
00000000
01000000
00000000
,
00000000
00110000
00000000
01001000
00000000
01010000
01001000
00000000
,
00010000
00000100
00010000
00000000
00000010
00000000
00000010
00000000
00001000
00000000
00000100
00000010
00000001
00000000
00001000
00000000
,
00000000
00010010
00000000
00001100
00000000
01000100
00000000
00000000
,
00010000
00001000
00010000
00000000
00001000
00000000
00001000
00000000
00100000
00000000
00010000
10000000
00010000
00000000
01000000
00000000
,
00100000
10000000
00100000
01000000
00010000
10000000
01000000
00100000
,
00001000
00010000
00001000
00010000
00000100
00000000
00001000
00000000
00000010
00000000
00001000
00000001
00001000
00000000
00000100
00000000
,
00000000
00010100
00000000
01000100
00000000
00010000
00001000
01000000
,
00001000
00100000
01000000
10000000
00010000
01000000
00000000
01001000
,
00000000
10001000
00000000
00101000
00000000
00011000
00000000
00010010
,
00000000
00010001
00000000
00010100
00010000
00000100
00001000
00000010
,
00000000
00000110
00000000
00011000
00000000
01100000
0MM00000
00000000
,
10000000
00100000
01000000
10000000
01000000
00100000
10000000
00001000
,
00010000
00000100
00000010
00001000
00000010
00000100
00001000
0000MM00
,
00000000
00000110
00000000
00000001
00000010
00000100
00010000
00001000
,
00000000
00000110
00000000
00011000
00000000
01100000
11000000
00000000
,
MM000000
00000000
00000000
00000000
;

//--------------- lights-cabinet - ----------------
#NOTES:
     lights-cabinet:
     :
     Easy:
     1:
     0.595429,0.931314,0.890672,0,0,482,335,103,0,0,22,0.595429,0.931314,0.890672,0,0,482,335,103,0,0,22:
00000000
00000000
00000000
00000000
,
00000000
11110000
00000000
11110000
,
00000000
11110000
00000000
11110000
,
00000000
11110000
00000000
11110000
,
00000000
11110000
11110000
11110000
,
00000000
11110000
00000000
11110000
,
00000000
11110000
00000000
11110000
,
00000000
11110000
00000000
11110000
,
11110000
00000000
11110000
00000000
,
00110000
00000000
00010000
00100000
00010000
00100000
00000000
00010000
,
00000000
00100000
00000000
01000000
00000000
10000000
00000000
00000000
,
10100000
00000000
10000000
00100000
11000000
00100000
00000000
10000000
,
00000000
00100000
00000000
01000000
00000000
00010000
00000000
00000000
,
00010000
00000000
00010000
01000000
00010000
01000000
00000000
00010000
,
00000000
01000000
00000000
00100000
00000000
10000000
00000000
00000000
,
11000000
00000000
10000000
01000000
11000000
01000000
00000000
10000000
,
00000000
01000000
00000000
10010000
00000000
01100000
00000000
00000000
,
11000000
00000000
00010000
00000000
00000000
10000000
00000000
01000000
,
00000000
00000000
00010000
00000000
00000000
01000000
00000000
00100000
,
00000000
00000000
00010000
00000000
00000000
00100000
00000000
10000000
,
00000000
00000000
00000000
01100000
00000000
00000000
00000000
10010000
,
00000000
00000000
00000000
01100000
00000000
00000000
00000000
00000000
,
01100000
00000000
00010000
00000000
00000000
00100000
00000000
01000000
,
00000000
00000000
10000000
00000000
00000000
00100000
00000000
01000000
,
00000000
00000000
00010000
00000000
00000000
00100000
00000000
01000000
,
00000000
00000000
00000000
00110000
00000000
00000000
00000000
01100000
,
00000000
00000000
00000000
11000000
00000000
00000000
00000000
00000000
,
00010000
00000000
10000000
00000000
00000000
00010000
00000000
00100000
,
00000000
00000000
10000000
00000000
00000000
00100000
00000000
01000000
,
00000000
00000000
10000000
00000000
00000000
01000000
00000000
00010000
,
00000000
00000000
00000000
01100000
00000000
00000000
00000000
10010000
,
00000000
00000000
00000000
01100000
00000000
00000000
00000000
00000000
,
00110000
00000000
10000000
00000000
00000000
01000000
00000000
00100000
,
00000000
00000000
00010000
00000000
00000000
01000000
00000000
00100000
,
00000000
00000000
10000000
00000000
00000000
01000000
00000000
00100000
,
00000000
00000000
00000000
11000000
00000000
00000000
00000000
01100000
,
00000000
00000000
00000000
00110000
00000000
00000000
00000000
00000000
,
00110000
00000000
00010000
00100000
01010000
00100000
00010000
00100000
,
00000000
01000000
00000000
10000000
00000000
00100000
00000000
00000000
,
11000000
00000000
00010000
01000000
00010000
01000000
00010000
01000000
,
00000000
00100000
00000000
10000000
00000000
10000000
00000000
00000000
,
00100000
00000000
10000000
00100000
11000000
00100000
10000000
00100000
,
00000000
01000000
00000000
00010000
00000000
00100000
00000000
00000000
,
01100000
00000000
10000000
01000000
10100000
01000000
10000000
01000000
,
00000000
00100000
00000000
00010000
00000000
00000000
00000000
00000000
,
01010000
10000000
00000000
01000000
00110000
00010000
00000000
00010000
,
00000000
10000000
00000000
01000000
01100000
00010000
00000000
00010000
,
00000000
00010000
00000000
00100000
11000000
10000000
00000000
10000000
,
00000000
00010000
00000000
00100000
01010000
10000000
00000000
10000000
,
00000000
10000000
00000000
00100000
01100000
00010000
00000000
00010000
,
00000000
10000000
00000000
00100000
01100000
00010000
00000000
00010000
,
00000000
00010000
00000000
01000000
01100000
10000000
00000000
00010000
,
00110000
01000000
00100000
00010000
00000000
01000000
00100000
01000000
,
00010000
00100000
01010000
00100000
,
00110000
10000000
00110000
10000000
,
01010000
01000000
00110000
01000000
,
00010000
00100000
00000000
01000000
00000000
10000000
00000000
00000000
,
11000000
01000000
10100000
01000000
,
11000000
00010000
01010000
00010000
,
11000000
00000000
01000000
00100000
00000000
00010000
00000000
10010000
,
00000000
00000000
01100000
01000000
,
01010000
00010000
11000000
00100000
,
01100000
00010000
11000000
00100000
,
01100000
00010000
00100000
01000000
,
11000000
00000000
00000000
00000000
,
01010000
00000000
00000000
00010000
00110000
00000000
00000000
00100000
,
01010000
00000000
00000000
01000000
11000000
00000000
00100000
00000000
,
01100000
00000000
00000000
01000000
01010000
00000000
00000000
00010000
,
11000000
00000000
00000000
10000000
01010000
00000000
00100000
00000000
,
00110000
00000000
00000000
00010000
01100000
00000000
00000000
01000000
,
10100000
00000000
00000000
00100000
11000000
00000000
01000000
00000000
,
00100000
00000000
00000000
00100000
00110000
00000000
00000000
00010000
,
01100000
00000000
01000000
00000000
11000000
00100000
10000000
00010000
,
01100000
00000000
00000000
00000000
,
01100000
00000000
00100000
01000000
00110000
01000000
00000000
00010000
,
00000000
01000000
00000000
00100000
00000000
10000000
00000000
00000000
,
01010000
00000000
01000000
00100000
11000000
00100000
00000000
00010000
,
00000000
10000000
00000000
01000000
00000000
00100000
00000000
00000000
,
00010000
00000000
00010000
00100000
00010000
00100000
00000000
10000000
,
00000000
00100000
00000000
01000000
00000000
00010000
00000000
00000000
,
11000000
00000000
10000000
00100000
11000000
00100000
00000000
10000000
,
00000000
01000000
00000000
00100000
00000000
10010000
00000000
00000000
,
11000000
00010000
10000000
00010000
11000000
00010000
00000000
00010000
,
00000000
00100000
00000000
01000000
00000000
00010000
00000000
00000000
,
00000000
00100000
00000000
01000000
00000000
00000000
00000000
00100000
,
00000000
00010000
00000000
01000000
00000000
00100000
00000000
00000000
,
00010000
10000000
00010000
10000000
00110000
10000000
00000000
10000000
,
00000000
01000000
00000000
00100000
00000000
10000000
00000000
00000000
,
00000000
01000000
00000000
00100000
00000000
00000000
00000000
11110000
,
00000000
11110000
00000000
11110000
00000000
11110000
11110000
00000000
;
