#TITLE:Boogie Down;
#SUBTITLE:;
#ARTIST:Inurvise;
#TITLETRANSLIT:;
#SUBTITLETRANSLIT:;
#ARTISTTRANSLIT:;
#GENRE:;
#CREDIT:;
#MUSIC:;
#BANNER:;
#BACKGROUND:;
#CDTITLE:;
#SAMPLESTART:83.840;
#SAMPLELENGTH:13.860;
#SELECTABLE:YES;
#OFFSET:-0.184;
#BPMS:0.000=175.000;
#STOPS:;
#BGCHANGES:0.000=boogie-bg.png=1.000=0=0=1,
20.000=EV01448N.mpg=1.000=0=0=1,
36.000=EV01440N.mpg=1.000=0=0=1,
52.000=jb_117.mpg=1.000=0=0=1,
68.000=EV01455N.mpg=1.000=0=0=1,
84.000=EV01453N.mpg=1.000=0=0=1,
100.000=vol3-15-ntsc.mpg=1.000=0=0=1,
116.000=EV01448N.mpg=1.000=0=0=1,
132.000=VOL1-41-NTSC.mpg=1.000=0=0=1,
148.000=VOL1-32-NTSC.mpg=1.000=0=0=1,
156.000=VOL1-12-NTSC.mpg=1.000=0=0=1,
164.000=VOL1-16-NTSC.mpg=1.000=0=0=1,
172.000=vol3-07-ntsc.mpg=1.000=0=0=1,
180.000=vol4-09-ntsc.mpg=1.000=0=0=1,
188.000=EV01455N.mpg=1.000=0=0=1,
196.000=EV01453N.mpg=1.000=0=0=1,
204.000=669_JumpBack.mpg=1.000=0=0=1,
212.000=vol4-12-ntsc.mpg=1.000=0=0=1,
220.000=VOL1-16-NTSC.mpg=1.000=0=0=1,
228.000=vol4-10-ntsc.mpg=1.000=0=0=1,
236.000=vol3-06-ntsc.mpg=1.000=0=0=1,
244.000=EV01453N.mpg=1.000=0=0=1,
260.000=669_JumpBack.mpg=1.000=0=0=1,
276.000=vis_736_JumpBack.mpg=1.000=0=0=1,
284.000=vis_vol3-12-ntsc.mpg=1.000=0=0=1,
292.000=vis_vol4-20-ntsc.mpg=1.000=0=0=1,
308.000=EV01448N.mpg=1.000=0=0=1,
316.000=vol3-15-ntsc.mpg=1.000=0=0=1,
324.000=jb_117.mpg=1.000=0=0=1,
332.000=EV01455N.mpg=1.000=0=0=1,
340.000=boogie-bg.png=1.000=0=0=1,
344.000=boogie-bg.png=1.000=0=0=1,
99999.000=-nosongbg-=1.000=0=0=0=StretchNoLoop====
;
#FGCHANGES:;

//--------------- dance-single - M. Puls ----------------
#NOTES:
     dance-single:
     M. Puls:
     Beginner:
     2:
     0.106,0,0.016,0,0:
0000
0000
0000
0000
,
0000
0000
0000
0000
,
0000
0000
0000
0000
,
0000
0000
0000
0000
,
0000
0000
0000
0000
,
0001
0000
0000
0000
,
1000
0000
0000
0000
,
0001
0000
0000
0000
,
1000
0000
0000
0000
,
0010
0000
0000
0000
,
0100
0000
0000
0000
,
0010
0000
0000
0000
,
0100
0000
0000
0000
,
0001
0000
0000
0000
,
1000
0000
0000
0000
,
0001
0000
0000
0000
,
1000
0000
1000
0000
,
0001
0000
0000
0000
,
0001
0000
0000
0000
,
1000
0000
0000
0000
,
1000
0000
0000
0000
,
0001
0000
0000
0000
,
0010
0000
0000
0000
,
0001
0000
0000
0000
,
1000
0000
0000
0000
,
0001
0000
0000
0000
,
0010
0000
0000
0000
,
0001
0000
0000
0000
,
1000
0000
0000
0000
,
0001
0000
0000
0000
,
1000
0000
0000
0000
,
0010
0000
0000
0000
,
1000
0000
0000
0000
,
0001
0000
0000
0000
,
0100
0000
0000
0000
,
0001
0000
0000
0000
,
0100
0000
0000
0000
,
0001
0000
0000
0000
,
1000
0000
0000
0000
,
0010
0000
0000
0000
,
1001
0000
0000
0000
,
0001
0000
0000
0000
,
1000
0000
0000
0000
,
0010
0000
0000
0000
,
1001
0000
0000
0000
,
0001
0000
0000
0000
,
0100
0000
0000
0000
,
0001
0000
0000
0000
,
0001
0000
0000
0000
,
1000
0000
0000
0000
,
1000
0000
0000
0000
,
0010
0000
0000
0000
,
0100
0000
0000
0000
,
0001
0000
0001
0000
,
0001
0000
0001
0000
,
0001
0000
0001
0000
,
0001
0000
0000
0000
,
1000
0000
1000
0000
,
1000
0000
1000
0000
,
1000
0000
1000
0000
,
1000
0000
0000
0000
,
0010
0000
0000
0000
,
0100
0000
0000
0000
,
0001
0000
0000
0000
,
1000
0000
0000
0000
,
0001
0000
0000
0000
,
1000
0000
0000
0000
,
0001
0000
0000
0000
,
0100
0000
0000
0000
,
0010
0000
0000
0000
,
1000
0000
0000
0000
,
0001
0000
0000
0000
,
1000
0000
0000
0000
,
0010
0000
0000
0000
,
1000
0000
0000
0000
,
0010
0000
0000
0000
,
0100
0000
0000
0000
,
0001
0000
0000
0000
,
0001
0000
0000
0000
,
0001
0000
0000
0000
,
1000
0000
0000
0000
,
0010
0000
0000
0000
,
0010
0000
0000
0000
,
0010
0000
0000
0000
,
1000
0000
0010
0000
,
1000
0000
0000
0000
;

//--------------- dance-single - K. Ward ----------------
#NOTES:
     dance-single:
     K. Ward:
     Easy:
     5:
     0.243,0,0.205,0,0:
0000
0000
0000
0000
,
0000
0000
0000
0000
,
0000
0000
0000
0000
,
0000
0000
0000
0000
,
0000
0000
0000
0000
,
1000
0000
0001
0000
,
1000
0000
0001
0000
,
1000
0000
0100
0000
,
1000
0000
0000
0000
,
0001
0000
1000
0000
,
0001
0000
1000
0000
,
0001
0000
0010
0000
,
0001
0000
0000
0000
,
1000
0000
1000
0000
,
0100
0000
0100
0000
,
1000
0000
1000
0000
,
0100
0100
0100
0000
,
1000
0000
0001
0000
,
0100
0000
0010
0000
,
1000
0000
0001
0000
,
1001
0000
0000
0000
,
1000
0000
0001
0000
,
1000
0000
0000
0000
,
0001
0000
1000
0000
,
0001
0000
0000
0000
,
1000
0000
0100
0000
,
1000
0000
0100
0000
,
1000
0000
0010
0000
,
1000
0000
0000
0000
,
1000
0100
0010
0000
,
0010
0000
0000
0000
,
0001
0100
0010
0000
,
0010
0000
0000
0000
,
1000
0001
0001
0000
,
0001
1000
1000
0000
,
1001
0000
1001
0000
,
1001
0000
0000
0000
,
1000
0000
0010
0000
,
1000
0000
0001
0000
,
1000
0010
0010
0010
,
1000
0000
0001
0000
,
0001
0000
0100
0000
,
0001
0000
1000
0000
,
0001
0100
0100
0100
,
0001
0000
1000
0000
,
1000
1100
0000
0000
,
0001
0011
0000
0000
,
1100
0000
0011
0000
,
1001
0000
0000
0000
,
1010
0000
0000
0000
,
0101
0000
0000
0000
,
1010
0000
0101
0000
,
1001
0000
0000
0000
,
1000
1000
1000
1000
,
1000
1000
1000
1000
,
1000
1000
1000
1000
,
1000
1000
1001
0000
,
0001
0001
0001
0001
,
0001
0001
0001
0001
,
0001
0001
0001
0001
,
0001
0001
1001
0000
,
0100
0000
0110
0000
,
0010
0000
0110
0000
,
1000
0000
1001
0000
,
0001
0000
1001
0000
,
1000
0000
0110
0000
,
0010
0000
0110
0000
,
1000
0000
1001
0000
,
0001
0000
1001
0000
,
1000
0100
1000
0000
,
0010
0100
0010
0000
,
1000
0100
0100
0100
,
1000
0000
0001
0000
,
0001
0010
0001
0000
,
0100
0010
0100
0000
,
0001
0010
0010
0010
,
0001
0000
1001
0000
,
0001
0000
0100
0000
,
0001
0000
1000
0000
,
0001
0100
0100
0100
,
0010
0000
1000
0000
,
0010
0000
0100
0000
,
0001
0000
0010
0000
,
0001
0100
0100
0100
,
0010
0000
0100
0000
,
0001
0000
0000
0000
;

//--------------- dance-single - K. Ward ----------------
#NOTES:
     dance-single:
     K. Ward:
     Medium:
     7:
     0.392,0,0.057,0.156,0:
0000
0000
0000
0000
,
0000
0000
0000
0000
,
0000
0000
0000
0000
,
0000
0000
0000
0000
,
0000
0000
0000
0000
,
0100
1000
0010
0000
0110
0000
0000
0000
,
0001
0010
0001
0000
0011
0000
0000
0000
,
1000
0010
0100
0001
,
0010
0001
0001
1000
,
0001
0100
0010
0000
0110
0000
0000
0000
,
0010
1000
0100
0000
0110
0000
0000
0000
,
0001
1000
0100
0000
1000
0000
0010
0000
,
0100
0001
0010
0000
0001
0000
0001
0000
,
1000
0000
0100
1000
0100
0000
0100
0000
,
1000
0000
1000
0010
0100
0000
0100
0000
,
0001
0000
1000
0000
,
0001
0010
0010
0001
,
1000
0010
0100
0000
0100
0000
0000
0000
,
0001
0010
0001
0000
0001
0000
0000
0000
,
1000
0010
1000
0010
1000
0000
0001
0000
,
0001
0000
0010
0001
0020
0000
0000
0000
,
0031
0001
0200
0301
,
1000
0000
1000
0010
2000
0000
3001
0000
,
0100
0001
1000
0010
,
0100
0000
0001
0000
0010
0001
0010
0000
,
0001
0100
0020
0000
,
1030
0010
0200
0000
,
0301
0010
0001
1000
,
0010
0100
0001
0001
,
0100
0010
1000
0000
1000
0000
0000
0000
,
0010
0100
0001
0010
0001
0000
0000
0000
,
1000
0010
0100
0001
,
0001
1000
0001
0001
,
0001
0010
0001
0010
0001
0000
0000
0000
,
0001
0010
0001
0010
0001
0000
0000
0000
,
0100
0010
0100
0010
,
1000
0100
0100
1000
,
2000
0000
3020
0000
,
0230
0000
0302
0000
,
1003
0010
0100
0002
,
0000
0013
0000
0001
0100
0000
0100
0000
,
0002
0000
0203
0000
,
0320
0000
2030
0000
,
3001
0100
0010
2000
,
0000
3100
0000
1000
0010
0000
0100
0000
,
0001
0001
0011
0000
,
1000
1000
1100
0000
,
0001
0100
0010
1000
,
1000
0010
0100
0001
,
0001
0100
0020
0000
,
1030
0100
2000
0000
,
3001
0001
1000
1000
,
0010
0100
0001
0010
,
0001
0001
0000
0000
,
1000
1000
0100
0000
,
1000
1000
0000
0000
,
0010
0010
0010
0000
,
1000
0100
1000
0000
1000
0000
0000
0000
,
1000
0100
1000
0000
0100
0000
0000
0000
,
1000
0010
1000
0000
1000
0000
0000
0000
,
0001
0010
0001
0000
0001
0000
0000
0000
,
0100
0010
0100
0001
,
0100
0010
1000
0010
,
0100
0010
1000
0001
,
0010
0000
0001
0010
0001
0000
0000
0000
,
1000
1000
0100
1000
,
0010
0010
1000
0000
,
1000
1000
0001
0100
,
0010
1000
0010
0000
0010
0000
0000
0000
,
1000
1000
0100
1000
,
1000
1000
0010
0100
,
0100
0001
0010
0010
,
0010
0001
0001
0000
,
1000
1000
0100
1000
,
1000
1000
0010
0100
,
0100
0001
0010
0010
,
0010
0001
0001
0000
,
0001
0100
0010
1000
,
1000
0010
0100
0001
,
0001
1000
0001
1000
,
0010
0100
0010
0010
,
1000
0001
1000
0001
,
0100
0010
0100
0001
,
1000
0100
1000
0000
0010
0000
0100
0000
,
0001
0010
0001
0000
0100
0000
0001
0000
,
2002
0000
0000
0000
,
3003
0000
0000
0000
;

//--------------- dance-single - K. Ward ----------------
#NOTES:
     dance-single:
     K. Ward:
     Hard:
     12:
     0.624,0,0.385,0.115,0.09:
0000
0000
0000
0000
,
0000
0000
0000
0000
,
0000
0000
0000
0000
,
0000
0000
0000
0000
,
0000
0000
0000
0000
,
1000
0001
0100
0010
1000
0000
1100
0000
,
0100
1000
0010
0100
0001
0000
0011
0000
,
0001
0100
0010
0000
0100
0010
1000
0000
,
0001
0100
0010
1000
0100
0000
1100
0000
,
0100
1000
0010
0100
0001
0000
0011
0000
,
0010
0001
0100
0010
1000
0000
1100
0000
,
0010
0100
0001
0100
0001
0000
0001
0000
,
1000
0100
1000
0000
1100
0000
0110
0000
,
0001
0010
0100
0010
0002
0000
0100
0000
,
0103
0010
1000
0100
0020
0000
0001
0000
,
0031
0100
0010
1000
0100
0000
1000
0000
,
0100
0010
0100
0000
1000
0000
1000
0000
,
0001
0001
0010
0000
0001
0000
0100
0000
,
0010
0010
1000
0000
0100
0000
1000
0000
,
0100
0100
1000
0000
0010
0000
0100
0000
,
0001
0000
0000
0010
0001
0000
0000
0000
0100
0000
0000
0000
0010
0000
0000
0000
,
1000
0001
0010
0001
0100
1000
0100
0000
,
0001
1000
0100
1000
0010
0001
0010
0000
,
1000
0001
0010
0001
0100
1000
0100
0000
,
0001
1000
0100
1000
0010
0001
0100
0000
,
1000
1000
1000
1000
1000
0000
0010
0000
,
0100
0100
0100
0100
0100
0000
0010
0000
,
1000
1000
1000
0000
0001
0001
0001
0000
,
1000
0100
0010
0001
0010
0100
1000
0000
,
0001
0001
0001
0001
0001
0000
0100
0000
,
0010
0010
0010
0010
0010
0000
0100
0000
,
0001
0001
0001
0000
1000
1000
1000
0000
,
0001
0010
0100
1000
0100
0010
0001
0000
,
1000
0010
1000
0100
1000
0000
1100
0000
,
0001
0010
0001
0100
0001
0000
0011
0000
,
1010
0101
1010
0101
,
1100
1100
0000
0011
0011
0000
1100
0000
,
0001
0010
0001
0100
0001
1000
0001
0100
,
0001
0010
0001
0100
0001
1000
0001
0010
,
0001
0100
0010
1000
0010
0100
0002
0000
,
0000
0000
0103
0000
0000
0000
0010
0000
1000
000M
00M0
0M00
0002
M000
0000
0000
,
1003
0100
1000
0010
1000
0001
1000
0010
,
1000
0100
1000
0010
1000
0001
1000
0100
,
1000
0010
0100
0001
0100
0010
2000
0000
,
0000
0000
3010
0000
0000
0000
0100
0000
0001
M000
0M00
0000
20M0
000M
0000
0000
,
3001
0010
0001
0100
0010
0000
1000
0000
,
0010
0000
1000
0000
0010
0000
0100
0000
0001
0000
0000
0000
0100
0000
0000
0010
,
1000
0000
0000
0100
0000
0000
0010
0000
0000
0001
0000
0000
0010
0000
0000
0000
0000
0000
0100
00M0
0000
0000
0000
0000
,
0010
0M00
0000
0000
0000
0000
0001
00M0
0000
0000
0000
0000
1000
000M
0000
0000
0000
0000
0010
M000
0000
0000
0000
0000
,
1000
0001
0100
1000
0100
0000
0001
0000
,
0010
0001
0100
1000
0100
0000
0010
0000
,
0100
0001
0010
0001
0100
0000
0001
0000
,
0011
0000
0000
0000
1010
000M
0000
MM00
0011
0000
0000
0M00
1010
0000
0M0M
0000
,
1000
0010
0000
0010
0110
0000
0MM0
0000
,
0001
0100
0000
0100
0020
0000
1030
0000
,
0001
0000
0010
0000
0000
0000
0001
0000
0011
0000
0000
0000
0000
00MM
0000
0000
,
1000
0000
1000
0000
0000
M000
0010
0000
0100
0000
0001
0000
0011
0000
0000
0000
,
1000
1100
0000
1000
1100
0000
M000
0000
,
0100
0000
0010
0000
0000
0000
0010
0000
0100
0000
1000
0100
1000
0000
0000
0000
,
0001
0000
0011
0000
0000
0000
0100
0000
0110
0000
0000
0000
0000
0MM0
0000
0000
,
1100
1100
0000
0010
2000
0000
3002
0000
,
0013
0000
0010
0001
0010
0001
0010
0000
,
0010
0000
0010
0100
0010
0100
0010
0000
,
0100
0000
0100
1000
0100
1000
0100
0000
,
1000
0000
1000
0100
1000
0100
1100
0000
,
1000
0010
0001
0010
1000
0000
1010
0000
,
0010
0001
0100
1000
1100
0000
0101
0000
,
0100
0001
0100
1000
0100
0000
0011
0000
,
0100
0010
1000
0001
0101
0000
0011
0000
,
1000
0010
0100
0010
1000
0100
1000
0010
,
0100
0010
1000
0100
1000
0100
0020
0000
,
0031
0100
0010
0100
0001
0010
0001
0100
,
0010
0100
0001
0010
0001
0010
0200
0000
,
1300
0010
0110
0000
1000
0010
0110
0000
,
1000
0000
0001
0000
0100
0000
0010
0000
1000
0000
0001
0000
0001
0000
0000
0001
,
1000
0010
0100
0000
0001
0100
0010
0000
,
1000
0100
1000
0010
0100
0001
0020
0000
,
0031
0000
1000
0010
0100
0000
0010
0000
,
1000
0000
0010
0100
0001
0000
0100
0000
,
0010
1000
0010
0100
0001
0000
0010
0000
,
0001
0011
0000
0100
0110
0000
0100
0000
,
0001
0000
0000
0010
0000
0000
0001
0000
0000
0000
0000
0000
0011
0000
0000
0000
0000
0000
0000
00MM
0000
0000
0000
0000
,
0100
0000
0000
1000
0000
0000
0100
0000
0000
0000
0000
0000
1100
0000
0000
0000
0000
0000
0000
MM00
0000
0000
0000
0000
,
0100
0001
0100
0000
0001
0100
0010
0100
,
0001
1100
0010
1100
,
2002
0000
0000
0000
,
3003
0000
0000
0000
;

//--------------- dance-single - M. Emirzian ----------------
#NOTES:
     dance-single:
     M. Emirzian:
     Challenge:
     14:
     0.735,0,0.385,0.229,0.004:
0000
0000
0000
0000
,
0000
0000
0000
0000
,
0000
0000
0000
0000
,
1000
0100
0001
0100
1000
0100
0001
0100
,
1000
0010
0100
0001
0010
0100
1000
0000
,
MM01
0100
1000
0100
0001
0010
0001
0100
,
0010
1000
0100
0010
0001
0100
0020
0M00
,
1030
0010
0001
0010
1000
0100
0010
0000
,
0011
0000
0001
0010
1000
0000
MM11
0000
,
0100
1000
0100
0001
0010
0001
0100
0010
,
1000
0100
0001
0100
1000
0010
1000
00M0
,
0001
0010
1000
0010
0001
0000
1100
0000
,
1000
0100
0001
0000
1100
0000
0110
0000
,
0MM1
0100
1000
0100
0001
0010
1000
0010
,
0001
1000
0010
0100
0001
0010
0200
0000
,
1300
0010
0001
0010
1000
0100
0001
0000
,
0100
1000
0010
0000
0011
0000
1010
0000
,
M1M0
0001
0010
0100
0010
0001
0100
1000
,
0100
0010
1000
0100
0010
0001
0200
000M
,
0310
1000
0100
0010
0100
1000
0001
0000
,
1010
0000
0000
1000
0100
0000
M000
0000
0011
0000
0000
0000
0201
0000
0000
0000
,
031M
1000
0100
0001
0100
1000
0010
0100
,
0001
0010
0100
0010
0001
0100
1000
0M00
,
1000
0100
0001
0010
1000
0010
0001
1000
,
0010
1000
0100
0010
0001
0100
0020
0M00
,
0130
1000
0100
0001
1000
0100
0010
0001
,
0100
0001
0010
0100
0010
0001
1000
000M
,
0001
0010
1000
0010
0100
1000
0010
0001
,
0010
1000
0001
0010
1000
0010
0001
00M0
,
1000
0100
0001
0000
1100
0000
1020
0000
,
1030
0010
0001
0000
1010
0000
1200
0000
,
0301
0100
1000
0100
0001
0100
0010
0001
,
1000
0010
0100
0010
1000
0100
0002
0M00
,
0103
1000
0010
0100
0010
1000
0100
0010
,
0001
0100
0010
0100
0001
0010
0200
00M0
,
0310
0001
0010
0100
1000
0010
0100
0001
,
0100
0010
1000
0100
0010
0100
2000
0M00
,
3010
0001
0010
0100
0001
0100
1000
0M00
,
1000
0100
0010
1000
0100
0010
0100
00M0
,
1000
0010
0100
0001
0010
0100
1000
0100
,
0010
0001
0000
0100
1001
0000
0021
0000
,
0031
0100
0010
0100
0001
0010
0100
00M0
,
1000
0010
0100
0001
0010
0100
1000
000M
,
0010
1000
0100
0010
0001
0100
0001
0010
,
0100
1000
0000
0001
0110
0000
1020
0000
,
1030
0010
0001
0010
1000
0010
0001
0100
,
1000
0100
0001
0010
1000
0010
0002
00M0
,
1003
0100
0010
0001
0100
0010
0100
0001
,
1100
0011
0101
1020
,
1030
0001
0010
0100
1000
0100
0010
0001
,
0100
0010
1000
0010
0100
0001
2000
000M
,
3010
0001
0010
1000
0100
0010
0001
0100
,
0011
1100
1010
0101
,
1001
0100
0001
0100
1000
0010
0100
0000
,
0110
1000
0010
0001
0010
1000
0001
0000
,
0011
0100
0010
1000
0100
0001
1000
0010
,
0001
1000
0010
0100
0001
0100
0010
0000
,
1001
0010
1000
0010
0001
0100
1000
0000
,
0101
1000
0010
0100
0010
1000
0100
0000
,
0011
1000
0010
0001
0100
0010
0100
0001
,
1000
0100
0010
0001
0010
0100
1000
0000
,
1000
0010
0100
0010
1000
0001
0010
0000
,
0010
1000
0100
0010
0100
1000
0010
0000
,
0010
0001
0100
1000
0100
0001
0010
1000
,
0010
0001
0100
0010
1000
0100
0020
0000
,
0031
0100
1000
0100
0010
1000
0100
0000
,
0100
0010
1000
0100
0010
0001
0100
0000
,
0100
1000
0010
0100
0001
1000
0100
0010
,
0100
1000
0100
0001
0100
1000
0010
0000
,
0201
0000
0301
0100
1000
0000
1000
0100
,
0001
0012
0100
1003
,
1020
0000
1030
0010
0001
0000
0001
0010
,
1000
1200
0001
1300
,
0021
0000
0031
0010
1000
0000
1000
0010
,
0001
0201
1000
0301
,
0101
0000
0001
0100
1000
0000
1000
0100
,
0001
1010
11MM
MM11
,
0001
0010
0100
0010
0001
1000
0010
0100
,
1000
0100
0010
1000
0001
0100
0002
0M00
,
0013
0100
1000
0010
1000
0100
0010
0001
,
1000
0010
0100
0001
0010
0100
1000
0000
,
1020
0000
1030
0010
0001
0000
0001
0010
,
1000
0000
1100
0000
0201
0000
0301
0100
,
1000
0000
1000
0100
0001
0000
1000
0010
,
0001
0000
2010
0000
3001
0100
1000
0000
,
0022
0000
0000
0000
,
0033
0000
0000
0000
;

//--------------- dance-double - M. Emirzian ----------------
#NOTES:
     dance-double:
     M. Emirzian:
     Easy:
     4:
     0.298,0,0.147,0.156,0:
00000000
00000000
00000000
00000000
,
00000000
00000000
00000000
00000000
,
00000000
00000000
00000000
00000000
,
00100000
00000000
00001000
00000000
,
00010000
00000010
00001000
00000100
,
00000020
00000000
00000031
00000000
,
00001000
00000100
00000000
00000000
,
00020000
00000000
00031000
00000000
,
00010000
00000100
00000000
00010000
,
00002000
00000000
00103000
00000000
,
01000000
10000000
00000000
00100000
,
02000000
00000000
03001000
00000000
,
00010000
00000010
00001000
00000000
,
00002000
00000000
00003100
00000010
,
00000000
00000001
00000100
00000010
,
00000000
00010000
00001000
00200000
,
01000000
01000000
01300000
00000000
,
02000000
00000000
13000000
00000000
,
00020000
00000000
01030000
00001000
,
00010000
00000000
00000100
00001000
,
00000002
00000100
00000103
00000000
,
00000000
00000010
00010000
00001000
,
00000000
01000000
00010000
10000000
,
00000000
01000000
01000000
00000000
,
00110000
00000000
00001000
00000000
,
00000000
00010000
00000100
00001000
,
00000000
00000010
00000100
00000001
,
00000000
00000100
00000100
00000000
,
00001010
00000000
00000100
00000000
,
00000000
00010000
00001000
01000000
,
00000000
00100000
10000000
01000000
,
00000000
00100000
00100000
00000000
,
00110000
00000000
00001000
00000000
,
01000000
00000000
01001000
00000000
,
00011000
00000000
00010100
00000000
,
00001100
00000000
00001010
00000000
,
00000100
00000001
00001000
00000000
,
00000100
00000000
00001100
00000000
,
00011000
00000000
00101000
00000000
,
00110000
00000000
01000000
00100000
,
10000000
00000000
01000000
00000000
,
00200000
00000000
00301000
00000000
,
00010000
00000100
00001000
00000000
,
00000020
00000000
00000130
00000000
,
00000001
00000010
00000100
00000000
,
00010000
00001000
01000000
00000000
,
00010000
00100000
01000000
00000000
,
10000000
00100000
01000000
00000000
,
00001000
00010000
00000100
00000000
,
00000200
00000000
00000310
00000000
,
00000001
00000100
00000010
00000000
,
00000100
00000010
00010000
00000000
,
00001000
00101000
00100000
00000000
,
02000000
10000000
13000000
00000000
,
00020000
00100000
00130000
00000000
,
00002000
00010000
00013000
00000000
,
00000200
00001000
00001300
00000100
,
00000010
00000000
00000001
00000000
,
00000002
00001000
00001003
00000000
,
00000100
00000000
00010000
00000000
,
00001000
00010000
00001000
00000000
,
01000000
00000000
00100000
10000000
,
00010000
00000000
01000000
00000000
,
00001000
00010000
00011000
00000000
,
00000100
00000010
00000001
00000000
,
00000100
00000000
00000010
00000000
,
00010000
00001000
01000000
00001000
,
00010000
00000000
00001000
00000000
,
01000000
00100000
10000000
00000000
,
00010000
00000000
00100000
00000000
,
00001000
00000000
00011000
00000000
,
00000010
00000000
00000100
00000000
,
00000001
00000100
00000010
00000000
,
00010010
00000000
00001000
00000000
,
00010000
00001000
00100000
00000000
,
01000000
10000000
00100000
00000000
,
01000000
00001000
00011000
00000000
,
00000010
00000000
00001000
00000000
,
00000100
00000000
00000010
00000001
,
00001000
00000000
00000100
00000000
,
00010000
00001000
01000000
00000000
,
00100000
10000000
00010000
00000000
,
00100000
00001000
00010000
00000000
,
00000100
00000010
00000001
00000000
,
00000100
00000010
00010000
00001000
,
00022000
00000000
00000000
00000000
,
00033000
00000000
00000000
00000000
;

//--------------- dance-double - M. Emirzian ----------------
#NOTES:
     dance-double:
     M. Emirzian:
     Medium:
     6:
     0.388,0,0.246,0.106,0:
00000000
00000000
00000000
00000000
,
00000000
00000000
00000000
00000000
,
00000000
00000000
00000000
00000000
,
00010000
00000000
00000100
00000000
,
00000010
00000001
00000100
00000010
,
00010000
00000000
00000000
00001000
00000000
00000000
00000000
00000000
,
01000000
00000000
00010000
00100000
00000000
00000000
00000000
00000000
,
10010000
00000000
00100000
01000000
,
00001000
00010000
00000100
00000000
,
00000010
00000000
00000000
00000001
00000000
00000000
00000000
00000000
,
00000100
00000000
00000010
00001000
00000000
00000000
00000000
00000000
,
00001001
00000000
00000100
00010000
,
00001000
01000000
00100000
00000000
,
10000000
00000000
00000000
01010000
00000000
00000000
00000000
00000000
,
00100000
00000000
00000000
01001000
00000000
00000000
00000000
00000000
,
00001000
00000000
00000000
00011000
00000000
00000000
00000000
00000000
,
00010000
00000000
00010010
00001000
,
00000001
00000000
00000100
00000010
00000000
00000000
00000000
00000000
,
00010000
00000000
00000000
00001000
00000000
00000000
00010000
00000000
,
00000010
00000000
00010000
00001000
00000000
00000000
01000000
00000000
,
00001000
00100000
01000000
10000000
,
00010000
00000000
01010000
00000000
,
00001000
00010000
00000100
00000000
,
00000010
00000000
00000110
00000000
,
00000001
00000100
00000010
00001100
,
00010000
00000000
00010100
00000000
,
00100000
00010000
01000000
00000000
,
00100000
10000000
00010000
00100000
,
01000000
10000000
00110000
00001000
,
00010000
00000000
00000100
00000000
,
00001000
00000010
00000100
00000000
,
00000001
00000000
00000010
00000000
,
00000100
00001000
00000010
00000000
,
00010000
00000100
00001000
00000010
,
00010000
00001000
01000000
00100000
,
10000000
00100000
10000000
01000000
,
00100000
00001000
00010000
00001000
,
00010010
00000100
00000001
00000100
,
00000010
00010000
00000100
00010000
,
00001000
00010000
00001000
01000000
,
00000000
01001000
00000000
00100000
00001000
00000000
00100000
00000000
,
01000000
10000000
00100000
01000000
,
00010000
00100000
00001000
00010000
,
00000010
00000100
00000001
00000100
,
00000000
00001001
00000000
00000010
00001000
00000000
00000100
00000000
,
00001000
00000010
00010000
00001000
,
01000000
00100000
10000000
00000000
,
01000000
00100000
00001000
00010000
,
00000100
00001000
00001001
00000110
,
00000100
00000010
00010000
00001000
,
00100000
01000000
10000000
00100000
,
01100000
01000000
00001000
00010000
,
00000100
00000010
00001001
00000011
,
00000012
00000010
00000010
00000003
,
00001200
00001000
00001000
00000300
,
00012000
00010000
00010000
00003000
,
01002000
01000000
01000000
00013000
,
00000000
01020000
01000000
01000000
,
00030000
10200000
10000000
00300000
,
10020000
10000000
10000000
00030000
,
00102000
00100000
00100000
00013000
,
00000200
00000000
00000310
00000000
00000001
00000100
00000000
00000000
,
00000010
00000000
00010000
00000000
00001000
00010000
00000000
00010000
,
00001000
00000000
01000000
00000000
00010000
01000000
00000000
01000000
,
00020000
01000000
01000000
10030000
,
00100000
00000000
01000000
00000000
00001000
00010000
00000000
00010000
,
00001000
00000000
00010000
00000000
00000100
00000010
00000000
00000010
,
00000100
00000000
00001000
00000000
00000001
00000100
00000000
00000100
,
00000002
00000100
00000100
00001003
,
00000010
00001000
00000100
00010000
,
00001000
00000000
00011000
00000000
,
01000000
00001000
00100000
00010000
,
10000000
00010000
10000000
00000000
00010000
10000000
00010000
00000000
,
01000000
00001000
00010000
00000000
,
00010000
00000100
00010000
00000000
00001000
00000000
00000000
00000000
,
00010000
00000100
00000010
00000000
,
00000001
00001000
00000001
00000000
00001000
00000000
00000100
00000000
,
00010000
00000100
00001000
00000000
,
00000001
00000100
00000010
00000000
00010000
00000000
00000000
00000000
,
00001000
01000000
00010000
00000000
10000000
00000000
01000000
00000000
,
00000000
00100000
00000000
00001000
00010000
00000000
00001000
00000000
,
00010000
00000010
00000100
00000000
,
00000100
00000001
00001000
00000000
00001010
00000000
00000000
00000000
,
00000001
00000000
00000010
00000000
00000100
00000000
00000000
00010000
,
00001000
01000000
00100000
10000000
,
20020000
00000000
00000000
00000000
,
30030000
00000000
00000000
00000000
;

//--------------- dance-double - M. Emirzian ----------------
#NOTES:
     dance-double:
     M. Emirzian:
     Hard:
     8:
     0.575,0,0.753,0.164,0.004:
00000000
00000000
00000000
00000000
,
00000000
00000000
00000000
00000000
,
00000000
00000000
00000000
00000000
,
00000010
00010000
00001000
01000000
,
00100000
10000000
11000000
00110000
,
10000000
01000000
00100000
00001000
00000000
00000000
00011000
00000000
,
00010000
00000100
00001000
00000010
00000000
00000000
00000101
00000000
,
00000010
00000100
00001000
00000010
00010000
00000000
00010100
00000000
,
00001000
01000000
00100000
10100000
,
01000000
00010000
00100000
00001000
00000000
00000000
01001000
00000000
,
00010000
00000010
00001000
00000100
00000000
00000000
00000011
00000000
,
00000010
00000100
00001000
00000001
00000100
00000000
00001010
00000000
,
00000100
00010000
00001000
00000000
01001000
00000000
01010000
00000000
,
01000000
00100000
10000000
01000000
00000000
00000000
00110000
00000000
,
00001000
01000000
00001000
00010000
00000000
00000000
00010010
00000000
,
00000100
00001000
00000010
00000100
00000000
00000000
00000101
00000000
,
00000010
00001000
00000100
00000000
00010100
00000000
00011000
00000000
,
00001000
01000000
00010000
10000000
00000000
00000000
10100000
00000000
,
01000000
00100000
00010000
01000000
00000000
00000000
00101000
00000000
,
00010000
01000000
00001000
00010000
00000010
00000000
00001100
00000000
,
00000010
00000000
00000000
00000001
00001000
00000000
00000000
00000000
00000101
00000000
00000000
00000000
00001001
00000000
00000000
00000000
,
00000001
00001000
00000100
00000010
00000000
00000100
00010000
00000000
,
00000010
00010000
00001000
01000000
00000000
00001000
00010000
00000000
,
00001000
01000000
00100000
10000000
00010000
00000000
00100000
00000000
,
11000000
00110000
20020000
30030000
,
M01M0000
01000000
00001000
00010000
00000000
00001000
00100000
00000000
,
00001000
00010000
00000100
00001000
00000000
00000010
00010000
00000000
,
00001000
00010000
00000100
00010000
00001000
00000000
00010000
00000000
,
00010100
00001100
00000022
00000033
,
0000010M
00000010
00010000
00001000
00000000
00010000
00000010
00000000
,
00001000
00000100
00010000
00001000
00000000
00100000
00001000
00000000
,
00010000
00001000
01000000
00001000
00010000
00000000
00001000
00000000
,
00101000
00110000
22000000
33000000
,
1M000000
00010000
00100000
00000000
00101000
00000000
00000000
00000000
,
00010000
00000100
00001000
00000000
00010100
00000000
00000000
00000000
,
00000010
00000100
00000001
00000000
00001010
00000000
00000100
00000000
,
00001001
00001100
00020200
00030300
,
000M1M00
00010000
00001000
01000000
,
00100000
10000000
00010000
00000000
00100000
00000000
01000000
00000000
,
10000000
00100000
01000000
00000000
00010000
00000000
00100000
00000000
,
00000000
00011000
00000000
00000100
00010100
00000000
00001000
00000000
,
00000010
00000100
00000001
00000000
00000010
00000000
00000100
00000000
,
00001000
00000010
00010000
00000000
00001000
00000000
01000000
00000000
,
00001000
00010000
00000100
00000000
00010000
00000000
00001000
00000000
,
00000000
00101000
00000000
00100000
00110000
00000000
01000000
00000000
,
10000000
00100000
01000000
00000000
00010000
00000000
00100000
00000000
,
00001000
00010000
00000010
00000000
00010000
00000000
00001000
00000000
,
00010000
00000100
00001000
00000000
00000010
00000000
00000100
00000000
,
00000001
00000011
00001100
00000010
,
00000100
00000001
00000010
00000100
,
00010000
00001000
00100000
00000000
00010000
00000000
01000000
00000000
,
00100000
10000000
00010000
00000000
01000000
00000000
00100000
00000000
,
10000000
01000000
00110000
00101000
,
00012000
00100000
00010000
00103000
,
00021000
00000010
00001000
00030010
,
00010020
00001000
00010000
00001030
,
00002001
00000100
00000001
00003100
,
00001020
00010000
00001000
00010030
,
00021000
00001000
00030100
00010100
,
00012000
01000000
00010000
01003000
,
02010000
00010000
00001000
03010000
,
01000000
00100000
10000000
01000000
00000000
00000000
00110000
00000000
,
00100000
00001000
00010000
00000010
00000000
00000000
00001100
00000000
,
00000010
00000001
00001000
00000100
00000000
00000000
00010000
00000000
,
00001020
00010000
00001000
00010030
,
00001000
01000000
00010000
00100000
00000000
00000000
11000000
00000000
,
00100000
01000000
00010000
10000000
00000000
00000000
00101000
00000000
,
00010000
01000000
00001000
00010000
00000000
00000000
00000010
00000000
,
00001200
00010000
00001000
00010300
,
00001100
00000000
00000000
00000011
00000000
00000000
00000101
00000000
,
00001001
00000000
00000000
00001100
00000000
00000000
00010100
00000000
,
00011000
00000000
00000000
01001000
00000000
00000000
01010000
00000000
,
10010000
00000000
00000000
00110000
00000000
00000000
00101000
00000000
,
00011000
00000000
00000000
00010010
00000000
00000000
00001010
00000000
,
00001001
00000000
00000000
00001100
00000000
00000000
00010100
00000000
,
00011000
00000000
00000000
01001000
00000000
00000000
01010000
00000000
,
10010000
11000000
00110000
11000000
,
01000000
00100000
00001000
00000000
00010000
00000000
00101000
00000000
,
00001000
00010000
00000010
00000000
00001000
00000000
00010100
00000000
,
00000100
00001000
00000010
00000000
00000100
00000000
00000001
00000000
,
00000000
00001100
00000000
00000100
00010100
00000000
00011000
00000000
,
00001000
01000000
00010000
00000000
10000000
00000000
11000000
00000000
,
00100000
00001000
00010000
00000000
00000100
00000000
00001001
00000000
,
00000010
00000100
00001000
00000000
00000001
00000100
00000010
00010000
,
00000000
00001000
01000000
00000000
00100000
10000000
01000000
00MM0000
,
00220000
00000000
00000000
00000000
,
00330000
00000000
00000000
00000000
;

//--------------- dance-double - M. Emirzian ----------------
#NOTES:
     dance-double:
     M. Emirzian:
     Challenge:
     9:
     0.728,0,1,0.098,0.008:
00000000
00000000
00000000
00000000
,
00000000
00000000
00000000
00000000
,
00000000
00000000
00000000
00000000
,
10000000
01000000
00100000
00010000
01000000
00001000
00010000
00000100
,
00000010
00000001
00000100
00000010
00010000
00001000
01000000
00000000
,
01100000
00100000
10000000
01000000
00100000
000M0000
00110000
00000000
,
01001000
00010000
00100000
00001000
00010000
00000M00
00010100
00000000
,
00001010
00000100
00000001
00000010
00000100
00000000
00010000
00000000
,
00011000
00100000
01001000
10010000
,
01010000
10000000
01000000
00100000
00001000
0M000000
01001000
00000000
,
00010010
00001000
00000100
00000010
00000001
000000M0
00000011
00000000
,
00001100
00000001
00000100
00000010
00010000
00001000
01000000
00000000
,
00011000
01001000
01010000
00000000
10010000
00000000
11000000
00000000
,
00110000
01000000
00100000
10000000
00010000
00M00000
01100000
00000000
,
01001000
00010000
00100000
00001000
00010000
00000M00
00010100
00000000
,
00001010
00000001
00000010
00000100
00010000
00000000
00001000
00000000
,
00011000
00010010
00001010
00000000
00001001
00000000
00000101
00000000
,
00001010
00000100
00000010
00010000
00001000
0M000000
01001000
00000000
,
00110000
01000000
10000000
00100000
01000000
000M0000
01010000
00000000
,
00101000
00010000
01000000
00001000
00010000
00000100
00000010
00000001
,
00001000
00000000
00000000
00000010
00000100
00000000
00000000
00000MM0
00011000
00000000
00000000
00000000
10010000
00000000
00000000
00000000
,
10000000
01000000
00100000
00001000
01000000
00001000
00010000
00000000
,
00011000
00000100
00010000
00001000
00000010
00000000
00001001
00000000
,
00001000
00000100
00010000
00000010
00010000
00001000
00100000
00010000
,
00101000
00000000
01010000
00000000
10100000
10010000
01100000
00000000
,
10000000
00100000
01000000
00001000
00100000
00001000
00010000
00000000
,
00011000
00000010
00001000
00000100
00000010
00000000
00001001
00000000
,
00000100
00000010
00010000
00001000
00000100
00000001
00001000
00000100
,
00001100
00000000
00010010
00000000
00011000
00101000
00110000
00000000
,
01000000
00100000
10000000
01000000
00100000
00001000
01000000
00000000
,
00011000
00001000
00100000
00001000
00010000
00000000
00010010
00000000
,
00010000
00000100
00010000
00000010
00001000
00000001
00000010
00000100
,
00001001
00011000
10010000
01100000
,
10000000
00010000
01000000
00001000
00100000
00010000
01000000
00000000
,
01001000
00001000
00010000
00000010
00001000
00000000
00000110
00000000
,
00000010
00000001
00000100
00000010
00010000
00001000
01000000
00001000
,
00011000
00000000
00010010
00000000
00000101
00000000
00001010
00010010
,
00011000
00000000
00001000
01000000
00010000
01000000
00100000
00000000
,
10000000
01000000
00100000
00010000
00110000
00000000
11000000
00000000
,
10000000
00100000
01000000
00001000
00100000
00001000
01000000
00010000
,
00M0M000
00101000
00000000
00011000
00010100
00000000
00001010
00000000
,
00000100
00000001
00000010
00000100
00010000
00000000
00011000
00000000
,
00001000
01000000
00100000
10000000
11000000
00000000
00110000
00000000
,
00100000
00001000
01000000
00001000
00010000
00000010
00001000
00000100
,
000000MM
00000011
00000000
00001100
00010100
00000000
00101000
00000000
,
01000000
10000000
00100000
01000000
00001000
00000000
00000010
00000000
,
00000001
00001000
00000100
00000000
00000011
00000000
00001100
00000000
,
00000010
00001000
00000100
00010000
00100000
01000000
00001000
00100000
,
00011000
00000000
10010000
00000000
01100000
00000000
01010000
01001000
,
00011000
00000000
00000110
00000000
00000100
00000001
00000010
00000100
,
00001000
00000100
00010000
00001000
01000000
00100000
10010000
00000000
,
00100000
01000000
00001000
00000100
00000010
00001000
00000001
00000010
,
00001001
00011000
10010000
01100000
,
02001000
0010M000
00001000
03010000
,
00201000
0100M000
00010000
00301000
,
00010020
000M1000
00000001
00000130
,
00020010
000001M0
00030010
00101000
,
02010000
100M0000
00010000
03001000
,
00012000
000M0010
00013000
00010100
,
00010020
000M0100
00010000
00001030
,
00000201
0000100M
00000301
00010100
,
00010000
00001000
01000000
00100000
00000000
M0M00000
10100000
00000000
,
01000000
00100000
00001000
00010000
00000010
00000000
00000101
00000000
,
00000001
00000010
00000100
00001000
00000000
000M00M0
00010010
00000000
,
00021000
0100M000
00031000
10010000
,
01000000
00100000
00001000
00010000
00000000
0000M00M
00001001
00000000
,
00000010
00010000
00000100
00001000
00000010
00000000
00000101
00000000
,
00000001
00001000
00000100
00010000
00001000
00000000
01001000
00000000
,
02010000
000M1000
03100000
10010000
,
10000000
01000000
00100000
00010000
01010000
00000000
00101000
00000000
,
00011000
01001000
00011000
00010010
,
00000010
00001000
00000100
00000010
00000011
00000000
00001100
00010100
,
00011000
01001000
01100000
10100000
,
10000000
01000000
00100000
00010000
10010000
00000000
01001000
00000000
,
00010100
00000110
00000011
00001001
,
00000100
00000010
00010000
00001000
00010100
00000000
00101000
00000000
,
01000000
10000000
00010000
00000000
00011000
00000000
00000110
00000000
,
00001000
00000000
00000100
00000010
00000001
00000000
00010000
00001000
,
00100000
00000000
01000000
10000000
00100000
00000000
00010000
00000000
,
00000010
00001000
00000100
00000010
00001000
01000000
00100000
00000000
,
00010000
00001000
00100000
00010000
00000100
00000010
00001000
00000000
,
00000100
00000000
00000010
00010000
00100000
00000000
01000000
00010000
,
00000010
00000000
00000100
00000001
00000010
00000100
00001000
00000001
,
00001000
00000100
00000010
00001000
01000000
00100000
00010000
00001000
,
00000000
00010000
01000000
00000000
10000000
00200000
00020000
00000000
,
01001000
00000000
00000000
00330000
;

//--------------- lights-cabinet - ----------------
#NOTES:
     lights-cabinet:
     :
     Easy:
     1:
     1,0.139,1,0,0:
00000000
00000000
00000000
00000000
,
11110000
00000000
00000000
00000000
,
00000000
00000000
00000000
00000000
,
11110011
00000000
11110000
00000000
,
11110011
11110011
11110011
00000011
,
11000011
10000000
00100011
00000000
01100011
00000000
00000000
00000000
,
00010011
00100000
00010011
00000000
00110011
00000000
00000000
00000000
,
11000011
00100000
11000011
00010000
,
00110011
00010011
00010011
10000011
,
00110011
01000000
00100000
00000000
01100011
00000000
00000000
00000000
,
10100011
10000000
01000000
00000000
01100011
00000000
00000000
00000000
,
00010011
10000000
01000011
00000000
11000011
00000000
00100011
00000000
,
01100011
00010000
00100000
00000000
01010011
00000000
00010000
00000000
,
11000011
00000000
01000011
10000000
01010011
00000000
01000000
00000000
,
11000011
00000000
10000011
00100000
01100011
00000000
01000011
00000000
,
01010011
00000011
11000011
00000011
,
00010011
00100011
01100011
00010011
,
11000011
00100000
01000011
00000000
11000011
00000000
00000011
00000000
,
00010011
00100000
00010011
00000000
00010011
00000000
00000011
00000000
,
11000011
00100000
10000011
00100000
11000011
00000000
00010011
00000000
,
01010011
00000000
00100011
00010000
00110011
00000000
00000011
00000000
,
00010011
00010000
11000011
00010000
,
11000011
00000000
10000000
00100000
11000011
00000000
00010000
00000000
,
01100011
00010011
10100011
00100011
,
11000011
00000000
00010000
00000000
00110011
00010000
00100000
00000000
,
01010011
01000000
00110011
00000000
,
10100011
00100000
11000011
00000000
,
00010011
00100011
01010011
10000011
,
00110011
01000000
00010011
00010000
,
11000011
00100000
10000011
00000000
11000011
00000000
00000000
00000000
,
10100011
01000000
00010011
00100000
00010011
00000000
00000000
00000000
,
10100011
00100000
11000011
00010000
,
00010011
10000000
01010011
00010000
,
00010011
00100000
00010011
00100000
00010011
00000000
00000000
00000000
,
00110011
00100000
00010011
00100000
00010011
00000000
00000000
00000000
,
11000011
00100000
01100011
00100000
,
10100011
01000011
11000011
10000011
,
11000011
00000000
10100011
00000000
,
01100011
00000000
00010011
00000000
,
11000011
00100011
01100011
00010011
,
00000011
00100000
00000000
00010000
01100011
00000000
01000000
00000000
,
00010011
00000011
11000011
00000000
,
00110011
00000011
11000011
00000000
,
00010011
01000000
00100011
10000000
,
00000011
01000000
00000011
10000000
00110011
00000000
01000011
00000000
,
01010011
00010000
00110011
00000000
,
10100011
10000000
11000011
00000000
,
00010011
01000011
10100011
10000011
,
11000011
00100000
01010011
00010000
,
00110011
01000000
00110011
00000000
,
11000011
01000000
11000011
00000000
,
00010011
00010011
11000011
10000011
,
00110011
01000000
01010011
00100011
,
00010011
00010000
00000011
00000000
,
11000011
10000000
01100011
00000000
,
11000011
10000000
00000011
00000000
,
00100011
00100000
01100011
00000011
,
11000011
01000000
10000000
00000000
11000011
00000000
00000000
00000000
,
11000011
01000000
10000000
00000000
01010011
00000000
00000000
00000000
,
11000011
00100000
10000000
00000000
11000011
00000000
00000000
00000000
,
01010011
00100000
00010000
00000000
00010011
00000000
00000011
00000000
,
01010011
00100011
11000011
00010000
,
01100011
00100011
11000011
00100000
,
01100011
00100011
10100011
00010000
,
01100011
00000000
00010011
00100000
00010011
00000000
00000011
00000011
,
11000011
10000000
01100011
10000000
,
00100011
00100000
11000011
00000000
,
11000011
10000000
01010011
01000000
,
00110011
10000000
00100011
00000000
00100011
00000000
00000011
00000000
,
11000011
10000000
01100011
10000000
,
11000011
10000000
00110011
01000000
,
01010011
00010000
01100011
00100000
,
00110011
00010000
01010011
00000011
,
11000011
10000000
01010011
10000000
,
11000011
10000000
00110011
01000000
,
11000011
00010000
00110011
00100000
,
00100011
00010011
00110011
00000000
,
00010011
01000011
10100011
10000000
,
11000011
00100011
01010011
00010000
,
00110011
10000011
00010011
10000011
,
10100011
01000000
00110011
00100000
,
10100011
00010011
11000011
00010000
,
01100011
00100011
11000011
00010000
,
11000011
01000000
10000011
00000000
00100011
00000000
01000011
00000000
,
00110011
00100000
00010000
00000000
01100011
00000000
00010011
00000000
,
10010011
00000000
00000000
00000000
;
