#TITLE:Bluesky;
#SUBTITLE:;
#ARTIST:DJ Sharpnel;
#TITLETRANSLIT:;
#SUBTITLETRANSLIT:;
#ARTISTTRANSLIT:;
#GENRE:Hardstyle;
#CREDIT:;
#MUSIC:bluesky.ogg;
#BANNER:bluesky.png;
#BACKGROUND:bluesky-bg.png;
#CDTITLE:;
#SAMPLESTART:56.236;
#SAMPLELENGTH:12.000;
#SELECTABLE:YES;
#OFFSET:-0.000;
#BPMS:0.000=145.000
,164.000=72.500
,178.000=145.000
;
#STOPS:112.000=2.483
,130.000=2.483
;
#CRChallenge:;
#LABEL:Sharpnelsound;
#BGCHANGES:;
#FGCHANGES:;

//--------------- dance-single - Renard ----------------
#NOTES:
     dance-single:
     Renard:
     Easy:
     6:
     0.253,0.311,0.02,0.081,0:
0000
0000
0000
0000
,
0000
0000
0000
0000
,
0000
0000
0000
0000
,
0000
0000
0000
0000
,
1000
0000
1000
0001
,
0100
0000
0001
1000
,
0100
0000
0010
0001
,
1000
0000
0000
0000
0001
0000
0100
0001
,
0100
0000
0010
1000
,
0100
0000
1000
0010
,
0100
0000
0001
0100
,
0010
0000
1000
0000
0001
1000
0001
0000
,
1000
1000
0010
0100
,
0001
0001
0100
0010
,
1000
1000
0100
0010
,
0001
0001
0010
0100
,
1000
0100
0001
0100
,
1000
0100
0001
0100
,
1000
0010
0001
1000
,
0100
0001
1001
0000
,
1000
0010
0100
0001
,
1000
0000
0001
0000
1000
0001
1000
0000
,
0001
0100
0010
1000
,
0100
0000
0010
0000
0001
1000
0001
0000
,
1000
1000
1000
1000
,
0010
0010
0010
0010
,
0100
0000
0100
0000
0100
0000
0100
0001
,
0100
0000
0000
0000
0010
0000
1000
0001
,
0200
0000
0010
0000
,
0000
0000
0001
0000
,
0000
0000
1000
0000
,
0010
0000
0001
0010
,
0010
0010
0010
0000
0310
0000
0000
0000
,
0010
1000
0001
0100
,
0001
1000
0100
1000
,
0010
0100
0001
0010
,
0100
1000
0001
0010
,
0001
0001
1000
1000
,
0001
0001
1000
1000
,
0001
1000
0001
0000
1000
0001
1000
0000
,
1001
0000
0000
0000
,
2000
0000
0020
3000
,
0200
0030
0002
0300
,
0020
0003
0200
0030
,
2000
0300
3010
0000
,
0000
0000
1000
1000
,
0001
0001
0100
0100
,
0010
0000
1000
1000
,
0100
0010
0001
0010
,
1000
0000
1000
0010
,
0001
0000
0001
0100
,
1000
0000
0100
0001
0100
0000
0000
0000
;

//--------------- dance-single - Renard ----------------
#NOTES:
     dance-single:
     Renard:
     Medium:
     8:
     0.334,0.449,0.201,0.07,0:
0000
0000
0000
0000
,
0000
0000
0000
0000
,
0000
0000
0000
0000
,
0000
0000
1000
0001
,
1000
0000
1000
0000
0001
0100
0001
0000
,
1000
0000
1000
0000
0100
1000
0100
0000
,
1000
1001
0010
1001
,
0100
1001
0001
1001
,
1000
0000
0010
0000
0100
0001
0100
0000
,
0010
0000
1000
0000
0100
1000
0100
0000
,
0010
1001
0100
1001
,
0001
1001
1000
1001
,
1000
0000
0010
0000
0100
0000
0001
1000
,
0001
0000
1000
0000
0010
0000
0100
0001
,
1000
0000
0100
0000
0010
0000
0001
1000
,
0001
0000
1000
0000
0010
0000
0100
0001
,
0100
0001
0100
0001
0100
0000
0000
0000
,
0010
1000
0010
1000
0010
0000
0000
0000
,
0100
0001
1000
0000
0100
1000
0001
0000
,
0100
0010
1001
0110
,
1000
1000
0010
0100
,
0001
0000
1000
0000
0100
1000
0100
0000
,
1000
0010
0100
0001
,
1000
0100
0010
0001
,
1000
0000
0010
0000
0100
0001
0100
0010
,
1000
0000
0100
0000
0010
0001
0010
0100
,
1000
0001
1000
0001
1000
0001
1000
0001
,
1000
0001
1000
0001
1000
0001
1000
0000
,
2002
0000
0010
0000
,
0000
0000
0100
0000
,
0000
0000
0010
0000
,
0100
0000
0010
0100
,
0010
0000
3113
0000
,
1000
0010
0100
0001
,
0100
0010
1000
0100
,
0010
0001
0100
0010
,
1000
0100
1000
1001
,
1000
0110
0001
0110
,
1000
0011
0100
0011
,
1001
0000
1010
0000
0101
0000
1000
0001
,
0100
0000
0000
0000
,
0010
0000
2000
0000
,
3100
0000
0020
0000
,
0031
0000
2000
0000
,
3010
0000
0200
0000
,
0001
0301
0100
0001
,
0100
0010
0100
0000
0001
0000
0100
0000
,
0010
0100
0010
0000
1000
0000
0100
0000
,
1000
0010
1000
0000
0010
0000
0100
0000
,
0001
1000
0001
0000
1000
0000
1000
0010
,
0000
0000
0100
0001
1000
0100
1000
0001
,
0100
0001
1000
0001
0200
0000
0000
0000
,
0000
0000
0300
0000
;

//--------------- dance-single - Renard ----------------
#NOTES:
     dance-single:
     Renard:
     Hard:
     12:
     0.476,0.449,0.171,0.05,0:
0000
0000
0000
0000
,
0000
0000
0000
0000
,
0000
0000
0000
0000
,
0000
0000
0000
0000
,
1000
0010
1000
0010
1000
0010
1000
0010
,
0100
0010
0100
0010
0100
0010
0100
0010
,
0100
0001
0100
0001
0100
0001
0100
0001
,
0010
0001
0010
0001
0010
0100
1000
0000
,
0100
1000
0010
1000
0100
1000
0010
0000
,
0100
0001
0010
0001
0100
0001
0010
0000
,
0001
0100
0010
1000
0100
0010
0001
0010
,
0100
1000
0010
0000
1001
0000
1010
0000
,
0100
0001
0100
0010
1000
0000
0010
0000
,
0100
0001
1000
0100
0010
0000
0100
0000
,
1000
0001
0100
0010
1000
0000
0100
0000
,
0001
0100
1000
0010
0001
0010
1000
0100
,
0010
0001
0010
1000
0010
0001
0010
1000
,
0010
0001
0100
0010
1000
0010
0100
0010
,
0001
0010
1000
0010
0100
0010
0100
0001
,
0010
0100
1000
0100
1000
0000
1100
0000
,
1000
0010
0100
0001
0100
0010
1000
0100
,
0010
0001
0010
0100
1000
0100
0001
0100
,
1000
0100
0001
0100
1000
0010
0001
0010
,
1000
0100
0010
0001
0010
1000
0010
0001
,
0010
0001
0010
0001
0010
0100
1000
0100
,
0010
0001
0010
0100
1000
0100
0001
0100
,
1000
0010
0001
0010
1000
0010
0100
0001
,
0100
0010
1000
0100
0010
0001
0010
0000
,
1001
0000
1001
0000
,
0000
0000
1110
0000
,
0000
0000
0111
0000
,
1010
0000
0000
0000
0101
0000
1000
0001
,
0100
0010
1000
0000
1111
0000
0000
0000
,
1000
0100
0010
0001
0010
0100
1001
0000
,
0100
0010
1000
0100
0010
0100
0110
0000
,
0100
1000
0010
0100
0001
1000
1001
0000
,
0010
1000
0100
0010
0100
0001
1001
0000
,
0010
0100
0001
1000
0010
0100
0101
0000
,
0001
0100
0010
1000
0100
1000
1100
0000
,
0100
1000
0010
0100
0001
0100
0001
0100
,
0001
0100
0000
0000
0000
0000
0000
0000
,
2000
0000
3020
0000
,
0230
0000
0302
0000
,
0013
0100
1000
0010
0100
0001
0100
0010
,
1000
0100
0010
0001
1001
0000
0000
0000
,
1000
0001
1000
0000
1000
0010
0100
0010
,
1000
0010
0100
0000
0001
0100
0010
0100
,
0001
0100
0010
0000
1000
0010
0100
0001
,
0010
0100
1000
0100
0010
0001
0010
1000
,
0010
0001
0010
0100
1000
0000
0100
0010
,
0000
0000
0001
0010
0100
1000
0010
0100
,
0001
0100
0010
1000
0200
0000
0000
0000
,
0000
0000
0300
0000
;

//--------------- dance-single - Renard ----------------
#NOTES:
     dance-single:
     Renard:
     Challenge:
     15:
     0.63,0.793,0.423,0.101,0.438:
0000
0000
0000
0000
,
0000
0000
0000
0000
,
0000
0000
0000
0000
,
0000
0000
0000
0000
,
1000
0000
0000
0001
0000
0000
0100
0000
0000
0010
0000
0000
1000
0000
0000
0001
,
0000
0000
0100
0000
0000
0010
0000
0000
1000
0000
0000
0100
0000
0000
0010
0000
,
0000
0001
0000
0000
0010
0000
0000
0100
0000
0000
1000
0000
0000
0010
0000
0000
,
0100
0000
0000
0001
0000
0000
0010
0000
0000
0001
0000
0000
1000
0000
0000
0100
,
0000
0000
1000
0000
0000
0010
0000
0000
0100
0000
0000
0001
0000
0000
0010
0000
,
0000
0001
0000
0000
1000
0000
0000
0010
0000
0000
0100
0000
0000
0001
0000
0000
,
1000
0000
0000
0001
0000
0000
0100
0000
0000
0010
0000
0000
1000
0000
0000
0001
,
0000
0000
1000
0000
0100
0000
0010
0000
0100
1000
0001
0000
1001
0000
0000
0000
,
1000
0100
1000
0000
0010
0000
0100
0001
0010
0001
0100
0000
0010
0000
0000
0000
,
1000
0100
0010
0000
0100
0000
1000
0010
0100
0001
0100
0000
0101
0000
0000
0000
,
0001
0100
0010
0000
1000
0000
0100
0000
0010
0100
1000
0000
0010
0000
0000
0000
,
0100
0001
0100
0000
0010
0000
1000
0000
1000
0010
0100
0000
0110
0000
0000
0000
,
1000
0100
1000
0000
0110
0000
0100
0001
0010
0001
0100
0000
0110
0000
0000
0000
,
1000
0100
0010
0000
0110
0000
1000
0010
0100
0001
0100
0000
0101
0000
0000
0000
,
0001
0100
0010
0000
1001
0000
0110
0000
0010
0100
1000
0000
0110
0000
0000
0000
,
0100
0001
0100
0000
0110
0000
1001
0000
1000
0010
0100
0000
0110
0000
0000
0000
,
1000
0100
1000
0100
0010
0001
0010
0001
1000
0010
1000
0010
1000
0000
0010
0000
,
0100
0001
0010
0001
0100
0001
0010
0001
0100
0010
1000
0010
0100
0000
0001
0000
,
0010
0001
0010
0001
1000
0100
1000
0100
0010
0001
1000
0010
0100
0000
0001
0000
,
1000
0100
1000
0010
1000
0100
1000
0010
1000
0100
1000
0010
1000
0000
0100
0000
,
1100
1000
1010
0010
0110
0100
0101
0001
,
0101
0100
0110
0010
1010
1000
1100
1000
,
1010
1000
1010
0010
1010
1000
1010
0010
,
1010
1000
1010
0010
1010
1000
1010
0010
,
1111
0000
1101
0000
,
0000
0000
1011
0000
,
0000
0000
1110
0000
,
0111
0000
1011
2200
,
0001
0010
0001
0000
3311
0000
0000
0000
1101
0000
0000
0000
0000
0000
0000
0000
,
1000
0000
0100
0000
1000
0000
0010
0100
0001
0100
0010
0000
0100
0000
0001
0100
,
0001
0000
0100
0000
0010
0000
1000
0100
0010
0100
1000
0000
0010
0100
0010
0000
,
0100
0000
0001
0000
0010
0000
0100
0010
0001
0010
0100
0000
1000
0000
0010
0000
,
0100
0000
0001
0000
0100
0000
0010
1000
0010
1000
0001
0000
0100
0000
0010
0100
,
0010
0000
1000
0000
0100
0000
1000
0010
0100
0001
0100
0000
0010
0000
1000
0000
,
0100
0000
1000
0000
0010
0000
0100
0001
0010
0001
0100
0000
0010
0000
1000
0100
,
1000
0100
1000
0100
1000
0000
0010
0000
0100
0001
0100
0001
0100
0000
0010
0000
,
2000
0000
0101
3110
,
1000
0010
0100
0001
1000
0100
0010
0001
,
0010
0100
1000
0010
0100
0001
0100
0010
,
1000
0100
0010
0100
1000
0010
0100
0001
,
0100
0010
1000
0100
0010
0000
0000
0000
,
1001
0000
0000
0000
1011
0000
0000
0000
1000
0000
0100
1000
0100
0000
0010
0000
,
0001
0010
0100
1000
0010
0100
0001
0100
,
1000
0000
0100
0000
0002
0000
0000
0000
0013
0000
0100
1000
0010
0000
0100
0000
,
0001
0100
0010
1000
0100
0001
0100
1000
,
0010
0100
0200
0000
0310
0000
0020
2000
,
0000
0030
0010
3010
1000
0100
1000
0010
,
0100
0001
0020
0200
2000
0000
0000
0000
,
0000
0000
3330
0000
;
