#TITLE:Blueberry Stream;
#SUBTITLE:;
#ARTIST:dj TAKA;
#TITLETRANSLIT:;
#SUBTITLETRANSLIT:;
#ARTISTTRANSLIT:;
#GENRE:;
#CREDIT:;
#MUSIC:blueberrystream.ogg;
#BANNER:blueberrystream.png;
#BACKGROUND:blueberrystream-bg.png;
#CDTITLE:;
#SAMPLESTART:0.000;
#SAMPLELENGTH:0.000;
#SELECTABLE:YES;
#OFFSET:-7.373;
#BPMS:0.000=138.000;
#STOPS:;
#BGCHANGES:;
#FGCHANGES:;

//--------------- dance-single - ----------------
#NOTES:
     dance-single:
     :
     Easy:
     6:
     0,0,0,0,0:
1000
0100
1000
0100
,
0010
0001
0010
0001
,
2000
0000
3002
0000
,
0023
0000
0000
0000
,
1030
1000
0001
0001
,
1000
1001
0100
0010
,
0001
0001
1000
1000
,
0100
0110
1000
0010
,
1000
0000
0100
0000
,
0010
0000
0001
0000
,
1001
0100
1001
0010
,
1000
1000
1000
1000
,
1001
0000
0010
0000
,
0100
0010
1000
0001
,
0100
0100
0010
0000
,
1000
1000
0001
0000
,
1001
0100
0010
0100
,
1001
0010
0100
0010
,
1000
1000
0001
0001
,
1000
1010
1000
1010
,
1001
0010
1001
0100
,
0110
1000
0110
0001
,
1010
1000
1010
0001
,
0101
0010
0101
1000
,
1001
1000
0001
1000
,
0001
0010
0100
1000
,
0010
0001
0010
1000
,
2002
0000
0000
3003
,
0100
0100
0010
0010
,
1000
0001
1000
0001
,
0100
0110
0100
1001
,
1000
0100
0010
0001
,
1010
0000
0100
0000
,
0101
0000
0010
0000
,
1001
0000
0010
0000
,
1010
1001
1100
1001
,
0110
1000
0001
1000
,
1000
0100
0010
0001
,
1001
0100
0010
1000
,
0001
0010
0100
1000
,
1001
0200
0000
0300
,
0110
2000
0000
3000
,
1000
0010
0001
0100
,
1000
1001
0001
1001
,
0100
0010
1000
0001
,
0100
0010
0001
1000
,
1000
1000
0001
0010
,
0100
0100
1000
0001
,
1001
0000
0010
0000
,
0110
0000
0001
0000
,
0100
0010
0100
0010
,
0011
0101
1001
0110
,
1001
0000
0010
0100
,
0110
0000
1000
0001
,
2000
0000
0000
3000
,
0002
0000
0000
0000
,
0003
0000
0000
0000
;

//--------------- dance-single - ----------------
#NOTES:
     dance-single:
     :
     Medium:
     8:
     0,0,0,0,0:
1000
0010
0100
0001
,
1000
0000
1001
0000
0100
0010
0100
0000
,
2000
0000
3010
0000
0001
0010
0100
0000
,
1000
0010
1000
0010
0100
0010
0100
0010
,
2000
0010
0100
3001
,
0020
0001
0100
0031
,
0200
0010
1000
0301
,
2000
0010
0001
3100
,
2000
0000
3100
0010
0001
0000
1001
0000
,
0002
0000
0013
0100
1000
0000
0110
0000
,
1000
0100
1000
0000
0001
0010
0001
0000
,
1000
0010
0001
0000
0001
0010
1000
0000
,
1001
0000
0100
0010
0100
0000
0100
0000
,
0200
0000
0301
0010
,
0100
1000
0100
0010
0100
1000
0100
0000
,
1000
1000
0001
0001
,
1010
0000
1001
0000
0100
0010
0100
0000
,
0001
0000
0010
0000
0001
0010
0001
0000
,
1000
0010
0100
0000
0001
0100
0010
0000
,
1000
0010
1000
0001
1000
0010
1000
0001
,
0200
0001
0000
0301
,
0020
0100
0000
0130
,
2000
0100
0000
3010
,
0200
0010
0000
0301
,
1000
0010
0001
0000
1000
0100
0001
0000
,
1000
0001
0100
0000
0001
1000
0100
0000
,
1010
0100
0101
0010
,
1000
0001
1000
0001
1000
0001
1000
0001
,
0200
0000
0310
0000
1000
0010
1000
0000
,
0002
0000
0013
0000
0100
0010
0100
0000
,
1000
0010
1000
0000
0001
0100
0001
0000
,
1000
0100
0001
0100
1000
0000
1001
0000
,
0110
0000
1000
0000
,
0110
0000
0001
0000
,
0110
0000
1001
0000
,
1000
0000
0001
0000
0100
0010
0100
0010
,
0100
0000
0001
0000
0010
0100
1000
0000
,
0010
0000
0100
0000
0010
0100
0001
0000
,
0010
0000
0100
0000
0010
0100
1000
0000
,
0001
0000
0010
0000
0001
0010
0100
0000
,
2000
0100
0010
3100
,
0002
0010
0100
0013
,
0100
0110
0100
0110
,
0001
0000
0010
0000
0100
1000
0001
0010
,
0200
1000
0001
1300
,
0020
0100
1000
0130
,
1000
1010
0001
1010
,
0001
0000
0010
0000
1000
0100
0010
0001
,
2000
0000
3001
0000
0010
0100
0010
0000
,
0002
0000
0103
0000
0010
1000
0010
0000
,
0100
0001
0010
0000
0001
0010
0100
0000
,
1000
0010
1000
0010
0100
0001
0100
0001
,
1000
1001
0010
0101
,
0001
0010
0100
1000
,
0100
0000
0010
0000
,
1000
0000
0001
0000
;

//--------------- dance-single - ----------------
#NOTES:
     dance-single:
     :
     Hard:
     13:
     0,0,0,0,0:
1000
0100
0001
0000
1000
0100
0001
0000
,
1000
0010
0100
0001
0100
0010
1000
0000
,
1000
0010
0100
0000
0001
0100
0010
1000
,
0001
0000
0100
0010
0100
0000
0001
0000
1000
0100
1000
0000
0001
0100
0001
0100
,
0001
1000
0010
1000
0000
0001
0010
0100
,
1000
0000
0001
0000
1000
0010
1000
0000
0001
0000
0010
0000
0100
0000
1000
0000
,
0001
0100
0010
1000
0000
1000
0100
0001
,
0100
0001
0100
1000
0100
1000
0100
0000
,
1001
0000
0000
0000
1000
0001
0000
0010
0000
0000
0100
0000
1000
0000
0100
0000
,
0010
0000
0000
0000
0001
1000
0000
0100
0000
0010
0000
0001
1000
0001
1000
0001
,
0000
0000
0100
0000
0010
1000
0000
0010
0000
0000
0100
0000
0001
0010
0000
0100
,
1000
0000
0100
1000
0000
0010
0000
0000
0100
0000
0010
0000
0100
0000
0010
0000
,
0100
0000
0000
0000
1010
0000
0000
0101
0000
0000
1000
0000
0100
0000
0010
0000
,
0001
0000
0000
0010
0000
0000
0100
0000
0000
0000
1000
0000
0001
0000
0010
0000
,
1000
0000
1000
0100
0000
0100
0010
0000
0010
0001
0000
0000
1000
0000
0001
0000
,
1000
0000
0000
0000
0000
0001
0000
0100
0000
0010
0001
0010
0100
1000
0100
0010
,
0002
0000
0000
0000
1003
0000
0000
0000
0010
0100
0000
0001
0000
0000
1000
0000
,
0100
0000
0000
0000
0010
0001
0000
0000
1000
0100
0000
0000
0001
0100
0001
0100
,
0000
0000
0010
0000
0100
0001
0000
1000
0000
0000
0100
0000
0010
0001
0000
0100
,
1000
0000
0100
0000
0001
0000
0010
0000
0100
1000
0100
1000
0001
0010
0001
0010
,
0200
0000
0000
0000
0000
0000
1300
0010
,
0200
0000
0302
0023
,
0230
0000
2300
3020
,
0230
0000
0302
0000
,
0013
0000
0001
0000
0010
0000
0100
0000
1000
0010
0000
0000
0100
0000
0001
0000
,
0010
0000
0001
0100
0000
0000
0000
0000
0000
0000
0010
0000
0100
0001
0000
0000
,
1000
0000
0100
1000
0000
0000
0000
0000
0020
0000
0000
0000
0230
0000
0000
0000
,
0301
0010
0001
0010
0100
1000
0100
1000
,
0100
0001
0100
1000
0010
0001
0010
1000
,
0002
0000
0000
0000
1003
0000
0000
0000
0010
0000
0010
0001
0000
0001
1000
0000
,
0100
0000
0000
0000
0110
0000
0000
0000
0001
0000
0000
1000
0000
0000
0010
0000
,
0100
0000
0000
0000
1001
0000
0000
0000
0001
0000
0000
0010
0000
0000
0100
0000
,
2000
0000
0000
0000
3010
0000
0000
0100
0002
0000
0000
0000
0013
0000
0100
0000
,
2000
0000
0000
0000
3010
0000
0000
0100
0002
0000
0000
0000
0013
0000
0001
0000
,
0200
0000
0000
0000
1300
0000
0000
0010
0200
0000
0000
0000
0310
0000
1000
0000
,
0001
0000
0010
0000
0100
0000
1000
0000
0010
0100
0010
0100
0001
1000
0001
1000
,
0010
0000
1001
0010
0100
1000
0010
0100
,
1000
0000
0100
0000
0001
0010
0001
0000
0100
0000
1000
0000
0100
0000
0001
0000
,
0010
1000
0010
0001
0100
1000
0100
0001
,
0010
0001
0100
1000
0100
0001
0010
0100
,
1000
0000
0000
0000
0010
0100
0000
0001
0000
0000
0010
0000
0001
0000
0010
0000
,
0001
0000
0000
0000
1000
0100
0000
0010
0000
0100
0000
1000
0001
1000
0001
1000
,
0000
0000
0010
0000
0100
0001
0000
0100
0000
0000
0010
0000
1000
0100
0000
0010
,
0001
0000
0010
0000
0001
0000
0010
0000
0100
1000
0001
1000
0100
1000
0001
1000
,
0100
0000
0000
0000
1000
0000
0100
0001
0000
0000
0100
0000
1000
0000
0010
0000
,
0100
0000
0000
0001
0000
0000
0010
0000
0000
0000
0100
0000
1000
0000
0001
0000
,
0010
0000
0010
0100
0000
0100
1000
0000
1000
0001
0000
0000
0010
0000
0100
0000
,
0010
0000
0000
0000
0000
0100
0000
1000
0000
0100
0010
0100
0001
1000
0010
0100
,
0002
0000
0000
0000
0103
0000
0000
0000
0010
1000
0000
0001
0000
0000
1000
0000
,
0100
0000
0000
0000
0010
0001
0000
0000
1000
0010
0000
0000
0100
0001
0100
0001
,
0000
0000
0010
0000
0100
1000
0000
0001
0000
0000
0100
0000
0010
1000
0000
0100
,
0010
0000
0100
0000
1000
0000
0010
0000
0100
0001
0100
0001
1000
0010
1000
0010
,
0100
0001
0010
0100
1000
0010
0100
0001
,
0100
0000
0010
0000
1000
0100
1000
0000
0010
0000
0100
0000
1000
0000
0100
0000
,
0020
0000
0000
0000
,
0230
0000
0000
0000
,
0300
0000
0000
0000
;
