#TITLE:Big in Japan;
#SUBTITLE:;
#ARTIST:Robo Sapiens;
#TITLETRANSLIT:;
#SUBTITLETRANSLIT:;
#ARTISTTRANSLIT:;
#GENRE:Dance;
#CREDIT:;
#MUSIC:japan.ogg;
#BANNER:japan.png;
#BACKGROUND:japan-bg.png;
#CDTITLE:;
#SAMPLESTART:44.800;
#SAMPLELENGTH:12.000;
#SELECTABLE:YES;
#OFFSET:0.000;
#BPMS:0.000=150.000
,64.000=75.000
,72.000=150.000
;
#STOPS:;
#CRChallenge:;
#LABEL:Saifam;
#BGCHANGES:;
#FGCHANGES:;

//--------------- dance-single - Renard ----------------
#NOTES:
     dance-single:
     Renard:
     Easy:
     5:
     0.232,0.336,0.133,0.009,0:
0000
0000
0000
0000
,
0000
0000
0000
0000
,
0000
0000
0000
0000
,
0000
0000
0000
0000
,
1000
0000
0000
0010
,
0100
0000
0000
0000
0000
0001
0010
0000
,
0001
0000
0000
0010
,
0100
0000
0000
0000
0000
1000
0100
0000
,
1000
0000
1010
0000
0000
0001
0101
0000
,
1000
1001
0000
1001
,
0010
0110
0000
0110
,
0100
1001
0000
1001
,
1000
1000
0100
0000
,
0001
0001
0010
0000
,
1000
1000
0100
0000
,
0001
0001
0010
1000
,
0200
0000
0000
0000
,
0000
0000
0000
0000
0000
0000
0000
0300
,
1000
0000
0000
0010
0000
0100
0000
0001
,
0000
0000
1000
0100
,
0010
0000
0000
0001
0000
0100
0000
0010
,
0000
1000
0010
0000
,
0100
0000
0000
0001
0000
1000
0000
0100
,
0000
0000
0001
0000
0000
0100
0000
0000
,
1000
0000
0010
0000
,
0100
0001
1000
0100
,
0010
0000
0001
1000
,
0001
0000
0000
0100
,
0010
0000
1000
0010
,
0001
0000
0100
0000
,
1000
0000
0010
0000
,
0100
0000
0001
0000
,
0010
0000
0100
0000
,
1000
0010
0100
0000
,
0001
0000
0000
1000
0000
0001
0000
0100
,
0000
0000
0010
0000
0000
1000
0000
0000
,
0100
0000
0000
0010
0000
0001
0000
0000
,
1000
0000
0000
0010
0000
1000
0000
0000
,
0001
0100
0001
1000
,
0100
0010
0001
0000
,
1000
0010
0100
0001
,
1000
0000
0100
0000
,
0010
0000
0001
0000
,
1000
0010
0100
0000
,
0001
0000
1000
0000
,
0010
0100
0001
1000
,
0100
0000
0100
0000
,
1000
0000
1000
0010
,
0100
0000
0001
1000
,
0100
0000
0010
0001
,
1001
0000
1010
0000
,
0101
1000
0100
0010
,
0001
0000
1000
0000
,
0010
0100
1001
1010
,
0101
0000
0000
1000
,
0001
0000
0100
0001
,
1000
0000
0100
0010
,
0001
0000
1000
0010
,
0100
0000
0100
0000
0001
0000
1000
0100
,
0010
0000
0000
0000
;

//--------------- dance-single - Renard ----------------
#NOTES:
     dance-single:
     Renard:
     Medium:
     7:
     0.33,0.392,0.171,0.019,0:
0000
0000
0000
0000
,
0000
0000
0000
0000
,
0000
0000
0000
0000
,
0000
0000
0000
0000
,
1000
0000
0001
0100
0001
1000
0100
0000
,
0010
0010
0001
0001
,
0100
0000
0001
1000
0001
1000
0100
0000
,
0010
0010
0100
1001
,
1000
0000
0010
0100
0001
1000
0100
0000
,
0010
0010
0100
1001
,
1000
0000
0010
1000
0001
1000
0001
0000
,
0100
0010
0100
1001
,
0010
0000
1000
0001
1000
0000
0001
0000
,
0100
1010
0001
0101
,
1000
1010
0001
0101
,
1000
0100
0010
0000
0001
0010
0100
0000
,
2002
0000
0000
0000
,
0000
0000
0000
0000
0000
0000
0000
3003
,
1000
0000
1000
0001
0000
0100
0000
0010
,
0000
0000
1000
0000
0000
0100
0000
0000
,
0010
0000
0001
0010
0000
0100
0000
1000
,
0000
0000
0010
0000
0000
0100
0000
0000
,
0001
0000
1000
0100
0000
0010
0000
0001
,
0000
0000
0100
0000
0000
0010
0000
0000
,
1000
0000
0100
1000
0000
1010
0000
0000
,
0001
0000
0100
0001
0000
0011
0000
0000
,
1001
0000
1000
0100
0000
0010
0000
0001
,
0000
0000
1000
0000
0000
0001
0000
0000
,
1001
0000
0001
0010
0000
0100
0000
1000
,
0000
0000
0001
0000
0000
1000
0000
0000
,
0100
0000
0010
0001
0000
1001
0000
1010
,
0000
0000
0101
0000
0000
1001
0000
0000
,
1000
0000
0100
1000
0000
0001
0000
0000
,
0010
0000
0001
1000
0000
0100
0000
0000
,
0010
0000
0001
1000
0000
0010
0000
0100
,
0000
0000
0001
0000
0000
1000
0000
0000
,
0010
0000
0100
0001
0000
1000
0000
0000
,
0100
0000
1000
0001
0000
0010
0000
0000
,
0100
0000
1000
0000
0001
0000
0100
0001
,
0000
1000
0100
1000
,
0010
0000
0100
0000
0001
0000
1000
0100
,
0000
1000
0000
0000
0010
0000
0100
0000
,
0001
0001
1000
1000
,
0100
0000
0010
0000
0001
1000
0001
0000
,
1000
0010
0100
0001
,
1000
0000
0100
0000
0010
0001
0010
0000
,
0100
0100
1000
0010
,
0100
0000
0001
0000
1000
0000
0100
1000
,
0100
0010
0001
1000
,
0010
0000
0100
0000
0001
0000
1000
0100
,
1000
1000
0001
0001
,
0010
0000
0010
0000
0001
0000
0100
0001
,
1000
1000
0100
0100
,
0010
0010
0001
0010
,
0100
0000
0000
0100
1000
0000
0000
1000
,
0010
0000
0000
0010
0100
0000
0000
0100
,
0001
0000
0000
0001
1000
0000
0000
1000
,
0100
0000
0010
0000
0001
1000
0001
0000
,
1001
0100
0010
0000
,
1001
0000
0000
0000
;

//--------------- dance-single - Renard ----------------
#NOTES:
     dance-single:
     Renard:
     Hard:
     12:
     0.567,0.504,0.256,0.038,0:
0000
0000
0000
0000
,
0000
0000
0000
0000
,
0000
0000
0000
0000
,
2002
0000
0000
3000
1000
0000
1000
0003
,
0001
0100
0010
1000
0100
0010
0010
0010
,
0001
0010
0100
1000
0010
0100
0100
0100
,
0001
0010
0100
1000
0010
0100
0100
0100
,
0001
0100
0010
1000
0100
0010
0010
0010
,
0100
1000
0010
0100
0001
0100
0001
0100
,
0010
1000
0100
0010
0001
0010
0001
0010
,
0100
1000
0010
0100
0010
0100
0010
0100
,
0010
1000
0100
0000
0010
0001
0100
0000
,
0010
1000
1010
0000
0001
0100
0101
0000
,
0001
0010
0011
0000
0100
1000
1100
0000
,
1000
0010
0100
0001
0010
0001
0010
0100
,
1000
0010
0100
0001
1000
0001
1000
0001
,
2002
0000
0000
0000
,
0000
0000
0000
3000
,
1003
0000
0001
0100
0000
1010
0000
0101
,
0000
0100
0001
0010
0100
0100
1000
1000
,
0010
0100
0001
0100
0000
0101
0000
1010
,
0000
1000
0100
0100
0010
0001
0001
0010
,
0100
1000
0010
0100
0000
0101
0000
1010
,
0000
1000
0100
0100
0010
0001
0010
0100
,
1000
0010
0100
0001
0000
1010
0000
0100
,
0001
0100
0010
1000
0000
1100
0000
0100
,
1000
0010
0100
0001
0010
0100
1000
0010
,
0100
0100
0001
0100
0100
0010
0100
0100
,
0010
1000
0100
0010
0001
0010
0100
1000
,
0100
0100
0010
0100
0100
0001
0100
0100
,
0010
0100
1000
0010
0100
0001
0100
0010
,
0100
0100
0001
0100
0100
0010
0100
0100
,
0010
1000
0100
0010
0001
0010
0100
1000
,
0010
0100
0001
0100
0010
1000
0100
1000
,
0001
1000
0100
1000
0010
0100
0001
0010
,
0001
0001
0010
0100
0100
0010
0001
0010
,
0001
0100
0010
1000
0100
1000
0010
1000
,
0001
0100
0001
0010
0100
1000
0010
0100
,
0001
0000
0100
0010
1000
0100
0010
0001
,
0000
0010
0100
1000
0010
0100
0001
0010
,
0100
0000
1000
0000
0010
0100
0001
1000
,
0000
0100
1000
0010
0100
0001
1000
0100
,
1000
0000
1010
0000
0010
0100
0001
0000
,
0010
0000
0101
0000
0001
0100
0010
0000
,
1000
0100
0110
0000
0100
0010
0110
0000
,
0010
0001
0101
0000
0001
0100
0110
0000
,
0010
1000
0100
1000
0010
0100
0001
0010
,
0001
0100
0010
1000
0100
1000
1100
0000
,
1000
0010
0100
0001
0010
0100
1000
0010
,
0100
0001
0100
0001
0010
0001
0011
0000
,
0001
0010
0110
0000
0100
1000
1100
0000
,
1000
0010
1010
0000
0010
0100
0110
0000
,
0001
0100
0010
1000
0100
0010
0001
0010
,
0100
1000
0010
0100
0001
0100
0001
0000
,
0001
0100
0010
0010
1000
0100
0010
0010
,
0001
0100
0001
0001
1000
0100
1000
1000
,
0010
1000
0010
0010
0100
0001
0010
0010
,
0100
1000
0010
0100
0001
1000
0100
1000
,
0100
0010
0001
0100
1000
0100
0001
0010
,
1100
0000
0000
0000
;

//--------------- dance-single - Renard ----------------
#NOTES:
     dance-single:
     Renard:
     Challenge:
     16:
     0.836,0.813,0.522,0.028,0.722:
0000
0000
0000
0000
,
0000
0000
0000
0000
,
0000
0000
0000
0000
,
0000
2000
0000
0001
0001
0000
3001
0000
,
1000
0000
0100
0000
1000
0100
0010
0001
1000
0001
1000
0100
0010
0001
1000
0000
,
0001
0000
0010
0000
0100
1000
0001
0010
0001
1000
0100
1000
0001
0010
0100
0000
,
1000
0000
0010
0000
0100
0001
1000
0010
0100
0001
1000
0001
0010
0001
1000
0000
,
0001
0000
0010
0000
0001
1000
0010
0100
0001
0010
0100
1000
0100
0010
0001
0000
,
1000
0000
0100
0000
0010
0100
0010
0100
0001
0100
0010
0100
1000
0100
1000
0000
,
0100
0000
0010
0000
0100
0001
0100
0010
0001
0010
0100
0010
0100
1000
0100
0000
,
1000
0000
0010
0000
0100
0001
0100
0010
0100
0010
0100
1000
0100
0010
0100
0000
,
0001
0000
0100
0000
0010
1000
0010
1000
0001
1000
0100
0010
0001
1000
0001
0000
,
1000
0000
0100
0000
0010
0001
0010
0100
0010
0100
0010
1000
0010
1000
0010
0000
,
0001
0000
0100
0000
0010
0100
0010
0100
1000
0100
0010
0100
0001
0010
0100
0000
,
1000
0000
0100
0000
1000
0010
1000
0001
1000
0100
1000
0100
0010
0001
1000
0000
,
0001
0000
0010
0000
0001
0100
0001
0100
0010
0100
0010
0100
1000
0100
0010
0000
,
2002
0000
0000
0000
,
0000
0000
0000
0000
0000
0000
0000
3003
,
1000
0000
0100
0010
0000
0011
0000
1100
,
0000
1000
0010
0100
,
0011
0000
0100
1000
0000
1010
0000
0101
,
0000
0010
1000
0000
0100
0000
0010
0000
,
0100
1000
0001
0010
0000
0011
0000
1100
,
0000
1000
0010
0100
0001
0000
1000
0000
,
0100
1000
0001
0010
0000
0011
0000
0001
,
1000
0100
1000
0010
0000
1001
0000
1000
,
1001
0100
1010
1001
0100
0011
1000
1100
,
0100
0010
0011
0100
1000
1001
0100
0010
,
1001
0010
0101
1001
0010
1100
0001
0011
,
0010
0100
1100
0010
0001
1001
0010
0100
,
0110
0001
1100
0110
0001
1010
0100
0101
,
0001
1000
1010
0001
0100
0110
0001
1000
,
0110
1000
0011
0110
1000
0101
0010
0100
,
1001
0100
1010
1100
0010
0101
0010
1000
,
0110
1000
0011
0110
1000
0101
0010
1010
,
1000
0001
0101
1000
0010
0110
1000
0001
,
0110
0001
1100
0110
0001
1010
0100
0010
,
1001
0010
0101
0011
0100
1010
0100
0001
,
1000
0000
0100
1000
0001
0000
0100
0001
0010
0000
0100
1000
0010
0000
0100
0001
,
1000
0000
0100
1000
0001
0000
0010
0001
1000
0000
0100
1000
0001
0000
0100
0000
,
0001
0000
1000
0100
1000
0000
0010
0100
0001
0000
0100
0010
1000
0000
0100
0010
,
0001
0000
0010
0100
1000
0000
0001
0100
0001
0000
1000
0100
1000
0100
1000
0000
,
0100
1000
0100
1000
0100
0000
1000
0000
0001
0010
0001
0010
0001
0000
0010
0000
,
0001
0100
0001
0100
0001
0000
0100
0000
0010
1000
0010
1000
0010
0000
1000
0000
,
0001
0010
0100
1000
0001
0000
1000
0000
0001
1000
0100
0010
0001
0000
1000
0000
,
0001
0000
0100
0001
1000
0000
0100
1000
0001
0010
0100
1000
0001
0000
1000
0000
,
0001
0000
0010
0001
1000
0000
0010
1000
0100
0000
0010
0001
0100
0000
0010
1000
,
0001
0000
0010
0001
1000
0000
0100
1000
0001
0000
0010
0001
1000
0000
0010
0000
,
1000
0000
0001
0010
0001
0000
0100
0010
1000
0000
0010
0100
0001
0000
0010
0100
,
1000
0000
0100
0010
0001
0000
1000
0010
1000
0000
0001
0010
0001
0010
0001
0000
,
0010
0001
0010
0001
0010
0000
0001
0000
1000
0100
1000
0100
1000
0000
0100
0000
,
1000
0010
1000
0010
1000
0000
0010
0000
0100
0001
0100
0001
0100
0000
0001
0000
,
1000
0100
0010
0001
1000
0000
0001
0000
1000
0001
0010
0100
1000
0000
0001
0000
,
1000
0000
0010
1000
0001
0000
0010
0001
1000
0100
0010
0001
1000
0001
1000
0000
,
0001
0000
0100
0000
0010
1000
0010
0100
0001
0010
0100
1000
0100
0010
0001
0010
,
0100
0000
1000
0000
0100
0010
0100
0001
0100
0010
0100
1000
0100
1000
0010
0100
,
0001
0000
0100
0000
0010
0100
1000
0100
0010
0100
0001
0100
0010
1000
0010
1000
,
0100
0000
1000
0000
0100
0010
0100
0001
0100
0010
0100
1000
0100
0010
0001
0100
,
0010
0000
1000
0000
0010
0100
0001
0100
0010
0100
1000
0100
0010
0100
0001
0000
,
1001
0000
0000
0000
;
