#TITLE:Big City Life;
#SUBTITLE:;
#ARTIST:Mattafix;
#TITLETRANSLIT:;
#SUBTITLETRANSLIT:;
#ARTISTTRANSLIT:;
#GENRE:Hip-Hop;
#CREDIT:;
#MUSIC:city.ogg;
#BANNER:city.png;
#BACKGROUND:city-bg.png;
#CDTITLE:;
#SAMPLESTART:66.207;
#SAMPLELENGTH:12.000;
#SELECTABLE:YES;
#OFFSET:0.009;
#BPMS:0.000=87.000;
#STOPS:;
#CRChallenge:;
#LABEL:Buddhist Punk;
#BGCHANGES:;
#FGCHANGES:;

//--------------- dance-single - Renard ----------------
#NOTES:
     dance-single:
     Renard:
     Easy:
     3:
     0.179,0.228,0.069,0,0:
0000
0000
0000
0000
,
0000
0000
0000
0000
,
0000
0000
0000
0000
,
0000
0000
0000
0000
,
1000
0000
0010
0000
0000
0100
0001
0000
,
1000
0000
0100
0010
,
0001
0000
0010
0000
0000
0100
1000
0000
,
0001
0000
0000
0000
,
1001
0000
0100
0000
0000
0010
1000
0000
,
0001
0000
0100
0010
,
1000
0000
0100
0000
0000
1000
0001
0000
,
0100
0000
0010
1000
,
0001
0000
0100
0000
0000
0001
1000
0000
,
0100
1000
0010
0000
,
0100
0000
0000
0100
0001
0000
0000
0001
,
1000
1000
0001
1001
,
1001
1000
0001
1000
,
0010
0100
0010
0000
,
1000
0001
1000
0001
,
1000
0010
0100
0001
,
1000
1100
0010
0011
,
0100
0101
0010
1010
,
1000
1000
0001
0001
,
0100
0000
0010
0000
1000
0000
0001
1000
,
0001
0001
1000
1000
,
0001
0000
0100
0000
0010
0000
1000
0001
,
1000
0010
0100
0001
,
1000
0000
0100
0000
1000
0000
0001
1000
,
0001
1000
0010
0100
,
0001
0000
1000
0000
0001
0000
1000
0100
,
1000
0001
0100
0001
,
1000
0001
1000
0001
,
0100
0000
0000
0001
0000
0001
0000
0000
,
0000
0000
0000
1000
0000
1000
0000
0000
,
0100
0000
0000
0100
0000
0100
0000
0000
,
0010
0000
0000
0010
0000
0001
1000
0001
;

//--------------- dance-single - Renard ----------------
#NOTES:
     dance-single:
     Renard:
     Medium:
     4:
     0.245,0.281,0.186,0,0:
0000
0000
0000
0000
,
0000
0000
0000
0000
,
0000
0000
0000
0000
,
0000
0000
0000
0000
,
1000
0001
0100
0000
0100
0000
0100
0000
,
0010
1000
0100
0000
0011
0000
1100
0000
,
0001
0100
0010
0000
1000
0000
1000
0000
,
0100
0000
1000
0010
0100
0000
0000
0000
,
1001
0000
0110
0000
1000
1000
0010
0010
,
0100
0001
0010
0000
,
0100
0000
0011
0000
0100
0100
1000
1000
,
0010
0101
0000
1010
,
0100
0000
0001
0000
1000
1000
0100
0100
,
0010
0101
0000
1001
,
1000
0000
0100
0000
1000
0000
0010
0100
,
0001
0000
0001
0000
1000
0000
0100
1000
,
0001
0000
0001
0000
0001
0000
0001
0100
,
0010
0000
0010
0000
0010
0000
0010
1000
,
0100
0000
0100
0000
0100
0010
0100
0000
,
1000
1000
0100
0010
,
0001
0000
0001
0000
0001
0000
0001
1000
,
0010
0000
0010
0000
0010
0000
0010
1000
,
0100
0000
0100
0000
0100
0000
0100
0001
,
0100
1000
0010
0100
,
0100
1001
0010
1001
,
0100
0000
0001
0000
1000
0100
0010
0000
,
0100
1001
0010
1001
,
1000
0000
0001
0100
0001
1000
0001
0100
,
0001
1001
1000
1010
,
0100
0101
0010
0011
,
1100
0000
0011
0000
1000
1000
0010
0010
,
0100
0000
0001
1000
0001
1000
0001
1000
,
0010
0000
0010
0000
0010
0000
0010
0010
,
0100
0000
0100
0000
0100
0000
0100
0100
,
0001
0000
0001
0000
0001
0000
0001
0001
,
1000
0000
1000
0001
0000
1000
0001
1000
;

//--------------- dance-single - Renard ----------------
#NOTES:
     dance-single:
     Renard:
     Hard:
     10:
     0.487,0.483,0.47,0.078,0.211:
0000
0000
0000
0000
,
0000
0000
0000
0000
,
0000
0000
0000
0000
,
0000
0000
0000
0000
,
1000
0000
0000
0100
0000
0000
0011
0000
0001
0010
0000
0000
0001
0000
0000
0100
0000
0000
1010
0000
0000
0100
0000
0000
,
0001
0000
0000
1000
0000
0000
0011
0000
0000
1000
0000
1000
0001
0000
0000
0100
0000
0000
1010
0000
0000
0100
0000
0000
,
0001
0000
0000
0010
0000
0000
1100
0000
1000
0100
0000
0000
1000
0000
0000
0010
0000
0000
0101
0000
0000
0010
0000
0000
,
1001
0000
0000
0000
0000
0000
0000
0000
0000
0000
0000
0000
1000
0000
1000
0001
0000
0000
0100
0000
0010
0000
0000
0010
,
1000
0100
0011
0100
1000
0010
0101
0010
,
1000
0100
0011
0100
1000
0010
0101
0010
,
0100
0001
0110
1000
0010
0100
1010
0100
,
0001
0010
1100
0010
0001
0100
1010
0100
,
0001
0010
1100
0010
0001
0100
1010
0100
,
0001
0010
1100
0010
0001
0100
1010
0100
,
0010
1000
0110
0001
0100
0010
0101
0010
,
1000
0100
0011
0100
1000
0010
0101
0010
,
1000
0000
1000
0100
0000
0100
0010
0000
0000
0100
0000
0000
1000
0000
0000
0010
0000
0000
0101
0000
0000
0010
0000
0000
,
1000
0000
1000
0001
0000
0001
0100
0000
0000
0010
0000
0000
1000
0000
0000
0100
0000
0000
0011
0000
0000
0100
0000
0000
,
1000
0000
1000
0010
0000
0010
0100
0000
0000
0001
0000
0000
0010
0000
0000
0100
0000
0000
1001
0000
0000
0010
0000
0000
,
0001
0000
0001
0010
0000
0010
0001
0000
0000
0100
0000
0000
0010
0000
0000
0100
0000
0000
1001
0000
0000
0100
0000
0000
,
0001
0000
0001
0010
0000
0010
0100
0000
0000
0010
0000
0000
0001
0000
0000
0100
0000
0000
1010
0000
0000
0100
0000
0000
,
0001
0000
0001
1000
0000
1000
0010
0000
0000
0100
0000
0000
0001
0000
0000
0010
0000
0000
1100
0000
0000
0010
0000
0000
,
0001
0000
0001
0100
0000
0100
0010
0000
0000
1000
0000
0000
0100
0000
0000
0010
0000
0000
1001
0000
0000
0100
0000
0000
,
1000
0000
1000
0100
0000
0100
1000
0000
0000
0010
0000
0000
2002
0000
0000
0000
0000
0000
3013
0000
0000
0000
0000
0000
,
1000
0000
0001
0100
0000
0000
0010
0000
0010
1000
0000
0000
0100
0000
0100
0010
0000
0010
0100
0000
0000
1000
0000
0000
,
0010
0100
1010
0100
0001
0010
1100
0010
,
0001
0000
1000
0010
0000
0000
0100
0000
0100
0001
0000
0000
0010
0000
0010
0100
0000
0100
0010
0000
0000
0001
0000
0000
,
0100
0010
0101
0010
1000
0100
0011
0100
,
1100
0000
0000
0001
0000
0000
0010
0000
0010
0100
0000
0000
1000
0000
0010
1000
0000
0010
0100
0000
0000
0101
0000
0000
,
0100
0000
0010
1000
0000
1000
0010
0000
0000
0100
0000
0000
0001
0000
0001
0100
0000
0100
1000
0000
0000
0100
0000
0000
,
0101
0000
0000
1000
0000
0000
0100
0000
0100
0010
0000
0000
0001
0000
0100
0001
0000
0100
0010
0000
0000
1010
0000
0000
,
0010
0000
0100
0001
0000
0001
0100
0000
0000
0010
0000
0000
1000
0000
1000
0010
0000
0000
1001
0000
0000
0000
0000
0000
,
1000
0100
0011
0200
1000
0310
0101
1000
,
0010
0001
0011
0020
1000
0130
0101
0100
,
1100
0100
0110
2000
0001
3001
0110
1000
,
0010
0100
1001
0200
0010
2300
0001
0002
,
0000
0000
3003
0000
;
