#TITLE:Because We Can;
#SUBTITLE:;
#ARTIST:Fatboy Slim;
#TITLETRANSLIT:;
#SUBTITLETRANSLIT:;
#ARTISTTRANSLIT:;
#GENRE:Dance;
#CREDIT:;
#MUSIC:wecan.ogg;
#BANNER:wecan.png;
#BACKGROUND:wecan-bg.png;
#CDTITLE:;
#SAMPLESTART:10.253;
#SAMPLELENGTH:12.000;
#SELECTABLE:YES;
#OFFSET:0.000;
#BPMS:0.000=140.020;
#STOPS:;
#CRChallenge:;
#LABEL:Astralwerks;
#BGCHANGES:;
#FGCHANGES:;

//--------------- dance-single - Renard ----------------
#NOTES:
     dance-single:
     Renard:
     Easy:
     7:
     0.354,0.365,0.191,0.056,0.022:
0000
0000
0000
0000
,
0000
0000
0000
0000
,
1000
0001
1000
0001
,
1000
0010
0200
0300
,
0001
0010
0200
0300
,
1000
0010
0200
0300
,
0001
0100
0010
0000
,
1000
0100
0010
0000
,
0001
0010
0100
0000
,
1000
0001
0100
0000
,
0010
1000
0001
0000
,
1000
0001
1000
0000
0000
0000
0000
0000
,
0001
1000
0001
0000
0000
0000
0000
0000
,
1000
0001
1000
0000
0000
0000
0000
0000
,
1000
0001
0100
0010
,
1000
0001
1000
0000
0010
0000
0010
0000
,
1000
0001
1000
0000
0010
0000
0010
0000
,
1000
0001
1000
0000
0001
1000
0001
0000
,
1000
0000
0001
0000
1000
0001
1000
0000
,
0001
1000
0010
0100
,
0001
1000
0100
0010
,
0001
0000
0010
0000
0100
0000
1000
0001
,
1000
0000
0001
0000
1000
0000
0001
0000
1000
0000
0001
0000
,
1000
0001
1000
0000
0001
0000
0001
0000
,
1000
0001
1000
0000
0001
0000
0001
0000
,
1000
0001
1000
0000
0001
0000
0001
0000
,
1000
0010
0100
1001
,
0001
0010
0100
0000
1000
0000
0001
0000
,
0010
0100
1000
0000
0001
0000
0010
0000
,
0100
1000
0001
0000
0010
0000
0100
0000
,
1000
0001
0010
0000
0100
0000
1000
0000
,
0100
0010
0001
0000
1000
0000
0100
0000
,
0010
0001
1000
0000
0100
0000
0010
0000
,
0001
1000
0001
1000
0001
0000
1000
0000
,
0001
0001
1001
1001
,
1000
1000
1001
1001
,
0001
0001
0101
0101
,
1000
1000
1100
1100
,
1000
1001
0001
1001
,
1000
1010
0010
0110
,
0100
0101
0001
1001
,
2002
0000
3013
0000
,
1000
0010
0100
0001
,
1000
0100
0010
0001
,
0010
0100
1000
0100
,
0010
0001
1000
0010
,
0100
0001
1000
0100
,
0010
0001
0010
0100
,
1000
0100
0010
0001
,
0010
0100
1000
0010
,
1001
0000
0000
0000
;

//--------------- dance-single - Renard ----------------
#NOTES:
     dance-single:
     Renard:
     Medium:
     8:
     0.455,0.449,0.381,0.123,0.022:
0000
0000
0000
0000
,
0000
0000
0000
0000
,
1000
0001
1000
0001
1000
0001
1000
0001
,
1000
1100
1010
1001
,
0001
0011
0101
1001
,
1000
1010
1100
1001
,
0001
0101
0011
1001
,
1000
0010
1000
0010
2000
0000
3001
0000
,
0001
0100
0001
0100
0002
0000
1003
0000
,
0010
1000
0010
1000
0020
0000
0130
0000
,
0001
0000
0100
0000
0001
0100
0001
0100
,
0001
0100
0001
0000
1000
0000
1001
0000
,
0001
0100
0001
0000
1000
0000
1001
0000
,
0001
0100
0001
0000
1000
0000
1001
0000
,
0010
1010
0100
0101
,
1000
0100
1000
0000
0001
0000
1001
0000
,
1000
0100
1000
0000
0001
0000
1001
0000
,
1000
0001
1000
0001
0100
0010
0100
0010
,
1000
0001
1000
0001
0100
0010
0100
0010
,
1000
0001
0100
0000
0100
0000
0100
0000
,
0001
1000
0100
0000
0100
0000
0100
0000
,
1000
0001
0010
0000
0010
0000
0010
0000
,
0001
0000
0010
0000
0001
0000
0100
0000
0001
0000
1000
0000
,
0001
0100
0010
1000
0001
0000
0001
0000
,
1000
0010
0100
0001
1000
0000
1000
0000
,
0001
0010
0100
1000
0001
0000
0001
0000
,
1000
0100
0010
0001
1000
0001
1000
0000
,
2000
0000
0200
0000
,
0010
0010
3301
0000
,
0002
0000
0200
0000
,
0010
0010
1303
0000
,
0002
0000
2000
0000
,
0010
0010
3103
0000
,
1000
1000
1000
1000
0001
0001
0001
0001
,
1000
0100
1000
0000
1001
0000
1001
0000
,
0001
0010
0001
0000
1001
0000
1001
0000
,
1000
0010
1000
0000
1001
0000
1001
0000
,
0001
0100
0001
0000
1001
0000
1001
0000
,
1000
0100
0010
0000
1001
0000
1001
0000
,
0001
0010
0100
0000
1001
0000
1001
0000
,
1000
0010
0100
0000
1001
0000
1001
0000
,
0001
1000
0001
0000
1000
0001
1000
0000
,
1000
0000
0001
0000
1000
0001
1000
0000
,
0010
0100
0001
1000
,
0100
0000
0010
0000
0001
0010
0100
0000
,
1000
0010
0100
0001
,
1000
0000
0100
0000
0010
0001
0010
0000
,
0100
1000
0001
0010
,
0100
0000
1000
0000
0010
0100
0001
0000
,
1000
2000
0200
0000
,
3311
0000
0000
0000
;

//--------------- dance-single - Renard ----------------
#NOTES:
     dance-single:
     Renard:
     Hard:
     12:
     0.628,0.561,0.696,0.191,0.056:
0000
0000
0000
0000
,
0000
0000
0000
0000
0000
0000
0000
0000
0000
0000
0000
0000
0000
0000
0001
1000
,
0001
0001
0100
0100
0010
0010
1000
1000
,
0100
0010
0001
1000
1001
0000
1010
0000
,
0001
0100
0010
1000
1001
0000
0101
0000
,
0001
0010
0100
1000
1001
0000
0101
0000
,
0001
0100
0010
1000
1100
0000
1001
0000
,
0110
0000
1000
0010
1001
0000
0101
0000
,
0011
0000
0001
0100
1001
0000
1010
0000
,
0001
0100
0010
1000
1001
0000
1010
0000
,
0001
0100
0001
0000
0202
0000
1313
0000
,
0001
0100
0010
1000
0001
0100
0010
1000
,
0100
0010
0001
1000
0100
0010
0001
1000
,
0010
0100
0001
1000
0010
0100
0001
0100
,
1000
0100
0001
0010
1000
0010
0001
0010
,
0100
1000
0001
0010
0100
1000
0100
0010
,
0001
0100
0010
1000
0001
0100
0010
1000
,
0100
0010
0001
0010
0100
1000
0010
0100
,
0001
0001
1000
1000
0100
0100
0010
0010
,
1001
0000
0000
1010
0000
0000
0101
0000
,
1000
0010
0100
0001
0010
0100
1000
0001
,
1001
0000
0000
1010
0000
0000
0101
0000
,
1001
0000
1001
0000
1001
0000
1010
0000
0101
0000
1001
0000
,
1000
0000
0000
0000
0010
0000
0000
0010
0100
0000
0001
0000
0020
0000
0000
0000
,
0130
0000
0000
0000
1000
0000
0000
1000
0010
0000
0100
0000
0002
0000
0000
0000
,
0013
0000
0000
0000
0100
0000
0000
0100
1000
0000
0010
0000
0100
0000
0001
0000
,
1000
0100
1000
0010
0100
0001
0010
0000
,
1000
0001
1000
0001
0110
0000
1001
0000
,
0001
1000
0001
1000
0110
0000
1001
0000
,
0100
0010
0100
0010
1001
0000
0110
0000
,
0010
0100
0010
0100
1001
0000
0110
0000
,
1000
0100
0010
0100
1000
0100
0010
0000
,
0001
0010
0100
0010
0001
0010
0100
0000
,
1000
0000
0010
0000
0100
0000
0010
0000
1000
0000
0010
0000
0100
0010
1000
0010
,
1000
2200
0011
3311
,
0001
0202
1010
1313
,
0100
0220
1001
1331
,
1000
2002
0110
3113
,
1000
0010
0200
0000
1001
0000
1301
0000
,
0001
0010
0200
0000
1001
0000
1301
0000
,
0001
0100
0020
0000
1001
0000
1031
0000
,
1000
0100
0010
0001
1001
1001
1001
0000
,
1010
0000
0001
1000
0100
0010
0001
0010
,
0100
1000
0010
0100
0001
0010
0100
1000
,
0010
0100
0001
0010
0100
1000
0100
0010
,
0001
0001
1000
0010
0100
0100
0001
1000
,
0100
0100
0010
0001
0010
0010
0100
1000
,
0100
1000
0010
0100
0001
0010
0100
1000
,
0010
0100
0001
1000
0100
0010
0001
0010
,
0100
1000
0100
1000
0100
0000
2200
0000
,
3311
0000
0000
0000
;

//--------------- dance-single - Renard ----------------
#NOTES:
     dance-single:
     Renard:
     Challenge:
     15:
     0.713,0.729,1,0.752,0.039:
0000
0000
0000
0000
,
0000
0000
0000
0000
0000
0000
0000
0000
0000
0000
0000
0000
0000
0000
1000
0100
,
1100
1100
0011
0011
0101
0101
1010
1010
,
1000
0100
0001
0010
0001
0100
1000
0100
,
0001
0010
0001
0100
1000
0010
0100
0000
,
0001
0100
1000
0010
1000
0100
0001
0100
,
1000
0010
1000
0100
0001
0010
0001
0000
,
2200
0010
0001
3310
,
0202
1000
0010
1303
,
0220
1000
0001
1330
,
0022
0000
1000
0100
1033
0000
1001
0000
,
1100
1010
2002
0000
0100
0000
3013
0000
,
0011
0101
2002
0000
0010
0000
3103
0000
,
0011
0110
2200
0000
0001
0000
3310
0000
,
1000
0100
0001
0100
1000
0000
0010
0000
,
0011
0110
2200
0000
0010
0000
3301
0000
,
1100
0110
0022
0000
1000
0000
0133
0000
,
1000
1000
0100
0100
0010
0010
0001
0001
,
1000
2000
0001
0002
0100
0200
0010
3313
,
1111
0000
0000
1010
0000
0000
1100
0000
,
0000
0011
0000
0000
0101
0000
0000
1010
,
1000
0100
0001
0100
1000
0010
0001
0010
,
1000
0000
1100
0000
1010
0000
1001
0000
0101
0000
0011
0000
,
0001
0010
0001
0100
0101
0101
0202
0000
,
1000
0010
1303
0000
0101
0101
1010
0000
,
1000
0100
1000
0000
1010
1001
0202
0000
,
1000
0010
1000
0303
0101
0000
1001
0000
,
1000
0100
0002
0000
0200
0000
1303
0000
,
1000
0100
0001
0010
2000
0000
3011
0000
,
0001
0010
2000
0000
0020
0000
3031
0000
,
1000
0010
0100
0001
0200
0000
1301
0000
,
1000
0100
0002
0000
0200
0000
1303
0000
,
1000
0100
0001
0010
2000
0000
3011
0000
,
0001
0000
1000
0000
0100
0000
1000
0000
0010
0000
0100
0000
0001
0010
0001
0010
,
0001
0010
0210
0000
1001
1001
1301
0000
,
1000
0010
0210
0000
1001
1001
1301
0000
,
0001
0100
0120
0000
1001
1001
1031
0000
,
1100
0000
0011
0000
1000
0010
1010
0000
,
0001
1000
2002
0000
0110
0110
3113
0000
,
1000
0001
2002
0000
0110
0110
3113
0000
,
1000
0001
0101
0000
1001
1001
1001
0000
,
2222
0000
0000
0033
0011
0011
3311
0000
,
2200
0000
3300
0022
0000
0033
2200
0000
,
3300
0022
0000
0033
2200
0000
3300
2020
,
0000
3030
0202
0000
0303
0022
0000
0033
,
0202
0000
0303
2020
0000
3030
1100
0000
,
1100
0000
1010
0000
0001
0100
0101
0000
,
1100
0000
0011
0000
1000
0100
1100
0000
,
0101
0000
1010
0000
1000
0100
1000
0100
,
0010
0001
0010
0100
2000
0000
0200
0000
,
3311
0000
0000
0000
;
