#TITLE:Bang!;
#SUBTITLE:;
#ARTIST:Emoticon;
#TITLETRANSLIT:;
#SUBTITLETRANSLIT:;
#ARTISTTRANSLIT:;
#GENRE:Synthpop;
#CREDIT:;
#MUSIC:Bang.ogg;
#BANNER:bang.png;
#BACKGROUND:bang-bg.png;
#CDTITLE:;
#SAMPLESTART:0.060;
#SAMPLELENGTH:18.000;
#SELECTABLE:YES;
#OFFSET:-0.000;
#BPMS:0.000=209.990;
#STOPS:;
#CRChallenge:;
#LABEL:Emphatic;
#BGCHANGES:;
#FGCHANGES:;

//--------------- dance-single - Renard ----------------
#NOTES:
     dance-single:
     Renard:
     Easy:
     8:
     0.458,0.385,0,0.102,0:
0000
0000
0000
0000
,
0000
0000
0000
0000
,
0000
0000
0000
0000
,
0000
0000
0000
0000
,
0010
0100
0010
0001
,
1000
1000
1000
0100
,
0001
0100
0001
1000
,
0010
0100
0010
0000
,
1000
0001
0010
0100
,
0010
1000
0010
0002
,
0003
1000
0001
1000
,
0100
1000
0100
0001
,
1000
0100
1000
0001
,
0010
0100
0001
0010
,
0100
0010
0100
0100
,
0020
0030
0010
1000
,
1000
0010
0100
0010
,
0001
0100
0010
0010
,
0010
0010
0010
0100
,
0010
0100
0001
0100
,
0010
0001
1000
0100
,
0100
0100
0100
1000
,
0001
1000
0010
1000
,
1000
0001
0010
1000
,
0010
1000
0100
0100
,
0010
0100
1000
1000
,
1000
0100
0100
0010
,
0010
0100
0100
0010
,
0100
0001
0100
0100
,
0001
0100
0100
0001
,
0010
1000
0001
0010
,
0100
0100
0001
0100
,
0010
1000
0100
0100
,
1000
0010
0001
1000
,
0100
0100
0100
0100
,
0002
0000
0003
0010
,
0010
0100
0100
0010
,
0001
0100
0001
0100
,
0010
0010
1000
0100
,
0010
0020
0030
0001
,
0100
0001
0020
0030
,
0002
0003
0001
0001
,
0100
0100
0010
0010
,
0100
0100
1000
1000
,
0010
0001
0001
1000
,
0100
0010
0010
0010
,
0001
0001
0010
0010
,
0100
0020
0030
0010
,
1000
0001
0100
0010
,
1000
0001
0010
0001
,
1000
0010
0001
2000
,
3000
1000
0100
1000
,
0001
0100
0100
0100
,
1000
1000
0001
0001
,
0100
0010
0100
0010
,
0100
0010
0100
0001
,
0100
1000
1000
0010
,
0001
0010
0001
1000
,
1000
0010
0010
0001
,
0010
1000
0001
0100
,
0100
0100
0010
1000
,
0010
0001
0001
0010
,
0010
0010
0001
0010
,
0001
0010
0010
1000
,
0100
0100
0100
0010
,
1000
0100
0100
0010
,
0001
0001
0100
1000
,
0010
0010
0000
0000
;

//--------------- dance-single - Renard ----------------
#NOTES:
     dance-single:
     Renard:
     Medium:
     11:
     0.625,0.641,0.381,0.076,0:
0000
0000
0000
0000
,
0000
0000
0000
0000
,
0000
0000
0000
0000
,
0000
0000
0000
0000
,
1000
0001
0100
0010
,
1000
0100
0010
0001
,
1000
0010
0100
0001
,
0101
0000
0000
0000
,
1000
0000
0100
0000
0010
0001
0100
0000
,
0010
0000
1000
0000
0100
0010
0001
0000
,
1000
0000
0010
0000
0100
0001
0010
0000
,
0010
0001
0100
0000
0010
1000
0100
0000
,
0001
0000
0010
0000
0100
1000
0010
0000
,
0100
0000
0001
0000
0010
0100
1000
0000
,
0001
0000
0100
0000
0010
1000
0100
0000
,
0100
1000
0010
0000
0100
0001
0010
0000
,
0010
0000
0001
0000
0100
1000
0001
0000
,
0100
0000
0010
0000
0001
0100
1000
0000
,
0010
0000
0100
0000
0001
1000
0100
0000
,
0100
1000
0001
0000
0100
0010
0001
0000
,
1000
0000
0100
0000
0001
0010
0100
0000
,
0001
0000
1000
0000
0100
0001
0010
0000
,
1000
0000
0001
0000
0100
0010
0001
0000
,
0001
0010
0100
0000
0001
1000
0100
0000
,
0010
0000
0010
0000
0010
0100
0010
0000
,
0010
0000
0010
1000
0100
0000
0100
0000
,
0100
0010
0001
0000
0001
0000
0001
0100
,
0010
0000
0010
0000
0010
1000
0100
0000
,
0100
0000
0100
0010
0001
0000
0001
0000
,
0001
0100
0010
0000
0010
0000
0010
1000
,
0100
0000
0100
0010
0100
0010
0001
0000
,
0001
0100
0001
0100
0010
0000
0010
1000
,
0100
0010
0001
0000
0100
0000
0010
0000
,
1000
0000
1000
0000
1000
0100
0010
0000
,
0010
0000
0001
0100
0010
0000
0010
0000
,
0010
1010
0101
0011
,
1010
1100
0011
0101
,
1000
0000
0001
0000
0100
0010
1000
0100
,
0010
0001
1000
0000
0010
0000
0100
0000
,
0101
0000
1001
0000
1000
0100
0010
0000
,
0001
0010
0100
0000
1000
0010
0100
0000
,
0100
0010
1000
0100
,
0010
0001
0100
1010
,
0010
1010
0101
0011
,
1010
1100
0011
0101
,
1000
0000
0001
0000
0100
0010
1000
0100
,
0010
0001
1000
0000
0010
0000
0100
0000
,
0101
0000
1001
0000
1000
0100
0010
0000
,
0001
0010
0100
0000
1000
0010
0100
0010
,
0000
0010
0000
1000
0000
1100
0000
0011
,
0000
0001
0000
0100
0000
0110
0000
0000
,
0001
0000
1000
0100
0010
0000
0001
0000
,
0100
0000
0010
1000
0100
0000
0010
0000
,
0001
0100
0010
1000
,
1010
0101
0011
0002
,
1003
0000
0100
0000
0010
0001
1000
0000
,
0010
0000
0100
0000
0001
1000
0100
0000
,
0010
0000
0001
0000
0100
0010
1000
0000
,
2000
3100
0200
1300
,
0001
0000
1000
0100
0010
0000
0001
0000
,
0100
0000
0010
1000
0100
0000
0010
0000
,
0001
0100
0010
1000
,
1010
0101
0011
0002
,
1003
0000
0100
0000
0010
0001
1000
0000
,
0010
0000
0100
0000
0001
1000
0100
0000
,
0010
0000
0001
0000
0100
0010
1000
0000
,
2000
3100
0200
1300
,
0000
1100
0000
0000
;

//--------------- dance-single - Renard ----------------
#NOTES:
     dance-single:
     Renard:
     Hard:
     14:
     0.865,0.727,0.356,0.127,0:
0000
0000
0000
0000
,
0000
0000
0000
0000
,
0000
0000
0000
0000
,
0000
0000
0000
0000
,
1000
0000
0001
0010
0100
0000
1000
0001
,
0010
0000
0100
1000
0001
0000
0010
0100
,
1000
0000
0001
0010
0100
0000
1000
0001
,
0010
0100
1000
0010
0100
0000
0000
0000
,
1000
0100
0010
0001
1000
0010
0100
0010
,
1000
0100
0010
0001
1000
0010
0100
0000
,
0010
1000
0100
0010
0001
1000
0010
0100
,
0010
1000
0010
0100
0010
1000
0100
0010
,
0001
0100
0001
0010
0001
0100
0010
1000
,
0100
0010
0001
0100
0010
1000
0100
0000
,
0010
0001
0100
0010
1000
0100
0010
0001
,
0100
0000
0100
0010
1000
0100
0010
0001
,
1000
0100
0010
1000
0010
0100
1000
0010
,
0100
0001
0010
0001
0100
0010
1000
0100
,
0010
0001
0100
0001
0010
0100
1000
0010
,
1000
0001
0100
0001
1000
0010
1000
0001
,
0100
0001
0010
0001
1000
0010
1000
0100
,
1000
0010
0100
0001
1000
0100
0010
1000
,
0010
0001
0100
0010
1000
0100
0010
0001
,
0100
0010
0100
0010
1000
0001
1000
0001
,
1000
0010
1000
0010
1000
0010
0100
0001
,
0100
0001
0100
0001
1000
0100
1000
0100
,
1000
0100
0010
0001
0010
0001
0010
0001
,
1000
0010
1000
0010
1000
0010
0100
0001
,
0100
0001
0100
0001
1000
0010
1000
0010
,
1000
0010
0100
0010
0100
0010
0100
0010
,
0100
0001
0100
0001
0100
0001
0010
0001
,
0010
0001
0010
0001
1000
0001
1000
0001
,
1000
0001
1000
0100
1000
0100
1000
0100
,
0010
0001
0010
0001
0010
0001
0100
0001
,
0100
0001
0100
0001
1000
0010
1000
0020
,
2000
0000
0000
0000
3030
0010
1000
0100
,
0010
0001
1000
0010
0000
0100
0000
0101
,
0000
1100
0000
1010
0000
0101
0000
0011
,
0000
1100
0000
1010
0000
0101
0000
1100
,
0000
0000
0202
0000
0003
0301
0100
0010
,
1000
0100
0010
0002
0000
1003
0000
0020
,
0000
0130
0000
1000
0000
0100
0000
0101
,
0000
0011
0000
0101
0000
1010
0000
0100
,
2000
0000
3100
0000
0010
0001
1000
0010
,
0100
0001
0100
0010
0000
1000
0000
0100
,
0000
0101
0000
0011
0000
0100
0000
1010
,
0000
1100
0000
0010
0000
0101
0000
0011
,
0000
0000
2002
0000
3003
0100
0010
1000
,
0100
0010
0001
1000
0000
0010
0000
0101
,
0000
0011
0000
1000
0000
1010
0000
0101
,
0000
0011
0000
0110
0000
0200
0000
0000
,
0310
1000
0100
0010
0001
1000
0010
0100
,
0001
1000
0100
0010
0001
1000
0010
0100
,
0001
0100
1000
0100
0001
0100
1000
0100
,
0001
0100
1000
0100
0010
0100
1000
0100
,
0001
0100
0010
1000
0100
0010
0001
1000
,
0100
0010
0001
1000
0010
0100
0001
1000
,
0100
0001
0100
1000
0100
0001
0100
1000
,
0100
0001
0100
0010
0100
0001
0100
0010
,
0100
0010
0100
1000
0001
0100
0010
1000
,
0100
0010
0001
1000
0010
0100
0001
1000
,
0001
0010
0001
0100
0001
0010
0001
0100
,
0010
1000
0100
0010
0001
1000
0010
0100
,
0001
1000
0100
0010
1000
0010
0100
1000
,
0001
0100
0010
1000
0100
0010
0001
1000
,
0100
0001
0100
1000
0010
0001
0010
1000
,
0100
0001
0100
1000
0100
0010
0001
1000
,
0000
1001
0000
0000
;

//--------------- dance-single - Renard ----------------
#NOTES:
     dance-single:
     Renard:
     Challenge:
     16:
     1,0.983,0.242,0.051,0.439:
0000
0000
0000
0000
,
0000
0000
0000
0000
,
0000
0000
0000
0000
,
0000
0000
0000
0000
,
0100
0011
0100
1010
,
0100
0011
0100
1010
,
0001
0100
0001
0100
0010
1000
0010
1000
,
0001
0010
0100
1000
0001
0010
0100
1000
0100
0000
0000
0000
0000
0000
0000
0000
,
0010
0000
0001
0010
0001
0000
0010
0000
0100
0000
1000
0000
0001
0000
1000
0000
,
0100
0000
1000
0100
1000
0000
0010
0000
0100
0000
0001
0000
1000
0000
0100
0000
,
1000
0000
0001
0010
0001
0000
0100
0000
0010
0000
1000
0000
0100
0000
1000
0000
,
0001
0000
0010
0001
0010
0000
0001
0000
1000
0000
0100
1000
0100
0000
1000
0000
,
0100
0000
1000
0100
1000
0000
0100
0000
0010
0000
0001
0000
1000
0000
0001
0000
,
0010
0000
0001
0010
0001
0000
0100
0000
0010
0000
1000
0000
0001
0000
0010
0000
,
0001
0000
1000
0100
1000
0000
0010
0000
0100
0000
0001
0000
0010
0000
0001
0000
,
1000
0000
0100
1000
0100
0000
1000
0000
0001
0000
0010
0001
0010
0000
0001
0000
,
0001
0000
0100
0001
0100
0000
0001
0000
1000
0000
0010
0000
0100
0000
0010
0000
,
1000
0000
0010
1000
0010
0000
0001
0000
1000
0000
0100
0000
0010
0000
1000
0000
,
0010
0000
0100
0001
0100
0000
1000
0000
0001
0000
0010
0000
1000
0000
0010
0000
,
0100
0000
0001
0100
0001
0000
0100
0000
0010
0000
1000
0010
1000
0000
0010
0000
,
1000
0000
0010
1000
0010
0000
1000
0000
0001
0000
0100
0000
0010
0000
0100
0000
,
0001
0000
0100
0001
0100
0000
1000
0000
0001
0000
0010
0000
0100
0000
0001
0000
,
0100
0000
0010
1000
0010
0000
0001
0000
1000
0000
0100
0000
0001
0000
0100
0000
,
0010
0000
1000
0010
1000
0000
0010
0000
0100
0000
0001
0100
0001
0000
0100
0000
,
1000
0010
0100
0001
0100
0010
1000
0100
,
1000
0010
0100
0001
0010
0001
0100
0010
,
1000
0100
1000
0010
0100
0001
0010
0100
,
1000
0001
0100
0010
1000
0100
0010
0001
,
0010
0100
1000
0010
0100
0001
0010
0001
,
0100
0010
1000
0100
1000
0010
0100
0001
,
0010
0001
0010
0100
1000
0010
0100
0001
,
0100
0010
0100
0010
1000
0100
0010
0001
,
0010
0100
1000
0010
0100
0001
0100
0010
,
1000
0100
0001
0100
1000
0010
0001
0010
,
0100
0000
1000
0000
0100
0000
0001
0000
0010
0000
0100
0000
1000
0100
1000
0100
,
1000
0100
1000
0010
0100
0001
0010
0001
,
0100
0010
1000
0010
0000
0101
0000
1010
,
0000
1100
0000
0010
0001
0000
1010
0000
,
0100
0001
0010
0000
0001
0010
0200
2000
,
0000
0000
3311
0000
0000
0000
0001
0100
,
0010
1000
0100
1000
0010
0100
0001
0100
,
0000
1010
0000
0101
0000
0011
0000
0100
,
1000
0000
0101
0000
0010
1000
0100
0000
,
1000
0100
0010
0001
0010
0100
1000
0001
,
1000
0100
1000
0010
0000
1010
0000
0100
,
0001
0010
0000
0001
0100
0010
0000
1000
,
0100
1000
0010
0100
0000
1010
0000
0202
,
0000
0000
1313
0000
0001
0100
0001
0100
,
0010
1000
0100
1000
0010
0100
0001
1000
,
0100
1000
0010
0100
0001
0010
0001
0100
,
0010
1000
0100
1000
0000
0101
0000
0000
,
0010
0000
1000
0010
1000
0000
0010
0000
0100
0000
0001
0010
0001
0000
0000
0000
,
1000
0000
0010
1000
0010
0000
0100
0000
0001
0000
0010
0100
1000
0000
0001
0100
,
0010
0000
1000
0010
1000
0000
0010
0000
0100
0000
0001
0100
0001
0000
0100
0000
,
0010
0000
1000
0010
1000
0000
0001
0100
0001
0000
1000
0000
0001
1000
0001
0000
,
0100
0000
0001
0100
0001
0000
0100
0000
0010
0000
1000
0100
1000
0000
0000
0000
,
0001
0000
0100
0001
0100
0000
0010
0000
1000
0000
0100
0010
0001
0000
1000
0010
,
0100
0000
0001
0100
0001
0000
0100
0000
0010
0000
1000
0010
1000
0000
0010
0000
,
0100
0000
0001
0100
0001
0000
1000
0010
1000
0000
0001
0000
1000
0001
1000
0000
,
0001
0000
0010
0001
0010
0001
0010
0000
0001
0000
0010
0000
0100
0000
1000
0000
,
0001
0000
1000
0100
1000
0100
1000
0000
0001
0000
1000
0000
0100
0000
0010
0000
,
0001
0000
1000
0010
1000
0010
1000
0000
0010
0000
0100
0000
0001
0000
0010
0000
,
0001
0000
0100
0001
0100
0001
0100
0000
0010
0000
1000
0000
0100
0000
0010
0000
,
0001
0000
0010
0001
0010
0000
0001
0010
0001
0000
0010
0000
0100
0000
1000
0000
,
0100
0000
1000
0100
1000
0000
0100
1000
0100
0000
1000
0000
0010
0000
0100
0000
,
0001
0000
1000
0001
0100
0000
0001
1000
0100
0000
1000
0001
0010
0000
0001
1000
,
0010
0100
0001
1000
0100
0010
0001
0010
0100
1000
0001
0100
0010
1000
0001
0000
,
0000
1111
0000
0000
;
