#TITLE:Banana Tango;
#SUBTITLE:;
#ARTIST:Renard;
#TITLETRANSLIT:;
#SUBTITLETRANSLIT:;
#ARTISTTRANSLIT:;
#GENRE:Light Noise;
#CREDIT:;
#MUSIC:banana.ogg;
#BANNER:banana.png;
#BACKGROUND:banana-bg.png;
#CDTITLE:;
#SAMPLESTART:6.598;
#SAMPLELENGTH:14.000;
#SELECTABLE:YES;
#OFFSET:-0.000;
#BPMS:0.000=290.131
,158.000=145.066
,166.000=290.131
,292.000=145.066
,300.000=290.131
;
#STOPS:29.500=0.414
,289.500=0.414
;
#CRChallenge:;
#LABEL:Emphatic;
#BGCHANGES:;
#FGCHANGES:;

//--------------- dance-single - Renard ----------------
#NOTES:
     dance-single:
     Renard:
     Easy:
     9:
     0.438,0.501,0.188,0,0:
0000
0000
0000
0000
,
0000
0000
0000
0000
,
0000
0000
0000
0000
,
0000
0000
0000
0000
,
1000
1000
0001
0000
,
0100
0000
0010
0000
,
1000
0100
1000
0000
,
0010
0000
1001
0010
,
0100
0001
1000
0000
,
0010
0000
0100
0001
,
1000
0100
0010
0000
,
0001
0000
0010
0100
,
1000
0010
0100
0000
,
0001
0000
1000
0100
,
1000
0001
1000
0000
,
0001
0000
0100
0100
,
0010
0010
0100
0000
,
0001
0000
1000
1000
,
0001
0001
1000
0000
,
0010
0000
0100
0000
,
0001
0000
1000
0000
,
0100
0000
1001
0000
,
1010
0000
0101
0000
,
0000
0000
1000
0100
,
0010
0001
0010
0100
,
1000
0000
1000
0000
,
0001
0000
0100
0000
,
0010
0000
1000
0100
,
1000
0010
1000
0001
,
1000
0000
0010
0000
,
0100
0000
0001
0000
,
0010
0000
0001
0100
,
0010
0100
0001
0000
,
0100
0000
0010
0000
,
1000
0000
0100
0000
,
0010
0000
0001
0010
,
0100
0000
0010
0001
,
0010
0000
0001
0000
,
0010
0000
0001
0000
,
0100
0000
0010
0000
,
0000
0000
0000
0000
,
0000
1001
1000
0000
,
0010
0100
0001
0000
,
0100
0000
0010
0000
,
1000
0000
0100
0000
,
1000
0000
0010
0000
,
0100
0001
0100
0000
,
0010
0000
1000
0000
,
1000
0000
0001
0000
,
0001
0000
0100
0000
,
0001
0100
0010
0100
,
1000
0100
0010
0000
,
1000
0000
0100
0000
,
0010
0000
0001
0010
,
0100
0000
0100
1000
,
0010
0000
0010
0100
,
0001
0000
0100
0000
,
1001
0000
1010
0000
,
1001
0000
1000
0100
,
0010
0000
0101
0000
,
1010
0000
1000
0001
,
0100
0000
1010
0000
,
1100
0000
1000
0001
,
0100
0000
1010
0000
,
0101
0000
1000
0001
,
0100
0000
0010
0000
,
1000
0000
0001
0100
,
0010
0000
1001
0000
,
1010
0000
1000
0010
,
0100
0000
0001
0100
,
0010
0000
1000
0010
,
0100
0000
0001
1000
,
0100
0010
0000
0000
,
1001
0000
0000
0000
,
0000
0000
0000
1001
,
1000
0010
0100
0000
,
0001
0000
1000
0000
,
0100
1000
0010
0000
,
0100
0000
0001
0000
,
0010
0001
0010
0001
,
0010
0001
0010
0001
,
0010
0001
0010
0001
,
0010
0001
0010
0000
,
1000
0000
0010
0000
,
0100
0000
0001
0000
,
1000
0000
0100
0000
,
1000
0000
0010
0000
,
1000
0100
1000
0100
,
1000
0100
1000
0100
,
1000
0100
1000
0100
,
1000
0100
1000
0000
,
1000
0000
0010
0000
,
0100
0000
0001
0000
,
1000
0000
0010
0000
,
0100
0000
0001
0000
,
1000
0001
1000
0010
,
1000
0100
1000
0000
,
0001
0100
0001
0010
,
0001
1000
0001
0000
,
0100
0010
1000
0100
,
0010
0100
1000
0000
,
0001
0010
0001
0100
,
0010
0100
0001
0000
,
0100
0000
0010
1000
,
0010
0000
0100
0001
,
1000
0010
0100
0001
,
1000
0010
0100
0001
;

//--------------- dance-single - Renard ----------------
#NOTES:
     dance-single:
     Renard:
     Medium:
     12:
     0.569,0.612,0.177,0,0:
0000
0000
0000
0000
,
0000
0000
0000
0000
,
0000
0000
0000
0000
,
0000
0000
0000
0000
,
1000
0000
0001
1000
,
0001
0000
1000
0000
,
0010
0100
0001
1000
,
0100
1000
0100
1000
1000
0000
0010
0000
,
0100
0001
0010
0100
,
1000
0000
0010
0000
0100
1000
0001
0000
,
0100
0010
1000
0100
,
1000
0000
1000
0010
,
0100
0001
0010
0100
,
1000
0000
0010
0000
0100
0010
0100
0000
,
0001
0100
0010
0000
,
0010
0000
1000
0100
,
1000
0010
0100
0001
,
0010
0000
0100
0000
1000
0100
1000
0000
,
0100
0000
1000
0010
,
0100
0000
0001
0100
,
0010
1000
0100
1000
,
0010
0000
0100
0000
0001
0100
0001
0000
,
0100
0000
0010
0010
,
1000
0000
0100
1000
,
0010
1000
0100
1000
,
0001
0000
0001
0100
,
0001
0010
0001
1000
,
0010
0000
0010
0100
,
0001
1000
0010
1000
,
0100
0000
1000
0000
,
0100
0000
0000
0000
1000
0001
0100
0000
,
0010
0000
1000
0010
,
0100
0001
0010
0100
,
1000
0000
1000
0010
,
0100
0001
0100
0010
,
1000
0000
1001
0000
,
1010
0000
0100
0001
,
0010
0000
0000
0000
1000
0010
0100
0000
,
0001
0000
1000
0010
,
0100
0001
1001
0000
,
0000
0000
0000
0000
,
0000
0000
1000
0001
,
0100
0010
1000
0100
,
1000
0010
0100
0000
,
0001
0100
0010
1000
,
0100
1000
0100
0000
1000
0000
0010
0000
,
0100
0001
0010
0100
,
1000
0010
0100
0000
,
0001
0000
0100
0010
,
0100
0010
0100
0001
,
0100
0010
1000
0100
,
1000
0010
0100
0001
,
0100
0010
1000
0000
,
0010
0000
0100
0001
,
1000
0100
1000
0010
,
0100
0000
0001
0000
1000
0010
1000
0000
,
0001
0100
0010
1000
,
0100
0000
1000
0010
,
0100
0001
1000
0000
,
0100
0000
1000
0010
,
0100
0001
0010
0001
,
0001
0000
1000
0010
,
0100
0001
1000
0000
,
0001
0000
1010
0000
,
0101
0000
1000
0100
,
1001
0000
1000
0010
,
0100
0001
1000
0100
,
0010
0001
0010
0100
,
1000
0010
0100
0001
,
1000
0010
0100
0001
,
1000
0100
0010
0001
,
0010
0100
1000
0010
,
0100
0000
0001
1000
0000
0000
0000
0000
,
1001
0000
0000
0000
,
0000
0000
0000
1001
,
1000
0010
0100
0001
,
0010
0100
1000
0010
,
0100
0000
0001
0100
0001
0000
0100
0000
,
0001
0100
0010
0000
,
1000
0100
1000
0010
,
0100
0001
0010
0100
,
1000
0000
0010
0100
0010
0000
0100
0000
,
0001
0001
0001
0000
,
1000
0000
0100
0000
1000
0010
0000
0100
,
0000
0001
0000
0010
0000
0000
0100
0000
,
1000
0010
0100
0001
,
1000
0010
1000
0100
,
1010
0000
1001
0000
,
1100
0000
1010
0000
,
0101
0000
0011
0000
,
0101
0000
1001
0000
,
1000
0010
0100
0001
,
0010
0100
1000
0010
,
0100
0001
0100
1000
,
0100
0001
0010
0100
,
1000
0010
0100
0001
,
1000
0100
1000
0001
,
1000
0010
0100
0001
,
1000
0001
1000
0000
1001
0000
0000
0000
,
1000
0000
0001
0000
0100
0010
0000
1000
,
0000
0001
0000
0100
0000
0000
0010
0000
,
0100
0001
0010
1000
,
0010
0001
0010
0100
,
1000
0010
0100
0001
,
1000
0010
0100
0000
,
0001
1000
0001
0000
1000
0000
0000
0000
,
1000
0010
0100
0001
1000
0000
0010
0000
;

//--------------- dance-single - Renard ----------------
#NOTES:
     dance-single:
     Renard:
     Hard:
     16:
     0.947,0.89,0.5,0.083,0:
0000
0000
0000
0000
,
0000
0000
0000
0000
,
0000
0000
0000
0000
,
0000
0000
0000
0000
,
1000
0001
0100
0010
,
1000
0001
0100
0000
0010
0000
1000
0000
,
0100
1000
0010
0100
0001
0000
1000
0000
,
0010
0100
0001
1000
0001
0100
0010
0100
,
0001
0000
0100
0000
0010
0000
1000
0100
,
1000
0010
0100
0000
0010
0100
0001
0010
,
0000
0010
0001
0100
0010
1000
0100
0000
,
1100
1010
0101
0011
,
0001
0100
0010
0000
1000
0100
1000
0000
,
0010
0100
0001
0000
0110
0000
1001
0000
,
1000
0010
0100
0000
0001
0000
0100
0000
,
0010
1000
0000
0100
1000
0010
0100
0001
,
0000
0001
0100
0010
1000
0100
1000
0010
,
0000
0010
0100
0001
0100
0010
1000
0100
,
0000
0100
1000
0010
0100
0000
0100
0001
,
0000
0001
0010
0001
0010
0001
0100
0010
,
1000
0000
0100
1000
0010
0000
0100
0001
,
0010
0000
0001
0000
1000
0010
0100
0001
,
0100
0010
0110
1001
,
1010
0000
0011
0000
1000
0010
0100
0000
,
0001
0100
0010
1000
0100
0000
1010
0000
,
1100
0000
1001
0000
0001
0010
0001
0100
,
0010
1000
0100
1000
0010
0000
0110
0000
,
1000
0001
0100
0000
0001
0100
0010
0000
,
1000
0100
1000
0010
,
0100
0001
0100
0000
0010
0000
1000
0100
,
1000
0000
0010
0000
0100
0001
0100
0001
,
0100
0000
0010
0000
1000
0100
1000
0010
,
0100
0001
0010
0001
,
0100
0000
0010
0000
1000
0100
1000
0000
,
1010
0000
1001
0000
0001
0010
0001
0000
,
0101
0000
1001
0000
1000
0010
0100
0001
,
0100
0000
0010
0000
1000
0010
0200
0000
,
0010
0000
0310
0000
0010
1000
0001
0100
,
0010
0000
0010
0100
0001
1000
0010
0000
,
0100
0010
0100
0000
0220
0000
0000
0000
,
0000
0000
0000
0000
0000
0000
0000
0330
,
0010
0010
0010
0010
1000
0000
0100
0000
,
1000
0000
0010
0100
0001
0000
0100
0000
,
0010
0000
1000
0100
1000
0000
0010
0100
,
0001
0000
0100
0010
1000
0000
1100
0000
,
1010
1001
0101
0011
,
0001
0100
0010
0000
1000
0010
0100
0001
,
0200
0000
0310
0000
1000
0010
0100
0001
,
0010
0000
0001
0100
0010
0000
1010
0000
,
0101
0000
0110
0000
1001
0000
1000
0001
,
0100
0000
0100
0001
1000
0010
0200
0000
,
0310
0000
0110
0000
1000
0010
0100
0000
,
0100
0001
0100
0000
0001
0100
0010
1000
,
0100
0010
0001
1000
0001
0010
0100
1000
,
0001
0000
1000
0100
0010
0001
1000
0000
,
0001
0010
0100
1000
0001
0100
0010
1000
,
0001
0000
0110
0000
1010
0000
0001
0100
,
0010
0000
0110
0000
1000
0000
0000
0010
,
0100
0001
0010
0001
0100
0000
0000
0010
,
1000
0100
1000
0010
0100
0000
0100
0001
,
0010
0000
0001
0100
0010
1000
0100
0000
,
1100
0000
1010
0000
0101
0000
0001
0010
,
0001
0100
0000
0010
1000
0100
1000
0010
,
0000
0100
0001
0010
0001
0000
0100
0010
,
1000
0100
1000
0000
0010
0100
0001
0010
,
0001
0101
1010
1001
,
1000
0001
0100
0000
0100
0001
1000
0000
,
1000
0001
0010
0000
0010
0001
1000
0010
,
0100
0000
0001
0100
0010
1000
0200
0000
,
1000
0000
1000
0000
1300
0100
1000
0010
,
0100
0001
0010
0000
0001
0100
0010
1000
,
0010
0000
0100
0001
0100
0010
1000
0100
,
1000
0010
0100
0002
0000
0000
0000
0000
,
1110
0000
0000
0000
,
0000
0000
0000
0000
1003
1000
1000
1000
,
0001
0000
0100
0000
0001
0100
0010
0000
,
1000
0100
1000
1000
,
0010
0100
0001
0010
0001
0100
0010
0000
,
1000
0000
0100
0000
1000
0010
0100
0000
,
0001
0100
0010
0100
0002
0000
0103
0000
,
0010
1000
0100
1000
0010
0000
0110
0000
,
1001
0000
1000
0010
0100
0000
0001
0000
,
0010
0001
0100
0010
1000
0000
0110
0000
,
1001
0000
1010
0000
0101
0000
0001
0100
,
0010
1000
0100
1000
0010
0000
0100
0000
,
0001
0000
0100
0000
0010
1000
0010
0000
,
0100
0001
0010
0001
0100
0000
0010
1000
,
0100
1010
0101
0011
,
0001
0100
0010
1000
0100
0000
1000
0010
,
0100
0001
0100
0000
0010
0000
1000
0000
,
0100
0000
1000
0010
0100
0000
0001
0010
,
0001
0100
0010
0000
1000
0100
1000
0000
,
0010
0000
0100
0000
0010
1000
0010
0000
,
0100
0001
0100
0000
0001
0010
0001
0000
,
1000
0100
1000
0010
0100
0000
0001
0000
,
1000
0010
0100
0000
0001
0000
0001
0000
,
1000
0000
0001
0010
0001
0000
0100
0010
,
1000
0100
1000
0000
0010
0000
0100
0001
,
0100
0010
0100
0000
0001
0100
0001
1000
,
0100
0000
1000
0000
0010
0100
0010
0100
,
0001
0000
0100
0000
0010
1000
0100
1000
,
0010
0100
0001
0000
0100
0000
0010
1000
,
0100
1000
0010
0000
0100
0000
0100
0000
,
0001
0100
0010
1000
0100
0000
0100
1000
,
0010
0100
0001
0000
0001
0100
0010
1000
,
0100
1000
0010
0100
,
0001
0000
1000
0000
0001
0100
0001
0000
;

//--------------- dance-single - Renard ----------------
#NOTES:
     dance-single:
     Renard:
     Challenge:
     18:
     1,1,0.531,0.198,0.109:
0000
0000
0000
0000
,
0000
0000
0000
0000
,
0000
0000
0000
0000
,
0000
0000
0000
0000
,
1000
0000
0100
0000
1000
0010
0100
0000
,
0001
0100
0010
1000
0100
0000
1000
0000
,
0100
1000
0100
1000
0010
0100
0001
0000
,
0001
0000
0100
0000
0020
0000
2000
3030
0010
0000
1000
0000
0100
0000
1000
0000
,
0010
0100
0001
0010
0001
0100
0010
0000
,
0110
0000
1001
0000
1000
0010
0100
0001
,
0010
0001
0100
0010
1000
0100
0001
0100
,
1000
0010
0100
0000
1001
0000
0001
0100
,
0010
1000
0100
0000
1000
0010
0100
0001
,
0100
0110
1001
1010
,
0101
0000
0001
0100
0010
1000
0010
0100
,
0001
0000
1000
0010
0100
0000
0000
0000
0100
0000
0001
0000
0010
0000
0001
0000
,
0100
0010
1000
0100
1000
0010
0100
0000
,
0110
0000
1001
0000
0001
0100
0010
1000
,
0100
1000
0010
0100
0001
0010
1000
0010
,
0001
0100
0010
0000
1001
0000
1000
0010
,
0100
0001
0010
0000
0001
0100
0010
1000
,
0010
0110
1001
0101
,
1010
0000
1000
0010
0100
0001
0010
0001
,
0010
0000
0001
0010
0002
0000
0000
0000
1003
0000
0000
0000
1010
0000
0000
0000
,
1000
0010
0100
0000
0001
0010
0001
0100
,
0010
0000
1010
0000
0101
0000
1000
0001
,
0100
0000
0010
1000
0100
1000
0001
0100
,
0001
0000
1000
0001
0100
0000
0001
1000
,
0010
0000
0100
0001
0010
0001
0100
0010
,
1000
0000
0100
1000
0010
0100
0001
0000
,
0100
0010
1000
0000
1010
0000
0101
0000
,
1000
0010
0100
0000
0001
0100
0010
1000
,
0100
0001
0100
1000
0010
0000
0100
0001
,
0100
1000
0100
0000
0001
0100
0010
1000
,
0100
0010
0001
0010
1000
0000
0010
0001
,
0100
1000
0100
0001
0010
0001
0100
0010
,
1000
0000
0100
0000
1000
0010
0100
0001
,
0100
0000
1000
0010
0100
0001
1000
0010
,
0100
0000
0001
0000
1000
0001
0100
0000
,
0010
2002
0220
0000
,
0000
0000
0000
0000
0000
0000
0000
0330
,
0100
0000
0010
0100
0010
0000
0100
0000
0010
0000
0100
0000
3013
0000
0000
0000
1000
0000
0000
0000
0100
0000
0000
0000
1000
0000
0000
0000
0010
0000
0000
0000
,
0100
0001
0010
0001
0100
0010
1000
0100
,
0010
0001
0010
0100
1000
0010
0100
0001
,
1000
0010
0100
0001
0100
0010
1000
0100
,
2000
0000
0010
0000
3010
0100
0001
0010
,
0001
1000
0100
1000
0010
0100
0001
1000
,
0010
0000
0110
0000
1000
0010
0100
0000
,
0001
0000
0100
0000
0010
0000
0000
0000
1000
0000
0100
1000
0100
0000
1000
0000
,
0010
0100
0001
0100
0001
0010
0001
0100
,
0010
1000
0100
1000
0010
0100
0001
0010
,
0100
1000
0100
0010
0001
0100
0010
1000
,
0001
0100
0010
1000
0010
0100
0001
0010
,
0002
0000
0100
0000
0103
0010
1000
0100
,
1000
0001
0010
0001
0100
0010
1000
0001
,
0100
0000
0110
0000
0001
0100
0010
0000
,
1000
0000
0010
0000
0100
0000
0000
0000
0001
0000
0010
0001
0010
0000
0001
0000
,
0100
0010
0110
0000
1000
0000
1010
0000
,
0010
0110
0100
0101
,
0001
0011
0001
0101
,
0100
0110
0010
1010
,
1000
1100
0100
0110
,
0010
0011
0001
0101
,
0100
0110
0010
1010
,
1000
1100
1010
1001
,
0101
0000
0011
0000
0001
0100
0010
0100
,
0001
0100
0010
0100
0001
0100
0010
0100
,
0001
0100
0010
0100
0010
1000
0100
1000
,
0010
1000
0100
1000
0010
0100
0001
1000
,
0100
0010
0001
0100
0001
0001
0100
0010
,
1000
0100
1000
0010
0100
0100
0001
0010
,
0001
0100
0010
1000
0001
0100
0010
1000
,
0001
0000
1000
0100
1000
0000
0200
0000
0000
0000
0000
0000
0000
0000
0000
0000
,
2022
0000
0000
0000
,
0000
0000
0000
0000
0000
0000
0000
0000
0000
0000
0000
0000
0033
0000
0000
0000
0010
0000
0001
0010
0001
0000
0010
0000
0001
0000
0010
0000
3301
0000
0000
0000
,
1000
0100
1000
0010
0100
0001
0000
0101
,
0000
1010
0000
2200
0000
0000
0011
3300
,
1000
0010
0100
0001
0100
0000
0010
0000
,
1000
0100
0010
0001
0010
0100
1000
0010
,
0100
0000
0010
0100
0001
0000
0100
0010
,
1000
0000
0100
1000
0010
0000
0100
0100
,
0001
0000
0010
0010
0001
0000
0100
0100
,
0010
1000
0100
0010
0001
0010
0100
1000
,
0001
0010
0001
0100
0010
1000
0000
1100
,
0000
0011
0000
2200
0000
0000
3311
0000
,
0100
1000
0001
0010
0001
0000
1000
0000
,
0100
0001
1000
0010
1000
0001
0100
1000
,
0001
0000
1000
0001
0010
0000
0001
1000
,
0100
0000
0001
0100
1000
0000
0001
0001
,
0010
0000
1000
1000
0010
0000
0001
0001
,
1000
0100
0001
1000
0010
1000
0001
0100
,
0010
1000
0100
1000
0010
0100
0001
0010
,
0001
0100
0010
1000
0100
1000
0010
0100
,
0010
0100
0001
0100
1000
0100
0001
0010
,
0001
0100
0010
1000
0100
1000
0010
0100
,
0001
0100
1000
0100
0001
0010
1000
0010
,
0001
0010
0100
1000
0100
0001
0100
1000
,
0010
0100
0001
0100
0010
1000
0010
0100
,
0010
1000
0001
0100
0010
0100
0001
0000
,
1000
0000
0100
1000
0100
0000
1000
0000
0010
0000
0100
0000
0001
0000
0010
0000
,
0001
0000
0100
0010
0100
0000
0010
0000
1000
0000
0100
0000
1000
0000
0010
0000
,
0100
0000
0001
0010
0001
0000
0100
0000
0010
0000
1000
0000
0100
0000
1000
0000
,
0010
0000
0100
0001
0100
0000
0010
0000
1000
0000
0100
0000
1000
0000
0010
0000
,
0100
0000
0001
0100
0001
0000
1000
0000
0010
0000
0100
0000
0001
0000
1000
0000
,
0010
0000
0100
0010
0100
0000
0010
0000
1000
0000
0001
0000
0100
0000
0010
0000
,
1000
0000
0100
1000
0100
0000
1000
0000
0010
0000
0100
0000
0001
0000
0100
0000
,
0010
0000
0100
0001
0100
0000
0001
0000
0200
0000
0002
0000
0313
0000
0000
0000
;
