#TITLE:Bad Cheetah;
#SUBTITLE:;
#ARTIST:Emoticon feat. Renard;
#TITLETRANSLIT:;
#SUBTITLETRANSLIT:;
#ARTISTTRANSLIT:;
#GENRE:IDM Pop;
#CREDIT:;
#MUSIC:bad.ogg;
#BANNER:bad.png;
#BACKGROUND:bad-bg.png;
#CDTITLE:;
#SAMPLESTART:56.421;
#SAMPLELENGTH:14.000;
#SELECTABLE:YES;
#OFFSET:-0.000;
#BPMS:0.000=170.150;
#STOPS:;
#CRChallenge:;
#LABEL:Emphatic;
#BGCHANGES:;
#FGCHANGES:;

//--------------- dance-single - Renard ----------------
#NOTES:
     dance-single:
     Renard:
     Easy:
     6:
     0.287,0.343,0.183,0.011,0:
0000
0000
0000
0000
,
0000
0000
0000
0000
,
0000
0000
0000
0000
,
0000
0000
0000
0000
,
1000
0000
1000
0000
,
0001
0000
0001
0000
,
0100
0000
0100
0000
,
0010
0000
0010
0000
,
1000
0000
0001
1000
,
0001
0000
1001
0000
,
1000
0000
0010
0100
,
0001
0000
1001
0000
,
1000
0000
0001
0001
,
1000
0010
1001
0000
,
0010
0000
0100
0100
,
0002
0000
1003
0000
,
1000
0010
0100
0000
,
1001
0000
1010
0000
,
0001
0000
0100
0000
0010
0000
0000
1001
,
0000
1000
1000
0000
,
0001
0100
0010
0000
,
1000
0000
1001
0000
,
0010
0000
0100
0000
0001
0000
0000
1000
,
0000
0010
0010
0000
,
0100
0000
0001
0000
,
1000
0001
1000
0000
,
0010
0000
0010
0000
0100
0000
0000
0010
,
0000
1000
0010
0100
,
0001
0000
1000
0000
,
1001
0000
0010
0000
,
0100
0000
0000
0000
0001
0000
0000
1001
,
0000
0010
0010
0000
,
0100
0000
0001
0000
,
1000
0000
0100
0000
,
1000
0000
0010
0000
0100
0000
0000
1001
,
0000
0010
0010
0000
,
0100
0000
0001
0000
1000
0000
0000
0010
,
0000
0100
0100
0000
,
0001
0000
1000
0000
0100
0000
0000
1001
,
0000
0000
0000
0000
,
1000
1000
0001
0001
,
1000
1000
0001
0001
,
0100
0100
0010
0010
,
0100
0100
0010
0010
,
1000
0100
0010
0001
,
0010
0100
1000
0000
,
1000
0010
0100
0001
,
0100
0010
1001
0000
,
1001
0010
0100
0000
,
1001
0100
0010
0000
,
1010
0100
0001
0000
,
0101
0010
1000
0000
,
0100
0100
1000
1010
,
0001
0100
0010
0000
,
0010
0000
0100
0000
,
0001
0000
0000
0000
0001
1000
0001
0000
,
1000
0000
1000
0000
,
0010
0000
0010
0010
,
0100
0000
0001
0000
,
0010
0000
0100
0100
,
1000
0000
0010
0000
,
0100
0000
0001
0001
,
1000
0000
0100
0000
,
0010
0000
0000
0000
0001
1000
0001
1000
;

//--------------- dance-single - Renard ----------------
#NOTES:
     dance-single:
     Renard:
     Medium:
     7:
     0.364,0.377,0.129,0,0:
0000
0000
0000
0000
,
0000
0000
0000
0000
,
0000
0000
0000
0000
,
0000
0000
0000
0000
,
1000
0000
0001
0000
0100
0000
0010
0100
,
0010
0000
1000
0000
0100
1000
0001
0000
,
1000
0000
0010
0000
0100
0000
0001
0010
,
0001
0000
0100
0000
0010
1000
0010
0000
,
1000
0000
0100
0000
1000
0001
0000
1000
,
0000
0010
0010
0000
,
0100
0000
0001
0000
1000
0100
0000
0010
,
0000
0001
0001
0000
,
0010
0000
0100
0000
1000
0001
0000
1000
,
0000
0010
0000
0100
0000
0001
0000
0000
,
0100
0000
0010
0000
1000
0010
0000
1001
,
0000
0010
0010
0000
,
0100
0000
0001
0000
0100
0010
0000
1000
,
0000
0100
0100
0000
,
1000
0000
0010
0000
0100
0001
0000
1000
,
0000
1001
1001
0000
,
1000
0000
0010
0000
0100
0001
0000
0100
,
0000
0010
0000
1000
0000
0100
0000
0000
,
0110
0000
0110
0000
1000
0001
0000
0110
,
0000
0000
1000
0010
,
0100
0000
0001
0000
0100
0001
0100
0000
,
0010
0000
0010
0000
,
1000
0000
0100
0000
0010
0100
0010
0000
,
0100
0000
1000
0000
,
0010
0000
0100
0000
0001
0100
0000
0001
,
0000
0001
0001
0000
,
0100
0000
0010
0000
1000
0010
0000
1000
,
0000
0010
0010
0000
,
1000
0000
0010
0000
,
0100
0001
0010
0100
,
1000
0000
0010
0000
,
0100
0001
0100
0010
,
1000
0000
0100
0000
1000
0010
0000
0101
,
0000
0000
0000
0000
,
1000
0000
0100
0000
0010
0001
0000
0011
,
0000
0000
0000
0000
,
1000
0000
1000
0000
0001
0000
0001
0100
,
0010
0000
0010
0000
1000
0000
1000
0100
,
0010
0000
0010
0000
0001
0000
0001
0100
,
0010
0000
0010
0000
1000
0000
0100
0010
,
0100
0010
0100
0000
0010
0000
0000
0000
,
0100
1000
0100
0000
1000
0000
0000
0000
,
0010
0000
0100
0000
0001
0000
0100
0010
,
0100
0000
0010
0000
,
1000
0000
0100
1000
0100
0000
1000
0100
,
1000
0000
0001
0000
,
0001
0000
0001
0100
0001
0000
0001
0100
,
0001
0000
0000
0000
0001
0000
0100
0010
,
1000
0010
0100
1001
,
0010
0100
0001
0010
,
0100
1000
0010
0100
,
1001
0000
0000
1010
0000
0000
0101
0000
,
1000
0000
0000
0000
0100
0000
0000
1000
,
0000
0010
0000
0100
0001
0000
0100
0000
,
0010
0000
0000
0000
1000
0000
0000
0100
,
0000
0010
0000
0001
0010
0000
0100
0000
,
1000
0000
0000
0000
0010
0000
0000
0100
,
0000
0001
0000
0100
1000
0000
0100
0000
,
0001
0000
0000
0000
0100
0000
0000
0010
,
0000
1000
0000
0100
0010
0001
0010
0000
;

//--------------- dance-single - Renard ----------------
#NOTES:
     dance-single:
     Renard:
     Hard:
     12:
     0.634,0.592,0.075,0.183,0:
0000
0000
0000
0000
,
0000
0000
0000
0000
,
0000
0000
0000
0000
,
0000
0000
0000
0000
,
1000
0100
1001
0010
,
0001
0100
1001
0010
,
1000
0100
1001
0010
,
0001
0100
2002
3000
,
1003
0001
0100
0010
1000
0100
0001
0100
,
2000
0010
0100
0001
,
3010
0100
0001
0010
1000
0010
0001
0010
,
0200
1000
0010
0001
,
0310
0100
1000
0010
0100
0001
0010
0100
,
2000
0001
0100
0001
,
3001
0010
0100
0010
0001
1000
0100
0010
,
0002
0100
0010
1000
,
0103
0010
1000
0100
0010
0100
1000
0010
,
0200
0001
0010
1000
,
0310
0100
0001
0010
1000
0010
0001
0100
,
0020
1000
0100
0001
,
0130
0010
0100
0001
0100
1000
0100
0010
,
2000
0010
0100
0001
,
3010
0100
0001
0010
0100
1000
0100
0010
,
0200
0001
1000
0010
,
1300
0100
1000
0010
0100
0001
0010
0100
,
1000
0000
0010
0100
0001
0000
0010
0100
,
1000
0100
0010
0100
1000
0001
0010
0100
,
0010
0001
1000
0000
0100
0010
0100
0000
,
1000
0100
1000
0010
0100
0001
0000
1010
,
0000
0000
0001
0100
0010
1000
0100
0010
,
0100
1000
0010
0100
0001
1000
0000
0220
,
0000
0001
1331
0000
,
1000
0010
0100
0001
0010
0100
1000
0100
,
0010
0000
0001
0010
0001
0000
1000
0100
,
1000
0010
0100
0001
0010
0100
0010
0001
,
1000
0100
0010
0000
0001
0010
0100
0000
,
1000
0010
0100
0001
0100
0010
0100
1000
,
0100
0010
1000
0100
0010
0001
0010
0100
,
1000
0100
0001
0100
1000
0010
0100
0001
,
1000
0000
0002
0000
0100
0100
0103
0000
,
0001
0100
0001
0010
0001
1000
0001
0100
,
0001
0010
0001
1000
0001
0100
0001
0010
,
0001
1000
0010
1000
0100
1000
0010
1000
,
0001
1000
0010
1000
0100
1000
0010
1000
,
0100
0001
0100
1000
0100
0010
0100
0001
,
0100
1000
0100
0010
0100
0001
0100
1000
,
0100
0010
0001
0010
0100
0010
1000
0010
,
0001
0010
0100
0010
1000
0010
0100
1000
,
0010
0010
0100
0100
0001
0001
0010
0010
,
0100
1000
0020
0000
0100
0000
0001
0000
,
0130
0100
0010
0010
1000
1000
0001
0001
,
0100
0010
2000
0000
0010
0000
0100
0000
,
3001
0001
0100
0100
0010
0010
1000
1000
,
0100
0010
0100
1000
0001
0100
0010
0000
,
1000
1000
0100
0100
1000
1000
0010
0010
,
0100
0001
0010
1000
0010
0001
0100
0000
,
0010
1000
0010
0000
0100
0001
0000
0010
,
0000
0100
1000
0100
0001
0100
1000
0000
,
0010
0100
0001
0000
0010
0100
0000
1000
,
0000
0100
0010
0001
0010
1000
0010
0001
,
0010
0100
1000
0000
0100
0001
0000
0100
,
0000
1000
0010
0100
0001
0100
0010
1000
,
0100
0010
0001
0000
0010
1000
0000
0010
,
0000
0001
0010
1000
0010
0001
0200
2000
,
0000
0000
0000
0000
0000
0000
0000
3300
;

//--------------- dance-single - Renard ----------------
#NOTES:
     dance-single:
     Renard:
     Challenge:
     14:
     0.677,0.72,0.397,0.483,0.166:
0000
0000
0000
0000
,
0000
0000
0000
0000
,
0000
0000
0000
0000
,
0000
0000
0000
0000
,
1000
0001
0100
0000
0111
0000
0000
1010
,
0000
0000
1001
0000
0000
0000
0001
1000
0100
0000
1000
0000
0002
0000
0000
0000
,
0000
1003
0010
0000
1101
0000
0000
0100
,
0000
0000
0100
0000
0000
0000
0001
0010
0001
0000
1000
0000
0010
0000
0100
0000
,
0001
1000
0001
0000
2000
0020
0000
0002
,
0000
0100
3133
0000
,
1010
0000
1101
0000
0020
0002
0000
2000
,
0000
0100
3133
0000
,
1000
0000
0100
0001
1000
0010
0000
1101
,
0000
2002
0000
0010
0000
0100
3003
0000
,
1010
0000
1101
0000
0002
0200
0000
0020
,
0000
1000
1333
0000
,
1000
0100
1000
0000
0020
0200
0000
0002
,
0000
1000
1333
0000
,
1010
0000
1101
0000
0002
0020
0000
2000
,
0000
0100
3133
0000
,
1000
0010
0100
0001
1000
0010
0000
1010
,
0000
1101
0000
2002
0000
0020
0000
3033
,
1010
0000
1101
0000
2000
0020
0000
0002
,
0000
0100
3133
0000
,
1000
0001
0100
0000
0220
0000
0000
1001
,
0330
1000
0001
0100
,
0010
1000
0100
0000
2020
0000
0000
0101
,
3030
0000
1000
0001
0100
0000
0010
0000
,
1000
0100
0010
0001
0010
0200
0000
2000
,
0000
0001
3311
0000
,
1000
0100
0010
0001
0020
0200
0000
0001
,
0000
1001
1331
0000
,
1000
0010
0100
0001
1000
0001
0000
1001
,
0000
1001
0000
1101
0000
0111
0000
0000
,
1000
0000
0010
0000
0200
0002
0000
1010
,
0303
0000
1000
0000
0010
0100
0001
0000
,
0001
0100
0010
1000
0020
0200
0000
0002
,
0000
0000
0333
0000
,
0010
0100
0001
0100
0010
1000
0200
2000
,
0000
0000
3300
0000
,
1000
0000
0100
0000
0010
0000
0001
0010
0001
0000
0010
0000
0100
0000
1000
0100
,
1000
0000
0100
0000
0010
0000
0001
1000
0001
0000
0010
0000
0100
0000
1000
0001
,
1000
0000
0010
0000
0100
0000
0001
1000
0001
0000
0100
0000
0010
0000
1000
0001
,
1000
0000
0010
0000
0100
0000
0001
0100
0001
0000
0100
0000
0010
0000
1000
0010
,
1000
0000
0100
0000
1000
0000
0010
0100
0010
0000
0100
0000
0001
0000
0010
0001
,
0010
0000
0001
0000
0100
0000
0010
1000
0100
0000
0010
0000
0001
0000
0010
0100
,
1000
0000
0010
0000
0100
0000
0001
0100
0010
0000
1000
0000
0100
0000
0010
0100
,
1000
0000
0010
0000
0100
0000
0001
0100
0010
0000
1000
0000
0100
0000
0010
0100
,
1000
0000
0001
0000
0010
0000
0100
0010
0001
0000
1000
0000
0100
0000
0010
0100
,
1000
0000
0001
0000
0010
0000
0100
1000
0001
0000
0100
0000
0010
0000
1000
0010
,
0100
0000
0001
0000
1000
0000
0100
1000
0010
0000
0100
0000
0001
0000
0010
0001
,
0010
0000
0001
0000
1000
0000
0100
1000
0100
0000
1000
0000
0001
0000
0010
0001
,
1000
0000
0010
0000
0100
0000
0001
1000
0010
0000
0100
0000
0001
0000
1000
0100
,
1000
0000
0010
0000
0100
0000
0001
0100
0001
0000
0100
0000
0010
0000
1000
0100
,
1000
0000
0100
0000
0010
0000
0001
0010
0100
0000
1000
0000
0100
0000
2000
0000
,
0020
0000
0000
3030
,
1000
0010
0100
0001
2000
0000
0000
0110
,
0000
0110
0000
3100
1000
0010
0100
0000
,
0001
0100
0010
1000
0020
0000
0000
1100
,
0000
1100
0000
0130
0010
1000
0001
0100
,
0000
1000
0010
0100
0002
0000
0000
1010
,
0000
0110
0000
0013
0001
0100
0010
0000
,
1000
0010
0100
0001
2000
0000
0000
0110
,
0000
0101
0000
3001
1000
0010
0100
0001
;
