#TITLE:Aztec Templing (Techno-Titlan Mix);
#SUBTITLE:;
#ARTIST:Hi-G remixed by DM Ashura;
#TITLETRANSLIT:;
#SUBTITLETRANSLIT:;
#ARTISTTRANSLIT:;
#GENRE:Egyptian Hardcore;
#CREDIT:;
#MUSIC:aztec.ogg;
#BANNER:aztec.png;
#BACKGROUND:aztec-bg.png;
#CDTITLE:;
#SAMPLESTART:9.366;
#SAMPLELENGTH:12.000;
#SELECTABLE:YES;
#OFFSET:0.000;
#BPMS:0.000=205.000;
#STOPS:;
#CRChallenge:;
#LABEL:Unsigned;
#BGCHANGES:;
#FGCHANGES:;

//--------------- dance-single - Renard ----------------
#NOTES:
     dance-single:
     Renard:
     Easy:
     12:
     0.52,0.718,0.947,0.084,0:
0000
0000
0000
0000
,
0000
0000
0000
0000
,
0000
0000
0000
0000
,
0000
0000
0000
0000
,
2000
0000
0000
0000
,
3020
0000
0230
0000
,
0302
0000
1000
0003
,
1001
1001
1010
0101
,
1000
0100
0010
0001
,
0010
0100
1000
0010
,
0100
0001
1000
0100
,
0010
0010
0010
0010
,
0100
1000
0010
0100
,
0001
1000
0100
0010
,
0001
1001
0010
1001
,
0100
1001
1000
1001
,
1000
0100
0011
0110
,
0010
0100
1100
1010
,
1000
0010
0110
0101
,
1001
1100
0011
1100
,
1001
0100
1010
0100
,
0011
0100
1001
0100
,
0010
1001
0010
0101
,
1010
0101
1000
0011
,
1100
1000
0001
0010
,
0110
0100
1000
0010
,
0110
0100
0001
0010
,
0110
0100
1000
0010
,
0110
0100
0001
0010
,
0110
0100
1000
0010
,
0110
1010
0101
1001
,
1000
0110
0011
0110
,
1100
1000
0101
0010
,
1001
0100
1001
0010
,
1000
0100
0010
0001
,
0010
0100
1000
0010
,
0100
1001
0010
1001
,
1000
0100
0010
0001
,
0100
1010
0100
0011
,
0100
1001
1010
0101
,
1001
0000
0000
0000
,
1010
0000
0000
0000
,
0101
0000
0000
0000
,
1001
0000
0000
0000
,
0001
1000
0000
0010
,
0100
0000
0001
1000
,
0010
0000
0100
0001
,
1000
0000
0010
1000
,
0101
0000
0000
0000
,
1010
0000
0000
0000
,
0101
0000
0000
0000
,
1010
0000
1100
0000
,
0011
0000
0000
1100
,
1010
0000
0000
0101
,
0011
0000
1001
0000
,
1000
0100
0001
0010
,
1000
0000
0100
0010
,
0001
0000
0100
0010
,
1000
0000
0010
0001
,
0100
1000
0010
0001
,
0100
0000
0100
0001
,
0010
1000
0100
0001
,
0100
1000
0010
0100
,
0002
0000
0000
0000
,
1003
1000
1000
1000
,
1000
1000
2000
0000
,
0100
0100
0100
0100
,
0200
0000
0000
0000
,
0010
0000
0000
0001
,
0010
0000
0011
0000
,
0001
0010
0001
0000
,
0011
0011
0011
3311
,
1000
1000
0010
0100
,
0001
1000
0100
1001
,
0100
0010
1000
0100
,
1000
0011
0100
1001
,
0010
0101
0010
1000
,
0100
1001
0010
0101
,
1000
0010
0100
1001
,
0010
0100
1000
0011
,
0100
1010
0100
0011
,
0100
1001
0010
1001
,
0100
1010
0101
1010
,
0100
1100
0011
1010
,
0100
1001
0010
1001
,
1100
0011
1010
0101
,
0100
1001
0010
1001
,
1100
0011
1001
0110
,
2002
0000
0000
0000
,
0000
0000
0000
0000
,
0000
0000
0000
0000
,
3003
0000
0000
0000
;

//--------------- dance-single - Renard ----------------
#NOTES:
     dance-single:
     Renard:
     Medium:
     11:
     0.536,0.654,0.288,0.009,0:
0000
0000
0000
0000
,
0000
0000
0000
0000
,
0000
0000
0000
0000
,
0000
0000
0000
0000
,
1000
1000
0001
0001
,
0010
0000
0010
0100
1000
0000
0001
0000
,
0100
0001
1000
0100
,
1001
0000
0000
0000
,
1000
0000
0001
0100
0001
0000
1000
0100
,
1000
0001
1000
0100
,
0010
0000
0001
1000
0001
0000
1000
0010
,
1000
0000
0001
0010
0001
0000
1000
0000
,
0001
0000
0001
0000
0100
0000
0010
1000
,
0010
0000
1000
0001
1000
0000
0001
0000
,
0010
0000
0001
1000
0001
0000
1000
0100
,
1000
0101
1001
1010
,
1000
0001
0100
0010
1000
0000
0001
1000
,
0000
0001
1000
0100
0010
0000
0001
1000
,
0000
0010
0100
0001
1000
0000
0100
1000
,
0001
0001
1000
1000
,
0000
0001
1000
0100
0010
0000
0001
0010
,
0000
0100
1000
0010
0100
0000
0001
1000
,
0000
0001
0100
0010
1000
0000
0100
1000
,
0001
0000
1000
0001
0100
0000
0010
0000
,
1000
0000
1000
0000
0010
0000
0100
0001
,
1000
0000
0001
0000
0001
0000
0010
0100
,
1000
0000
0010
0000
0100
0000
0001
1000
,
0100
0000
1000
0000
1000
0000
0010
0100
,
0001
0000
0010
0000
0010
0000
0100
1000
,
0010
0000
0010
0000
0100
0000
0001
1000
,
0001
1000
0001
0010
,
0100
0000
1000
0001
1000
0001
1000
0000
,
0001
0000
0010
0100
1000
0000
0000
0000
,
0011
0000
1100
0000
,
1010
0000
0100
0001
0010
0000
0000
0000
,
0011
0000
1100
0000
,
1001
0000
0100
0010
1000
0000
0000
0000
,
0101
0000
1010
0000
,
1000
0000
0001
0100
0001
0000
1000
0100
,
1000
1001
1001
1001
,
1000
0000
0000
0000
,
0001
0000
0000
0000
0000
0000
0000
0100
,
0010
0000
0000
0000
0000
0000
0000
0010
,
1000
0000
1000
0001
1000
0000
0001
0000
,
0100
0000
0000
0010
0000
0000
1000
0000
,
0100
0000
0000
0010
0000
0000
0001
1000
,
0001
0000
0000
0100
0000
0000
0010
0000
,
1000
0000
0000
0100
0000
0000
0010
0000
,
0001
1000
0010
0100
,
0001
1000
1001
0000
,
1000
0000
0000
0100
0000
0000
0010
0000
,
0001
0000
0010
0100
1000
0000
0001
0000
,
0100
0000
0000
0001
0000
1000
0000
0100
,
0000
1000
0000
0010
0100
0000
0001
0000
,
1000
0000
0100
1000
0000
0010
0100
0000
,
0001
1000
0100
1000
0001
0000
0100
0000
,
0001
0001
0010
0010
,
0100
0100
1000
1000
,
0010
0100
0001
1000
,
0010
0010
0010
0010
,
0100
0001
1000
0001
,
1000
0000
0010
1000
0001
0000
1000
0000
,
0010
1000
0001
0100
,
0020
0000
0000
0000
,
1030
1000
0100
0100
,
0010
0001
0010
0100
,
1000
1000
0010
0100
,
0001
0001
1000
0100
,
0010
0000
0000
0010
0001
0000
0000
0001
,
0100
0010
1000
0000
0001
0000
0100
0000
,
0001
0000
0000
0001
1000
0000
0000
1000
,
0100
0010
0001
1000
0001
0000
0001
0000
,
1000
0100
0010
0001
0010
0000
0100
0000
,
1000
0010
0100
0001
1000
0000
0010
0000
,
1100
0100
0001
0001
,
0110
0001
1000
0100
,
0011
0000
0001
0010
0100
1000
0010
0100
,
0001
0001
1000
1000
,
0100
1000
0001
0000
0100
0001
1000
0000
,
0100
1000
0001
0100
0001
0000
1000
0000
,
1100
0010
0001
0100
,
0010
1000
0100
1000
,
1010
1000
0001
0100
,
0010
1001
0010
1001
,
0100
0000
1001
0000
1000
0100
0010
0001
,
0010
0000
0110
0000
0001
1000
0010
0100
,
0001
0110
1001
0110
,
1000
0100
0010
0000
1001
0000
0110
0000
,
1001
0000
0000
0000
;

//--------------- dance-single - Renard ----------------
#NOTES:
     dance-single:
     Renard:
     Hard:
     14:
     0.793,0.718,0.353,0.019,0:
0000
0000
0000
0000
,
0000
0000
0000
0000
,
0000
0000
0000
0000
,
0000
0000
0000
0000
,
1000
0000
1000
0000
1000
0000
0010
0100
,
0001
0000
0001
0000
0001
0000
1000
0100
,
0010
0000
0010
0001
0010
0000
0010
0100
,
1000
0010
0100
0001
1000
0000
1001
0000
,
1000
0100
0010
0001
0010
0100
1000
0010
,
0100
0001
0010
0100
1000
0010
0100
0001
,
1000
0100
0010
0001
0010
0100
1000
0010
,
0100
0001
0010
0001
1000
0100
0010
0100
,
1000
0010
0100
0001
0010
0100
1000
0010
,
0100
0001
1000
0100
1000
0001
0010
0001
,
1000
0010
1000
0001
0100
0001
1000
0100
,
0010
0001
0010
0100
1000
0010
0100
0000
,
0001
0100
0010
1000
0100
0010
0001
0010
,
0100
1000
0010
0100
0001
1000
0100
1000
,
0001
0010
0001
1000
0010
0100
0001
1000
,
0100
0100
1000
1000
0010
0010
0100
0100
,
0001
0010
0100
1000
0010
0100
0001
1000
,
0100
1000
0001
0010
0001
1000
0010
1000
,
0001
0100
0001
1000
0100
0010
0001
1000
,
0010
0010
0100
0100
0001
1000
0100
0010
,
0001
1000
0010
0100
0001
1000
0100
1000
,
0001
0010
0001
1000
0010
0100
0001
0000
,
1000
0100
0010
0001
0010
0100
1000
0010
,
0100
1001
0110
1001
,
0110
0000
1000
0010
0100
0001
0010
0100
,
1000
0010
0100
0001
1000
0100
1000
0001
,
0010
0001
1000
0010
0100
0001
0100
0010
,
0100
1001
0110
1001
,
0110
0000
1000
0010
0100
0001
0010
0100
,
1000
0010
0100
0001
1000
0100
1000
0001
,
0010
0001
1000
0010
0100
0001
1000
0100
,
0010
1001
0110
1001
,
0110
0000
0010
1000
0100
0010
0100
1000
,
0010
0100
0001
0010
0100
0010
0001
0100
,
0010
1000
0100
0010
0001
0010
0100
1000
,
0010
0110
1001
0110
,
1000
0000
0000
0000
,
0010
0000
0000
0000
,
0100
0000
0000
0000
,
0001
0110
1001
0101
,
1000
0100
1000
0001
0010
0001
1000
0010
,
1000
0001
0100
0001
1000
0100
1000
0000
,
0001
0010
0001
1000
0010
1000
0001
0100
,
0001
1000
0100
1000
0001
0010
0001
0000
,
1000
0001
0100
0010
1000
0100
0010
0001
,
0010
0100
1000
0010
0100
0000
1001
0000
,
1000
0100
0010
0001
0010
0100
1000
0010
,
0100
1001
0110
1001
,
1000
0100
0010
0001
0010
0100
1000
0010
,
0100
0001
1000
0000
0110
0000
1001
0000
,
1000
0100
0010
0000
0110
0000
0011
0000
,
1000
0100
0010
0000
0110
0000
1100
0000
,
0001
1000
0100
0000
0100
1000
0010
0000
,
0010
0100
0001
0000
0001
1000
0100
0000
,
0100
1000
0001
0000
0001
0010
0001
0000
,
0001
1000
0010
0100
0001
0000
0001
1000
,
0100
0000
0100
1000
0010
0000
0010
0100
,
0001
0000
0001
0010
0001
1000
0010
0000
,
0010
1000
0001
0000
0001
0100
0001
0000
,
0001
1000
0100
0010
0001
0000
1000
0000
,
0001
1000
0001
0000
1000
0010
1000
0000
,
0001
0100
0001
0000
1000
0100
1000
0000
,
0001
0010
0001
0000
1000
0100
1000
0000
,
0001
0010
0100
1000
0001
0000
1001
0000
,
1000
0100
0010
0001
0010
0100
1000
0000
,
0001
0010
0100
1000
0100
0010
0001
0000
,
1000
0100
0010
0000
0001
0010
0100
0000
,
1000
0010
0100
0001
1000
0010
0100
0000
,
0001
1000
0010
1000
0100
0010
0001
0010
,
0100
1000
0010
0100
0001
1000
0100
1000
,
0001
0010
0001
1000
0010
0100
0001
0010
,
0100
1000
0001
0100
0001
1000
0100
1000
,
0001
0010
0100
1000
0010
0100
0001
1000
,
0100
1000
0001
0010
0001
1000
0010
0100
,
0001
1000
0100
0010
0001
0010
0100
1000
,
0010
0100
0001
0000
1001
0000
0110
0000
,
0001
0000
1000
0100
0010
0001
0010
0100
,
1000
0010
0100
0001
1000
0100
0010
0001
,
0010
0100
1000
0010
0100
0001
0100
0010
,
1000
1000
0010
0010
0100
0100
0001
0001
,
0010
0100
1000
0000
0010
0100
0001
0000
,
1000
0100
0010
0000
0001
0010
0100
0000
,
1000
1010
0101
1001
,
1000
0100
0010
0001
1001
0000
0110
0000
,
2002
0000
0000
0000
,
0000
0000
0000
0000
,
0000
0000
0000
0000
,
3003
0000
0000
0000
;

//--------------- dance-single - Renard ----------------
#NOTES:
     dance-single:
     Renard:
     Challenge:
     16:
     0.869,1,0.715,0.056,0.176:
0000
0000
0000
0000
,
0000
0000
0000
0000
,
0000
0000
0000
0000
,
0000
0000
0000
0000
,
0000
0000
0000
0000
,
0000
0000
0000
0000
,
1100
0000
0011
0000
,
0101
1100
1010
0011
,
0001
0100
0010
0100
1000
0100
0010
0100
,
0001
0100
0001
0100
0010
0100
1000
0100
,
0010
0100
0001
0100
0001
1000
0100
1000
,
0010
1000
0001
0010
0100
0000
1100
0000
,
1000
0010
1000
0010
0100
0010
0001
0010
,
1000
0010
0001
0010
0100
0010
1000
0010
,
1000
0001
0100
0010
1000
0100
0010
0000
,
0011
0110
1100
0011
,
1000
0100
0100
0010
0001
0001
0010
0100
,
0000
1000
1000
0100
0010
0010
0100
1000
,
0000
0001
0001
1000
0100
0100
1000
0001
,
1000
0000
0001
0100
0001
0000
1000
0000
0100
0000
1000
0000
0001
0000
0100
0000
,
0001
0100
0100
0010
1000
1000
0010
0100
,
0000
0010
0010
1000
0001
0001
0100
0010
,
0000
1000
1000
0010
1000
1000
0010
0100
,
0100
0000
0001
0100
0001
0000
1000
0000
0100
0000
1000
0000
0001
0000
0010
0000
,
0001
0000
0011
0001
0100
0010
1000
0100
,
0010
0000
0110
0100
1000
0010
0100
0001
,
0100
0000
0110
0010
1000
0100
0010
0001
,
0010
0000
0011
0010
0100
0000
1100
1000
,
0010
0000
1001
1000
0010
0100
0001
0010
,
0100
0000
1001
1000
0100
0010
0001
0100
,
0010
0000
1001
0001
0100
0010
1000
0100
,
1000
0000
0001
0000
1001
0000
0000
0000
1010
0000
0100
0000
1001
0000
0100
0001
,
0100
0010
1000
0010
0001
0010
0100
1000
,
0100
0000
0100
0001
0010
0100
1000
0100
,
0001
0000
0100
0010
0001
0010
0100
1000
,
0100
0001
0100
0000
0100
1000
0100
0000
,
1000
0010
1000
0010
0001
0010
0100
1000
,
0100
0001
0100
0010
1000
0010
0100
0001
,
1000
0100
0010
0001
0010
0100
1000
0001
,
0100
0000
1010
0000
0100
0100
0011
0000
,
1001
0000
0000
0110
0000
0000
1010
0000
0000
0000
0001
0000
0001
0000
0001
0000
,
0101
0000
0000
0110
0000
0000
1010
0000
0000
0000
1000
0100
1000
0000
0001
0010
,
0001
0000
0000
0011
0000
0000
0110
0000
0000
0000
1100
0000
1010
0000
1001
0000
,
0101
0000
0000
0110
0000
0000
1010
0000
0000
0000
0001
0000
0001
0000
0001
0000
,
0100
0000
0010
0100
0010
0000
1000
0000
0010
1000
0010
0000
0100
0001
0100
0000
,
0001
0000
1000
0100
1000
0000
0001
0000
0010
0001
0010
0000
0001
1000
0001
0000
,
1000
0000
0100
1000
0100
0000
1000
0000
0010
1000
0001
0100
0001
1000
0001
0000
,
1001
0000
0000
1010
0000
0000
0101
0000
0011
0000
0011
0000
1000
0001
0100
0000
,
1010
0000
0000
0110
0000
0011
0000
0010
,
0100
0000
0000
0101
0000
0000
1100
0000
0220
0000
0000
0000
0000
0000
0330
0000
,
1010
0000
1000
1100
0000
0100
0110
0000
,
0011
0000
0000
0110
0000
0000
1100
0000
0000
0000
1000
0001
1000
0000
0001
1000
,
0001
0000
0000
0110
0000
0011
0000
0010
,
0100
0000
0000
0101
0000
0000
1100
0000
0220
0000
0000
0000
0000
0000
0330
0000
,
1010
0000
1000
1100
0000
0100
0110
0000
,
0011
0000
0000
0110
0000
0000
1100
0000
1000
0100
0000
0010
0001
0000
1001
0000
,
1001
0001
0100
0100
,
0010
0010
1000
0100
,
0010
0010
0100
0100
,
1000
1000
1000
1000
,
0010
0010
0100
0100
,
0001
0000
0001
0001
1000
0000
1000
0000
,
0001
1000
0010
0100
,
0002
0000
1003
1001
,
1000
0010
1000
0010
1000
0100
1000
0100
,
1000
0001
1000
0001
1000
0010
1000
0010
,
1000
0100
1000
0100
1000
0100
1000
0100
,
1000
0100
0010
0001
0010
0001
0010
0000
,
0001
0010
0001
0010
0100
0010
0100
0010
,
1000
0010
1000
0010
0100
0010
0100
0010
,
0001
0010
0001
0010
0001
0010
0001
0010
,
0001
0010
0100
1000
0010
0000
1001
0000
,
0100
0000
1010
0010
0100
0001
0010
0100
,
1000
0000
0011
0010
0100
1000
0010
0100
,
0001
0000
0101
0001
0100
0010
1000
0100
,
1000
0000
1100
0100
1000
0010
0100
0001
,
1000
0001
0100
0010
0100
0010
0100
0010
,
1000
0001
0100
0010
0100
0010
0100
0010
,
1000
0100
0010
0001
0010
0100
1000
0010
,
0100
0000
0001
0000
0100
0000
0010
0000
1000
0000
0100
0000
0010
0000
0001
0010
,
0001
0001
0010
0100
1000
1000
0010
0100
,
0001
0100
0010
1000
1000
0100
0010
0010
,
0001
0001
0010
0100
1000
1000
0010
0100
,
0001
0100
0100
0010
1000
0100
0100
1000
,
0010
0000
0110
0001
0100
0010
0010
0010
,
1000
0000
1100
0100
0010
0001
0001
0001
,
0100
0000
1010
0010
0100
0001
0001
0001
,
1000
0100
1000
0100
0010
0001
0010
0001
0100
0001
0100
0001
1000
0010
1000
0010
,
0200
0000
0000
0000
,
0000
0000
0000
0000
,
0000
0000
0000
0000
,
0300
0000
0000
0000
;
