#TITLE:Astral;
#SUBTITLE:;
#ARTIST:DM Ashura;
#TITLETRANSLIT:;
#SUBTITLETRANSLIT:;
#ARTISTTRANSLIT:;
#GENRE:Trance;
#CREDIT:;
#MUSIC:astral.ogg;
#BANNER:astral.png;
#BACKGROUND:astral-bg.png;
#CDTITLE:;
#SAMPLESTART:28.444;
#SAMPLELENGTH:12.000;
#SELECTABLE:YES;
#OFFSET:0.000;
#BPMS:0.000=135.000
,128.000=67.500
,160.000=135.000
;
#STOPS:;
#CRChallenge:;
#LABEL:Unsigned;
#BGCHANGES:;
#FGCHANGES:;

//--------------- dance-single - Renard ----------------
#NOTES:
     dance-single:
     Renard:
     Easy:
     6:
     0.29,0.303,0.31,0.039,0:
0000
0000
0000
0000
,
0000
0000
0000
0000
,
0000
0000
0000
0000
,
0000
0000
0000
0000
,
0001
1000
0010
0100
,
0001
0100
0010
1000
,
0001
0010
0100
1000
,
0100
0010
0001
1000
,
0001
1000
0010
0101
,
1000
0010
0100
0011
,
0100
1000
0100
0011
,
0100
0010
1000
0011
,
0100
1000
0010
0101
,
1000
0001
0010
1100
,
0100
0010
0001
0110
,
1000
0001
0010
1100
,
0001
1000
0010
0101
,
0010
0100
1000
0110
,
0001
0100
0010
1010
,
0100
0001
0010
1100
,
0001
1000
0010
1001
,
0010
0001
1000
1100
,
0001
0100
0001
1010
,
1000
0001
0010
1100
,
0001
0100
0010
1100
,
0010
0100
1000
0110
,
0001
0010
0100
0011
,
0100
0010
1000
0110
,
0100
1000
0010
0101
,
1000
0001
0010
1100
,
0001
1000
0100
0011
,
1000
0001
1000
0110
,
0001
0100
0020
0000
,
0130
0001
0020
0000
,
0130
1000
0020
0000
,
1030
0100
0020
0000
,
0031
0100
0010
1000
,
0110
0001
0100
0010
,
1001
0010
1000
0101
,
0010
1100
0001
0010
,
1100
0001
1000
0010
,
0100
0001
0010
0100
,
1100
1000
0100
0010
,
0001
0100
0010
1000
,
0001
0100
0010
1000
,
0001
0010
0100
1000
,
0001
0100
0010
1000
,
0001
0010
0100
1100
,
1001
0000
0000
0000
;

//--------------- dance-single - Renard ----------------
#NOTES:
     dance-single:
     Renard:
     Medium:
     8:
     0.29,0.279,0.01,0.039,0.242:
0000
0000
0000
0000
,
0000
0000
0000
0000
,
0000
0000
0000
0000
,
0000
0000
0000
0000
,
1000
0001
0100
0010
,
1000
0010
0100
0001
,
1000
0100
0010
0001
,
0010
0100
1000
0001
,
1000
0000
0000
0000
0001
0000
0000
0100
0000
0000
0010
0000
0000
1000
0000
0000
,
0001
0000
0000
0000
0100
0000
0000
0010
0000
0000
1000
0000
0000
0100
0000
0000
,
0010
0000
0000
0000
0001
0000
0000
0010
0000
0000
0100
0000
0000
1000
0000
0000
,
0010
0000
0000
0000
0100
0000
0000
0001
0000
0000
1000
0000
0000
0100
0000
0000
,
0010
0000
0000
0000
0001
0000
0000
0100
0000
0000
0010
0000
0000
1000
0000
0000
,
0001
0000
0000
0000
1000
0000
0000
0100
0000
0000
0010
0000
0000
0001
0000
0000
,
0010
0000
0000
0000
0100
0000
0000
1000
0000
0000
0010
0000
0000
0100
0000
0000
,
0001
0000
0000
0000
1000
0000
0000
0100
0000
0000
0010
0000
0000
0001
0000
0000
,
1000
0000
0000
0000
0001
0000
0000
0100
0000
0000
0010
0000
0000
1000
0000
0000
,
0100
0000
0000
0000
0010
0000
0000
0001
0000
0000
0010
0000
0000
0100
0000
0000
,
1000
0000
0000
0000
0010
0000
0000
0100
0000
0000
0001
0000
0000
0100
0000
0000
,
0010
0000
0000
0000
1000
0000
0000
0100
0000
0000
0010
0000
0000
0001
0000
0000
,
1000
0000
0000
0000
0001
0000
0000
0100
0000
0000
0001
0000
0000
1000
0000
0000
,
0100
0000
0000
0000
1000
0000
0000
0001
0000
0000
0010
0000
0000
0001
0000
0000
,
1000
0000
0000
0000
0010
0000
0000
1000
0000
0000
0001
0000
0000
0100
0000
0000
,
0001
0000
0000
0000
1000
0000
0000
0100
0000
0000
0010
0000
0000
0001
0000
0000
,
1000
0000
0000
0000
0010
0000
0000
0100
0000
0000
0001
0000
0000
0010
0000
0000
,
0100
0000
0000
0000
0010
0000
0000
0001
0000
0000
0100
0000
0000
0010
0000
0000
,
1000
0000
0000
0000
0100
0000
0000
0010
0000
0000
0100
0000
0000
1000
0000
0000
,
0010
0000
0000
0000
0100
0000
0000
0001
0000
0000
0010
0000
0000
0100
0000
0000
,
0010
0000
0000
0000
0001
0000
0000
0100
0000
0000
0010
0000
0000
1000
0000
0000
,
0001
0000
0000
0000
1000
0000
0000
0100
0000
0000
0010
0000
0000
0001
0000
0000
,
1000
0000
0000
0000
0001
0000
0000
0010
0000
0000
0100
0000
0000
1000
0000
0000
,
0001
0000
0000
0000
1000
0000
0000
0001
0000
0000
0100
0000
0000
0010
0000
0000
,
1000
0010
0200
0000
,
0310
1000
0200
0000
,
0310
0001
0200
0000
,
0301
0010
0200
0000
,
1300
0000
0010
0000
0100
0000
0001
0010
,
0100
0000
1000
0000
0010
0000
0100
0001
,
1000
0000
0100
0000
0001
0010
1000
0000
,
0100
0001
0010
0000
1000
0000
0100
0010
,
0001
1000
0001
0100
,
0010
0000
1000
0000
0100
0000
0010
0001
,
0010
0001
0010
0100
,
1000
0010
0100
0001
,
1000
0010
0100
0001
,
1000
0100
0010
0001
,
1000
0010
0100
0001
,
1000
0000
0000
0000
0100
0000
0000
0010
0000
0000
0001
0000
0000
0010
0000
0000
,
1001
0000
0000
0000
;

//--------------- dance-single - Renard ----------------
#NOTES:
     dance-single:
     Renard:
     Hard:
     12:
     0.55,0.57,0.087,0.242,0.635:
0000
0000
0000
0000
,
0000
0000
0000
0000
,
0000
0000
0000
0000
,
0000
0000
0000
0000
,
1000
0000
1000
0001
0000
0000
0100
0000
0010
0000
0010
1000
0000
0000
0100
0000
,
0010
0000
0010
0001
0000
0000
0100
0000
0010
0000
0010
1000
0000
0000
0100
0000
,
0010
0000
0010
0100
0000
0000
1000
0000
0010
0000
0010
0100
0000
0000
0001
0000
,
0010
0000
0010
0100
0000
0000
1000
0000
0010
0000
0100
0001
0100
0000
0001
1000
,
0001
0100
0000
0100
0010
0000
0010
1000
0000
1000
0100
0000
0100
0010
0000
0010
,
0000
0001
0000
0001
0100
0000
0100
0010
0000
0010
1000
0000
1000
0100
0000
0100
,
0000
0010
0000
0010
0001
0000
0001
1000
0000
1000
0100
0000
0100
1000
0000
1000
,
0000
0010
0000
0010
0100
0000
0100
0001
0000
0001
1000
0000
1000
0100
0000
0100
,
1000
0010
0000
0100
0001
0000
1000
0010
0000
0100
0001
0000
1000
0010
0000
0100
,
0000
0001
0000
0010
0100
0000
1000
0001
0000
0010
0100
0000
1000
0001
0000
0010
,
0000
0100
0000
1000
0010
0000
0100
0001
0000
1000
0010
0000
0100
0001
0000
0010
,
0000
0100
0000
1000
0001
0000
0010
0100
0000
1000
0010
0000
0100
0001
0000
1000
,
0010
0100
0001
0010
1000
0001
0100
1000
,
0010
0100
0001
1000
0001
0010
1000
0001
,
0100
1000
0010
0100
0001
0100
1000
0001
,
0010
0100
0001
1000
0100
0010
0001
0010
,
1000
0010
0001
0010
0100
0001
0100
0010
,
1000
0001
0100
1000
0010
0100
0001
1000
,
0010
0100
0001
0100
0010
1000
0010
0001
,
1000
0100
0001
0100
0010
1000
1001
0000
,
1000
0100
0000
0100
1000
0000
0001
0010
0000
0010
0001
0000
1000
0000
0010
0000
,
0100
0001
0000
0001
0100
0000
0010
1000
0000
1000
0010
0000
1000
0000
0100
0000
,
0010
0001
0000
0001
0010
0000
0100
1000
0000
1000
0100
0000
0010
0000
0001
0000
,
1000
0001
0000
0001
1000
0000
0010
0100
0000
0100
0010
0000
1000
0000
0001
0000
,
0100
0001
0000
0001
0100
0000
0010
1000
0000
1000
0010
0000
1000
0000
0100
0000
,
0010
0001
0000
0001
0100
0000
0010
1000
0000
1000
0100
0000
0010
0000
0001
0000
,
1000
0010
0000
0010
1000
0000
0001
0100
0000
0100
0001
0000
0010
0000
0100
0000
,
1000
0100
0000
0010
0001
0000
1000
0000
0010
0000
0100
0000
0001
0000
1000
0000
,
0002
0000
0000
0000
0000
0000
0000
0000
0200
0000
0000
0000
0003
0000
1000
2000
,
0000
0000
0000
0000
0000
0000
3300
0000
0000
1100
0000
0100
0001
0000
0010
0100
,
0110
0000
0000
0000
1100
0000
0002
0010
0000
0000
0010
0000
0100
0000
2003
0000
,
0001
0000
3200
2000
0000
0000
0000
0000
0000
0000
0300
0000
3200
0000
0302
0000
,
0023
0000
2030
0002
0000
0000
0000
0000
0003
0000
3200
0000
2300
0000
3020
0000
,
0230
0000
0302
2000
0000
0000
0000
0000
3003
0001
0000
1000
0100
0000
0010
0001
,
0200
0000
0000
0320
0000
1030
0100
0010
0002
0000
0000
1003
0010
0000
0100
0010
,
1000
0000
0101
0000
1000
0000
0002
0020
0000
0000
0000
0000
0033
0000
0000
1000
,
0001
0100
0000
0100
0010
0000
0000
1000
0000
0000
0100
0000
0000
0010
0000
0000
,
0001
0100
0000
0100
0010
0000
0000
1000
0000
0000
0100
0000
0000
0010
0000
0000
,
0001
1000
0000
1000
0100
0000
0000
0010
0000
0000
0001
0000
0000
1000
0000
0000
,
0010
0100
0000
0100
0001
0000
0000
1000
0000
0000
0100
0000
0010
0000
0001
0000
,
1000
0000
0000
0000
1001
0000
0000
0000
0001
0100
0000
0000
1001
0000
0000
0000
,
1000
0100
0000
0100
1000
0000
0000
0010
0000
0000
0100
0000
0000
0001
0000
0000
,
0010
0001
0000
0000
1001
0000
0000
0001
0000
0000
0100
0000
0000
0010
0000
0000
,
1000
0100
0000
0000
1001
0000
0000
1000
0000
0000
0100
0000
0000
0020
0000
0000
,
0002
0000
0000
0000
,
0033
0000
0000
0000
;
