#TITLE:Another Planet;
#SUBTITLE:;
#ARTIST:Pendulum;
#TITLETRANSLIT:;
#SUBTITLETRANSLIT:;
#ARTISTTRANSLIT:;
#GENRE:Drum N' Bass;
#CREDIT:;
#MUSIC:planet.ogg;
#BANNER:planet.png;
#BACKGROUND:planet-bg.png;
#CDTITLE:;
#SAMPLESTART:26.358;
#SAMPLELENGTH:12.000;
#SELECTABLE:YES;
#OFFSET:0.002;
#BPMS:0.000=172.988;
#STOPS:;
#CRChallenge:;
#LABEL:Breakbeat Kaos;
#BGCHANGES:;
#FGCHANGES:;

//--------------- dance-single - Renard ----------------
#NOTES:
     dance-single:
     Renard:
     Easy:
     7:
     0.33,0.44,0.157,0,0:
0000
0000
0000
0000
,
0000
0000
0000
0000
,
0000
0000
0000
0000
,
0000
0000
0000
0000
,
1000
0010
0000
0010
,
0100
0001
0000
0001
,
1000
0100
0000
0100
,
0010
0001
0010
0001
,
0000
1001
0000
0100
,
0010
1001
0000
0010
,
0100
1001
0000
1000
,
0100
0000
0010
0000
,
0001
0110
0000
1000
,
1000
0110
0000
0001
,
1000
0100
1000
0010
,
0100
0000
0001
0000
,
1001
0000
0000
0000
,
0000
0000
0000
0000
,
0000
0000
0000
0000
,
1000
0000
1000
0001
1000
0001
1000
0000
,
0001
0001
0100
0100
,
0001
1000
0100
0010
,
0001
0001
0010
0010
,
0100
0100
1000
1000
,
0010
0010
0100
0100
,
0001
0001
0001
0001
,
1000
0000
1000
0000
0001
1000
0001
0000
,
0100
0000
0100
0010
0000
0010
1000
0000
,
0001
0001
1000
0100
,
0010
0001
1000
0001
,
1000
0001
0100
0001
,
1000
0000
0000
0001
0000
0000
0100
0000
,
0010
0000
1000
0100
,
0010
0000
0000
0001
0000
0000
0010
0000
,
0100
0000
1000
0010
,
1001
0000
0000
0000
,
1000
0011
0000
0101
,
0010
1100
0000
1010
,
0100
1001
0000
1010
,
0100
0100
0010
0010
,
0100
0100
0010
0010
,
1000
1000
0001
0001
,
1000
0001
1000
0001
,
0100
1010
0100
0011
,
0100
0001
1000
0001
,
1000
0100
0010
0001
,
1000
1000
0001
0000
,
1000
0000
0100
0000
,
0010
0000
0001
0000
,
1000
0000
0100
0000
,
0010
0000
0001
0000
,
1000
0100
0010
0001
,
1000
0100
0010
0001
,
1000
0001
1000
0001
,
1000
0001
1000
0001
,
1000
0001
1000
0001
1000
0001
1000
0001
,
1000
0001
1000
0001
1000
0001
1000
0000
,
0001
0001
1000
1000
,
0001
0000
0000
0100
0000
0000
0000
0000
,
0010
0000
1000
0000
,
0100
0000
0000
0010
0000
0000
0000
0000
,
0001
0001
1000
1000
,
0001
1000
0001
1000
,
0001
0001
1000
1000
,
0001
1000
0001
1000
;

//--------------- dance-single - Renard ----------------
#NOTES:
     dance-single:
     Renard:
     Medium:
     9:
     0.421,0.577,0.334,0.021,0:
0000
0000
0000
0000
,
0000
0000
0000
0000
,
0000
0000
0000
0000
,
0000
0000
0000
0000
,
0000
1001
0000
1001
,
0000
1001
0000
1001
,
0000
0110
0000
0110
,
0000
0110
0000
0110
,
1000
0000
0010
0000
0000
0100
0001
0000
,
0000
0010
0100
0000
0000
1000
0001
0000
,
0000
1001
0000
1001
,
0000
1001
0000
1001
,
0001
0000
0100
0000
0000
0010
1000
0000
,
0000
0001
0100
0000
0000
0001
1000
0100
,
1000
0001
0100
0001
,
1000
1000
0001
0001
,
2002
0000
0000
0000
,
0000
0000
0000
0000
,
0000
0000
0000
0000
0000
0000
0000
3003
,
1000
0000
0001
1000
0001
1000
0001
0000
,
1000
0000
1000
0001
0000
0001
1000
0000
,
0001
0001
1000
1000
,
0010
0100
0001
0010
,
0001
0001
1000
1000
,
0001
0001
0001
0001
0001
0001
0001
0001
,
1000
1000
0001
0001
,
1000
0010
0100
0001
,
1000
0001
1000
0010
,
0100
1001
0100
1001
,
0100
0000
0100
0001
0000
0001
1000
0000
,
0100
1000
0001
1000
,
0010
0000
0010
0100
0000
0100
0001
0000
,
1000
1000
0100
0100
,
1000
0010
0100
0001
,
0100
0010
1000
0001
,
1001
0000
0000
0000
,
1000
0011
0100
1010
,
0100
1001
0100
1001
,
0010
1001
1100
0011
,
1000
0010
0100
0101
,
1000
0011
0100
1001
,
0100
1010
0100
1001
,
0100
0100
0001
1000
,
0001
1000
1010
0101
,
1001
1000
0100
1000
,
0010
0100
0001
1000
,
0001
1000
0001
0000
,
1000
1000
1000
1000
,
0100
0100
0100
0100
,
0010
0010
0010
0010
,
0001
0001
0001
0001
,
0010
0100
1000
0001
,
0010
0100
1000
0100
,
0010
0100
0010
0100
0010
0100
0010
0100
,
0010
0100
0010
0100
0010
0100
0010
0100
,
0010
0100
0010
0100
0010
0100
0010
0100
,
0010
0100
0010
0100
0010
0100
0010
0000
,
1000
1000
1000
1000
,
0001
0000
0001
1000
0000
1000
0001
0000
,
1000
0010
0100
0001
,
1000
0001
0100
0001
,
1000
1000
0001
0001
,
1000
0001
0100
0010
,
1000
1000
1000
1000
1000
1000
1000
1000
,
0010
0100
0001
1000
,
1001
0000
0000
0000
;

//--------------- dance-single - Renard ----------------
#NOTES:
     dance-single:
     Renard:
     Hard:
     14:
     0.649,0.847,0.23,0,0.481:
0000
0000
0000
0000
,
0000
0000
0000
0000
,
0000
0000
0000
0000
,
0000
0000
0000
0000
,
0000
1010
0100
0011
,
0000
0011
0100
1010
,
0000
1010
0100
0011
,
0000
0011
0100
1010
,
1000
0000
0001
0000
0100
0010
1000
0010
,
0100
0000
0010
0000
0100
0001
0010
0100
,
0010
0001
0010
0100
,
1000
0000
0010
0000
0100
0001
0100
0001
,
0100
0000
0010
0000
1000
0100
0010
0100
,
1000
0000
0010
0000
0100
0001
0010
0100
,
0010
0001
0100
0010
,
1000
0110
0001
0110
,
1001
0000
0000
0000
,
0000
0000
0000
0000
,
0000
0000
0000
0000
,
1000
0000
0001
0100
0010
1000
0010
0100
,
0001
0000
0100
0010
0000
0010
1000
0010
,
0100
0000
0101
0000
0010
1000
0010
0000
,
1000
0100
1000
0100
0010
0001
0010
0100
,
1000
0000
1010
0000
0100
0100
0100
0100
,
0010
0000
1001
0000
0100
0100
0100
0100
,
0010
0000
1100
0000
0010
0010
0010
0010
,
0001
0001
0010
0010
0100
0100
1000
1000
,
0010
1000
0001
0100
0010
1000
0010
0100
,
0001
0100
0001
0100
0001
0100
0001
0000
,
1001
0000
1000
1100
0000
0100
0110
0000
,
0010
0001
0010
0100
1000
0010
0100
0001
,
1000
0010
1000
0100
0010
0001
0010
0100
,
1000
0010
1000
0001
0010
0100
0010
0000
,
0011
0000
0010
0110
0000
0100
1100
0000
,
1000
0010
1000
0010
1000
0001
1000
0000
,
1001
0000
0000
0000
,
1000
0000
1000
0001
0000
0001
0100
0000
0100
0010
1000
0010
,
0100
0000
0100
0001
0000
0001
0010
0000
0010
0100
0000
0100
,
1000
0000
1000
0100
0000
0100
0010
0000
0010
0001
0000
0001
,
1000
0000
1000
0010
0000
0010
0100
0000
0100
0001
0000
0001
,
1000
0000
1000
0001
0000
0001
1000
0000
1000
0001
0000
0001
,
1000
0000
1000
0100
0000
0100
0010
0001
0010
0001
0010
0001
,
0010
0000
0010
0001
0000
0001
0010
0000
0010
0100
0000
0100
,
1000
0000
1000
0010
0000
0010
1000
0000
1000
0001
0000
0001
,
0100
0000
0100
0010
0000
0010
1000
0000
1000
0100
0000
0100
,
1000
0000
1000
0001
0000
0001
0100
0000
0100
0001
0000
0001
,
1000
0000
1000
0001
0000
0001
1000
0001
1000
0001
0000
0001
,
1000
0000
1000
0010
0000
0010
0100
0001
0100
0001
0000
0001
,
0100
0000
0100
0010
0000
0010
1000
0100
1000
0100
0000
0100
,
0010
0000
0010
0001
0000
0001
1000
0001
1000
0001
0000
0001
,
1000
0000
1000
0010
0000
0010
0100
0010
0100
0010
0000
0010
,
0100
0000
0100
0001
0000
0001
1000
0001
1000
0001
0000
0001
,
1000
0000
1000
0100
0000
0100
0010
0001
0010
0001
0000
0001
,
0010
0010
0010
0010
0001
0001
0001
0001
,
1000
1000
1000
1000
0010
0010
0010
0010
,
1000
0001
1000
0001
1000
0001
1000
0001
1000
0001
1000
0001
1000
0001
1000
0001
,
1000
0001
1000
0001
1000
0001
1000
0001
1000
0001
1000
0001
0000
0000
0000
0000
,
1000
0000
0010
0100
0001
0100
0010
1000
,
0100
0000
0100
1000
0000
1000
0010
0000
,
0100
0001
0100
0010
0100
1000
0100
0010
,
0100
0001
0010
1000
0010
0100
0010
0001
,
0010
0100
1000
0010
0010
0010
0010
0010
,
0100
0001
0010
0100
1000
1000
1000
1000
,
0010
0100
0001
0001
0001
1000
0100
0100
,
0010
0001
1000
0010
0100
0100
0001
0001
;

//--------------- dance-single - Renard ----------------
#NOTES:
     dance-single:
     Renard:
     Challenge:
     15:
     0.803,0.881,0.972,0.073,0.611:
0000
0000
0000
0000
,
0000
0000
0000
0000
,
0000
0000
0000
0000
,
0000
0000
0000
0000
,
1000
0100
1000
0100
0010
0000
0000
0000
0001
0100
0001
0100
0010
0000
0000
0000
,
1000
0100
1000
0100
0010
0000
0000
0000
0001
0100
0001
0100
0010
0000
0000
0000
,
1000
0010
1000
0010
0100
0000
0000
0000
0001
0010
0001
0010
0100
0000
0000
0000
,
1000
0010
1000
0010
0100
0000
0000
0000
0001
0010
0001
0010
0100
0000
0000
0000
,
1000
0000
0010
0000
1010
0000
0000
0100
0000
0100
0001
0000
0011
0000
0000
0010
,
0000
0010
0100
0000
1100
0000
0000
1000
0000
1000
0001
0000
0101
0000
0000
0001
,
1000
0000
0100
0000
1100
0000
0000
0010
0000
0010
0001
0000
0011
0000
0000
0010
,
0000
0010
0100
0000
0110
0000
0000
0100
0000
0100
1000
0000
1001
0000
0000
0000
,
1000
0010
1000
0000
0101
0000
0000
1000
0000
1000
0010
0000
0101
0000
0000
1000
,
0000
1000
0100
0000
0011
0000
0000
1000
0000
1000
0001
0000
0110
0000
0000
0000
,
0001
0100
0001
0000
1010
0000
0000
0001
0000
0001
0100
0000
1010
0000
0000
0001
,
0000
0001
0010
0000
1100
0000
0000
0001
0000
0001
1000
0000
0110
0000
0000
0000
,
2002
0000
0000
0000
,
0000
0000
0000
0000
,
0000
0000
0000
3003
,
1100
0000
0010
0001
0101
0100
0110
0010
,
2010
0000
0100
3200
0000
0310
0001
0010
,
1000
0010
0100
1000
0100
0001
0100
1000
,
0010
0100
0001
0100
0010
1000
0010
0001
,
0011
0010
0110
0010
1010
0010
0011
0010
,
1010
1000
1100
1000
1001
0001
0011
0010
,
0110
0100
1100
1000
1001
0001
0101
0100
,
0102
0000
1000
2003
0010
0010
3010
0000
,
1000
0000
0100
1000
0100
0000
1000
0000
0010
0000
0100
0000
0001
0000
0010
0000
,
0001
0000
1000
0100
1000
0000
0001
0010
0001
0000
1000
0000
1001
0000
0000
0000
,
1010
0100
0001
0011
0100
1000
0110
0001
,
0110
0000
1100
0000
0001
0010
0100
1000
,
0010
1000
0001
0100
0000
0100
0010
1000
,
0010
0101
0110
1100
,
1000
0100
0001
0100
0000
0000
0110
0010
,
1010
1100
0011
1001
,
0110
0000
0000
0000
,
1000
0000
1000
0010
0000
0010
0100
0001
0100
0010
0000
0010
,
1000
0000
1000
0100
0000
0100
0010
0000
0000
0011
0000
0000
,
0110
0000
0100
1000
0000
1000
0010
0000
0000
0101
0000
0010
,
1000
0010
1000
0001
0100
0001
0010
0000
0010
0100
0000
0100
,
1000
0010
0100
0001
0000
0001
0100
0000
0000
1010
0000
0000
,
0101
0000
0100
0010
1000
0010
0100
0001
1000
0100
0000
0100
,
1000
0000
1000
0010
0000
0010
0100
0000
0000
1001
0000
0000
,
1100
0000
0000
0011
0000
0000
1001
0000
1000
0001
0000
0001
,
0100
0000
0100
0010
0000
0010
0001
0000
0010
0100
0000
0100
,
1000
0000
0100
0001
0000
0100
0010
0000
0010
1000
0000
1000
,
0001
0100
0001
1000
0000
1000
0100
0000
0100
0010
0000
0000
,
0011
0000
0000
0110
0000
0000
0100
1000
0010
0100
0001
1000
,
0001
0000
0000
0110
0000
0000
1000
0010
0100
0001
0000
0000
,
0110
0000
0000
0101
0000
0000
0001
0100
0010
1000
0100
1000
,
0010
0000
0000
0101
0000
0000
0010
1000
0100
1000
0000
0000
,
0011
0000
0000
1100
0000
0000
0001
0100
0001
1000
0100
0010
,
0001
0011
0110
1100
,
1000
0010
1000
0001
0100
0001
0010
0100
,
1000
0100
1000
0010
0100
0001
0010
0100
,
1000
0100
1000
0001
0010
0001
1000
0010
1000
0001
0100
0001
1000
0100
0010
0100
,
1000
0001
0010
0100
0010
0001
1000
0010
0100
0001
0100
0010
0000
0000
0000
0000
,
1010
0000
1100
0100
0110
0010
0011
0000
,
1001
0000
1010
0101
0000
0101
1001
0000
,
1000
0100
0010
0000
0010
0100
1000
0000
,
0001
0010
0100
0000
0100
0010
0001
0000
,
1010
0010
0011
0010
0110
0010
1010
1000
,
1100
0100
0110
0010
0011
0001
1001
0000
,
1010
1100
1001
0000
0011
0101
1001
0000
,
2010
0010
0100
0100
0010
0001
0100
3001
;
