#TITLE:A New Morning;
#SUBTITLE:;
#ARTIST:Yukihiro Fukutomi;
#TITLETRANSLIT:;
#SUBTITLETRANSLIT:;
#ARTISTTRANSLIT:;
#GENRE:;
#CREDIT:;
#MUSIC:anewmorning.ogg;
#BANNER:anewmorning.png;
#BACKGROUND:anewmorning-bg.png;
#CDTITLE:;
#SAMPLESTART:0.000;
#SAMPLELENGTH:0.000;
#SELECTABLE:YES;
#OFFSET:-4.262;
#BPMS:0.000=125.000;
#STOPS:;
#BGCHANGES:;
#FGCHANGES:;

//--------------- dance-single - ----------------
#NOTES:
     dance-single:
     :
     Easy:
     5:
     0,0,0,0,0:
2000
0000
0000
0000
,
3020
0000
0000
0000
,
0230
0000
0000
0000
,
0302
0000
0000
0000
,
0023
0000
0000
0000
,
0230
0000
0000
0000
,
1300
1000
0001
0001
,
1010
0100
0101
0010
,
1000
0010
1000
0010
,
0100
0001
0100
0001
,
1001
0000
0100
0010
,
1000
0001
0010
0100
,
1000
0100
0010
0001
,
2020
0000
0000
3030
,
1000
1001
0010
0000
,
0010
0110
1000
0000
,
1000
1001
0100
0000
,
0001
0101
0010
0000
,
1000
0010
1000
0001
,
0010
0100
0010
0001
,
1000
0000
0010
0000
,
0100
0100
0010
0010
,
2000
0000
0010
3000
,
0200
0000
0010
0300
,
0020
0000
1000
0030
,
0002
0000
0100
0003
,
1000
1000
0100
0010
,
0001
0001
0100
0010
,
1000
0000
0100
0010
,
0010
0000
1000
0001
,
0110
0000
0100
0000
,
1000
0100
0001
0010
,
1000
0100
0001
0100
,
1000
0000
0001
0010
,
0100
0000
1000
0010
,
0100
0010
0100
0001
,
0110
0000
1000
0000
,
1001
0000
0001
0000
,
1000
1000
1000
1000
,
0010
0010
0010
0010
,
0001
0001
0001
0001
,
0100
0100
0100
0100
,
1000
1000
0100
0100
,
0010
0010
0100
0100
,
0001
0001
1000
1000
,
0100
0100
0010
0000
,
1000
0010
0100
1001
,
0010
0100
0010
1010
,
0100
0001
0010
0101
,
1000
0001
0010
1010
,
0100
0010
1000
0101
,
0010
0100
1000
0011
,
0100
0000
0010
0000
,
0100
0010
1000
0001
,
0020
0000
0230
0000
,
0320
0000
0000
0000
,
0030
0000
0000
0000
;

//--------------- dance-single - ----------------
#NOTES:
     dance-single:
     :
     Medium:
     7:
     0,0,0,0,0:
2000
0000
0010
3000
,
0002
0000
0000
0000
0000
0000
0000
0000
0000
0000
0000
0000
0000
0000
0000
0000
0100
0000
0000
0000
0000
0000
0000
0003
0000
0000
0000
0000
0000
0000
0000
0000
,
0020
0000
1000
0030
,
0200
0000
0010
0300
,
2000
0000
0010
3000
,
1000
0000
0100
0000
0010
0001
0100
0000
,
1000
0100
0010
0001
,
1000
0010
1000
0000
0001
0100
0001
0000
,
2000
0010
0100
3001
,
0002
0010
0100
1003
,
0100
0000
1000
0100
1000
0010
1000
0000
,
0010
0000
0100
0001
0100
0010
0100
0000
,
1000
0101
0010
1010
,
1000
0000
0001
0000
0100
0010
0100
0010
,
0100
0000
1000
0100
0010
0001
0100
0000
,
0010
0000
0100
0010
1000
0001
1000
0000
,
0001
0000
0010
0100
1000
0010
0100
0000
,
0010
0000
1000
0001
0100
0010
0100
0000
,
1000
1010
0100
1010
,
0001
0110
1000
0110
,
1000
0011
0100
0011
,
0100
1001
0010
1001
,
1000
0000
0010
0000
1000
0010
1000
0000
,
0001
0000
0010
0000
0001
0010
0001
0000
,
1000
0000
0001
0000
1000
0001
0100
0000
,
1000
0000
0010
0000
1000
0010
0100
0000
,
2000
0100
0010
3100
,
0200
1000
0010
1300
,
0020
1000
0001
1030
,
0002
0000
0000
0003
,
1000
0000
0001
0000
0100
0010
0100
0000
,
0010
0100
0001
0000
0010
0100
1000
0000
,
0001
1000
0100
0000
1000
0001
0010
0000
,
1010
0100
0101
0001
,
1000
0100
0001
0000
0001
0100
1000
0000
,
1000
0010
0001
0000
0001
0010
1000
0000
,
1010
0000
0101
0000
,
1000
0100
0010
0001
,
1000
0010
1000
0000
0010
0000
0100
0000
,
0001
0010
0001
0000
0010
0000
0100
0000
,
1000
0100
1000
0000
0001
0000
0100
0000
,
0010
0100
0010
0000
1000
0000
0001
0000
,
0010
0100
1000
0000
0010
0000
0100
0000
,
0001
0010
0100
0000
1000
0000
0010
0000
,
0100
0010
1000
0000
0001
0000
0010
0000
,
0100
0010
0001
0000
1000
0000
0010
0000
,
1000
1000
1000
0000
1010
0000
1001
0000
,
0100
0100
0100
0000
0110
0000
0101
0000
,
0010
0010
0010
0000
1010
0000
0101
0000
,
0001
0001
0001
0000
0110
0000
1001
0000
,
0100
0010
1000
0000
0002
0000
0013
0000
,
0100
1000
0010
0000
0200
0000
0310
0000
,
1000
0001
0010
0000
0200
0000
1300
0000
,
0010
0100
0001
0000
0020
0000
0130
0000
,
2000
0000
0010
0000
,
3002
0000
0000
0000
,
0003
0000
0000
0000
;

//--------------- dance-single - ----------------
#NOTES:
     dance-single:
     :
     Hard:
     12:
     0,0,0,0,0:
1000
0000
0000
0100
0000
0000
0010
0000
0000
0000
0100
0000
0000
0010
0000
0000
,
0001
0000
0000
1000
0000
0000
0010
0000
0000
0000
0100
0000
0000
0001
0000
0000
,
0010
0000
0000
0100
0000
0000
1000
0000
0000
0000
0010
0000
0000
0001
0000
0000
,
0010
0000
0000
1000
0000
0000
0100
0000
0000
0000
0010
0000
0000
1000
0000
0000
,
0010
0000
0000
0001
0000
0000
0100
0000
0000
0000
1000
0000
0000
0100
0000
0000
,
0010
0000
0000
0001
0000
0000
0010
0000
0000
0000
1000
0000
0000
0100
0000
0000
,
0010
0000
0001
0000
1000
0010
0100
0000
,
0010
0100
0001
0100
0010
1000
0001
0000
,
1000
0100
0001
0100
1000
0010
0100
0001
,
0010
0100
1000
0010
0100
0010
1000
0001
,
0100
0000
0000
0000
0010
0000
0000
1000
0000
0000
0000
0000
0001
0000
0010
0000
,
0100
1000
0010
0100
0001
0010
0100
0000
,
1000
0100
0010
0000
0001
1000
0100
0000
,
1000
0000
0100
0000
0010
0000
0001
0000
1000
0000
0100
0000
0010
0001
0010
0001
,
0100
1000
0100
0001
0100
1000
0100
0001
,
0010
1000
0010
0001
0010
1000
0010
0001
,
0100
0010
0100
0001
0100
0010
0100
0001
,
0010
0100
0010
0001
0010
0100
0010
0001
,
1000
0010
1000
0001
1000
0010
1000
0001
,
0100
1000
0100
0010
0100
1000
0100
0010
,
1000
0100
1000
0010
1000
0100
1000
0010
,
0100
0010
1000
0001
1000
0100
0010
0001
,
2000
0000
0000
0000
3010
0000
0000
0100
0001
0000
0010
0000
0100
0000
1000
0000
,
0002
0000
0000
0000
0013
0000
0000
0100
1000
0000
0010
0000
0100
0000
0001
0000
,
0020
0000
0000
0000
0031
0000
0000
1000
0010
0000
0100
0000
0001
0000
0010
0000
,
0200
0000
0000
0000
1300
0000
0000
0010
0100
0000
0001
0000
1000
0000
0100
0000
,
0020
0000
0000
0000
0031
0000
0000
0010
0001
0000
0010
0000
0001
0000
0010
0000
,
0200
0000
0000
0000
1300
0000
0000
0100
1000
0000
0100
0000
1000
0000
0100
0000
,
2000
0000
0000
0000
3010
0000
0000
1000
0010
0000
1000
0000
0010
0000
1000
0000
,
0000
0000
0001
0000
0010
0000
0000
0100
0000
0000
0100
0000
0000
0100
0000
0000
,
0000
0000
0000
0000
0001
0000
0000
0100
0000
0010
0000
1000
0000
0100
0010
0001
,
0010
0100
1000
0100
0010
0001
0010
0100
1000
0100
0010
0001
0010
0100
0000
1000
,
0000
0000
0100
0010
0000
0000
0000
0000
0000
0000
0000
0000
0000
0001
0010
0001
,
1000
0100
0010
0100
0010
0001
1000
0100
0010
0001
1000
0010
0100
0001
0010
0100
,
1000
0000
0000
0100
0000
0000
0010
0000
0001
0000
1000
0000
0001
0000
1000
0000
,
0001
0000
0000
0000
0010
0100
1000
0100
0000
0010
0000
0001
0010
0001
1000
0001
,
0100
0000
0000
0010
0000
0000
0000
0000
1000
0000
0010
0000
0001
0000
0010
0000
,
1000
0100
0001
0100
1000
0010
0100
0001
,
1000
0000
0000
0001
0000
0000
1000
0000
0000
0010
0000
0000
1000
0000
0100
0010
,
0000
0001
0000
0000
0100
0000
0000
0000
0100
0000
0000
0000
0100
0000
0010
1000
,
0000
0001
0000
0000
0010
0000
0000
0000
0010
0000
0000
0000
0010
0000
0100
1000
,
0000
0001
0000
0000
1000
0000
0000
0000
1000
0000
0000
0000
1000
0000
0001
0100
,
0000
0020
0000
0000
0100
0000
0000
0000
0100
0000
0000
0000
0130
0000
0001
0010
,
0000
0200
0000
0000
1000
0000
0000
0000
1000
0000
0000
0000
1300
0000
0100
1000
,
0000
0002
0000
0000
0010
0000
0000
0000
0010
0000
0000
0000
0013
0000
0001
0100
,
0000
0000
0020
0000
0000
1000
0000
0000
1000
0000
0000
0000
1030
0000
0100
0010
,
0000
0001
0000
0000
1010
0000
0000
0000
1001
0000
0000
0000
1010
0000
0100
0001
,
0000
1000
0000
0000
1010
0000
0000
0000
1100
0000
0000
0000
1010
0000
0001
0100
,
0000
0010
0000
0000
0110
0000
0000
0000
1010
0000
0000
0000
0110
0000
0010
1000
,
0000
0001
0000
0000
0011
0000
0000
0000
0110
0000
0000
0000
0011
0000
0001
0010
,
0000
0100
0000
0000
0110
0000
0000
0000
0101
0000
0000
0000
0110
0000
0010
0100
,
0000
0001
0000
0000
0101
0000
0000
0000
1001
0000
0000
0000
0011
0000
0010
0100
,
0000
1000
0000
0000
1010
0000
0000
0000
1100
0000
0000
0000
1001
0000
0001
0100
,
0000
0010
0000
0000
1010
0000
0000
0000
0110
0000
0000
0000
1001
0000
0000
0000
,
0200
0000
0000
0000
,
0302
0000
0000
0000
,
0003
0000
0000
0000
;
