#TITLE:A Different Point of View;
#SUBTITLE:;
#ARTIST:Pet Shop Boys;
#TITLETRANSLIT:;
#SUBTITLETRANSLIT:;
#ARTISTTRANSLIT:;
#GENRE:Dance Pop;
#CREDIT:;
#MUSIC:PoV.ogg;
#BANNER:PoV.png;
#BACKGROUND:PoV-bg.png;
#CDTITLE:;
#SAMPLESTART:44.600;
#SAMPLELENGTH:23.000;
#SELECTABLE:YES;
#OFFSET:0.000;
#BPMS:0.000=129.000;
#STOPS:;
#CRChallenge:;
#LABEL:EMI;
#BGCHANGES:;
#FGCHANGES:;

//--------------- dance-single - Renard ----------------
#NOTES:
     dance-single:
     Renard:
     Easy:
     5:
     0.254,0.272,0.093,0.217,0:
0000
0000
0000
0000
,
0000
0000
0000
0000
,
0000
0000
0000
0000
,
0000
0000
0000
0000
,
0000
0000
0000
0000
,
0000
0000
0000
0000
,
0000
0000
0000
0000
,
0000
0000
0000
0000
,
2000
0000
3100
0000
,
0010
0010
0001
0000
,
0002
0000
1003
0000
,
1000
0010
1010
0000
,
0001
0101
0001
0011
,
2000
0000
3100
0000
,
0001
0101
0001
0011
,
0002
0000
1003
0000
,
1000
0010
0100
0010
,
2000
0000
3100
0000
,
0001
0100
0010
1000
,
0200
0000
0001
0000
,
0310
0100
0010
0001
,
2000
0000
3010
0000
,
0100
0001
0010
0001
,
2000
0000
3100
0000
,
0010
0001
0010
0001
,
0010
0001
0010
0001
0010
0000
0001
0000
,
2000
0100
0100
3100
,
0020
0001
0001
0031
,
2000
0010
0010
3010
,
0200
0001
0001
0301
,
1000
0000
1000
0001
0000
0001
1000
0000
,
1000
0001
0000
0001
1000
0000
1000
0000
,
0200
0010
0010
0310
,
0002
1000
1000
1003
,
0020
0000
0000
0200
0000
0000
0330
0000
,
1001
0110
2000
0000
,
3100
0010
0001
1000
,
0010
0100
0001
1000
,
0100
0010
0001
1000
,
0010
0100
0001
1000
,
0100
0000
0100
0010
0000
0010
0100
0000
,
0010
1000
0200
0310
,
1000
0001
0100
0010
,
1000
0100
0010
0001
,
2000
0000
0000
0200
0000
0000
3300
0000
,
0101
0011
0002
0000
,
0103
0010
1000
0100
,
0010
0000
0001
0000
1000
0000
0010
0010
;

//--------------- dance-single - Renard ----------------
#NOTES:
     dance-single:
     Renard:
     Medium:
     9:
     0.388,0.421,0.072,0.196,0.031:
0000
0000
0000
0000
,
0000
0000
0000
0000
,
1000
0000
0000
0100
0000
0000
1000
0000
0000
0100
0000
0000
0010
0000
0001
0000
,
0010
0000
0000
0001
0000
0000
0100
0000
0000
0010
0000
0000
1000
0000
0100
0000
,
1000
0000
0000
0010
0000
0000
0100
0000
0000
0001
0000
0000
0100
0000
0010
0000
,
1000
0100
0010
0001
,
2000
0000
0001
0000
3001
0000
0100
0010
,
0200
0010
0310
0000
,
1000
0010
0100
0001
,
1000
0100
1000
0010
0000
0010
0200
0000
,
0301
0000
0010
0000
0001
0000
0100
0010
,
2000
0000
3100
0100
0000
0010
0001
1000
,
0020
0000
0100
0000
0100
0000
0130
0010
,
0100
0001
0100
0000
0001
0000
1000
0000
,
0200
0000
0010
0000
0010
0000
0310
0100
,
0010
0001
1000
0010
0200
0000
0301
0000
,
1000
0000
0010
0000
0100
0000
0001
0010
,
0001
0000
0001
2000
0000
0100
3100
0000
,
0010
0000
0001
0000
1000
0100
1000
0000
,
0020
0000
0100
0130
0000
0010
1000
0000
,
1000
1100
1000
1010
,
0100
0001
0100
0001
0000
0000
0101
0000
,
1000
1010
0100
0101
,
1000
0010
1000
0010
0000
0000
0101
0000
,
1000
1000
0100
0100
1000
1000
0010
0010
,
0100
0100
0001
0001
0010
0001
0010
0001
,
1000
0100
0010
0001
2000
0000
3010
0000
,
1000
0001
0200
0000
0301
1000
0200
0000
,
0310
0001
1000
0010
0200
0000
0301
0000
,
1000
0001
0100
0000
0001
1000
0100
0100
,
0010
0000
0010
0001
0000
0001
0100
0000
,
0100
0010
0000
0010
1000
1000
0100
0000
,
0010
0000
0001
0000
1000
0010
1000
0000
,
2200
0000
0300
0020
0000
0000
3030
0000
,
0100
0001
0010
0000
0001
0000
1000
0000
,
0100
0010
0001
0000
1000
0000
0010
0000
,
0100
0001
0100
0000
0010
0000
1000
0000
,
0100
0010
0001
0000
1000
0000
0010
0000
,
0100
0000
0100
0002
0000
0000
0010
0000
,
0013
0000
0001
0000
1000
0000
0100
0010
,
0001
0000
1000
0000
0010
0100
0010
0000
,
1000
0000
0100
0010
0000
0001
0001
0000
,
1000
0100
0010
0001
,
1000
0010
0100
0010
0000
0010
1000
0000
,
0100
0000
0100
0020
0000
0000
0001
0000
,
0031
0000
0000
0000
1000
0000
0001
0100
,
0010
1000
0100
0010
,
0001
0100
0010
1000
0200
0000
0310
0010
;

//--------------- dance-single - BlueChaos ----------------
#NOTES:
     dance-single:
     BlueChaos:
     Hard:
     12:
     0.552,0.619,0.217,0.114,0.202:
1000
0000
0000
0100
0000
0000
0010
0000
0000
0000
0011
0000
0000
0000
0001
0000
,
0100
0000
0000
0010
0000
0000
1000
0000
0000
0000
1010
0000
0000
0000
0100
0000
,
0010
0000
0000
1000
0000
0000
0100
0000
0000
0000
0011
0000
0000
0000
0001
0000
,
0100
0000
0000
0010
0000
0000
1000
0000
0000
0000
1001
0000
0000
0000
0001
0000
,
0010
0100
1000
1010
0000
0011
0001
1000
,
0010
0100
0001
0011
0000
0001
0101
0100
,
0010
1000
0001
0010
0100
1000
0010
0000
,
1000
0000
0100
0000
0001
0000
0100
0000
1000
0000
0010
0000
0100
0001
0100
0001
,
1000
0000
0000
0001
0100
0000
0001
0000
0010
0000
0000
0100
1000
0000
0010
0000
,
0100
0000
0000
0010
1000
0000
0001
0000
1000
0000
0000
0001
0100
0000
0010
1000
,
0010
0000
0000
1000
0100
0000
1000
0000
0001
0000
0000
1000
0010
0000
0100
0000
,
0001
0000
0000
0001
0010
0000
0001
0000
1000
0000
0000
0010
0100
0000
0001
1000
,
0001
0000
0000
1000
0100
0000
1000
0000
0001
0000
0100
0000
0001
0000
0010
0000
,
0000
0001
0100
1000
0000
1000
0100
0001
,
0010
0100
0100
1000
0001
0000
1000
0100
,
0010
0010
0001
0001
1000
1000
0010
0010
,
0100
0001
0100
0000
0001
0000
1000
0000
0200
0000
0000
0000
1300
0000
0010
0000
,
0200
0000
0310
0200
0000
0301
0010
0100
,
2000
0000
3100
1000
0020
0000
1030
0100
,
0020
0000
0031
2000
0000
3001
0100
0010
,
1000
0000
0001
0000
1000
0000
0001
0000
1000
0000
0001
0000
1000
0000
0001
0100
,
0010
0000
0100
0000
0010
0000
0100
0000
0010
0000
0100
0000
0010
0000
0100
0001
,
0010
0000
0001
0000
0010
0000
0001
0000
0010
0000
0001
0000
0010
0000
0001
1000
,
0010
1000
0010
1000
0010
1000
0010
1000
,
0001
0100
0001
0100
0001
0000
0100
0010
0000
0010
1000
0000
1000
0100
0000
0100
,
0010
0001
0010
0001
0010
0000
0001
0100
0000
0100
0010
0000
0010
1000
0000
1000
,
0001
0100
0010
1000
0100
1000
0010
0100
,
0001
0100
0010
1000
0001
1000
0100
0010
,
0001
0010
0100
1000
0001
0100
0010
0100
,
0001
0010
0100
1000
0100
1000
0010
0100
,
1001
0010
0100
0010
0000
1000
0101
0010
,
1000
0100
0000
0010
1100
1000
0001
0100
,
0001
0020
0030
0011
0000
0001
1000
0001
,
0000
0100
0010
0100
0000
0001
0010
0100
,
1001
0100
0010
1000
0000
0001
2000
0000
,
3200
0000
0320
0000
0031
0100
0000
0001
,
0011
0000
0000
0001
0000
0000
1000
0000
0000
0000
0001
0000
0100
0000
0010
0000
,
1001
0000
0000
1000
0000
0000
0100
0000
0000
0000
1000
0000
0100
0000
0010
0000
,
0011
0000
0000
0001
0000
0000
0100
0000
0000
0000
0001
0000
0100
0000
0010
0000
,
1010
0000
0000
0010
0000
0000
0100
0000
0000
0000
0010
0000
1000
0000
0100
0000
,
0110
0000
0100
1000
0000
0001
0100
0000
,
0010
1000
0000
0001
0010
0000
0001
0000
,
0100
0010
0000
1001
0000
1000
0001
1000
,
0000
0010
0100
0010
0000
1000
0010
0100
,
0101
0000
0001
0010
0000
0001
1000
0001
,
0000
0100
0010
0100
0001
0010
0100
1000
,
1001
0000
0001
0100
0010
0100
0001
0000
,
1000
0000
0100
0000
0010
0000
0100
0000
1000
0000
0000
0000
0001
1000
0001
1000
;

//--------------- dance-single - Renard ----------------
#NOTES:
     dance-single:
     Renard:
     Challenge:
     12:
     0.561,0.545,0.32,0.155,0.295:
0000
0000
0000
0000
,
0000
0000
0000
0000
,
0000
0000
0000
0000
,
0000
0000
0000
0000
0000
0000
1000
0001
,
1000
0000
1000
0100
0000
0100
1000
0000
1000
0010
0000
0010
0100
0000
0010
0000
,
0100
0000
0100
0001
0000
0001
0010
0000
0010
0001
0000
0001
0010
0000
0001
0000
,
1001
0000
0000
0101
0000
0000
0020
0000
0000
0130
0000
0000
0101
0000
0011
0000
,
0002
0000
0000
0103
0000
0000
1010
0000
0000
1100
0000
0000
0010
0000
0001
0000
,
1000
0000
0100
0000
1000
0100
1000
0000
0010
0000
0100
0000
0001
0100
0001
0000
,
0010
0000
0001
0000
0100
0001
0100
0000
0010
0000
1000
0000
0100
1000
0100
0000
,
0010
0000
0001
0000
0100
0001
0100
0000
0010
0000
1000
0000
0100
0010
0100
0000
,
0010
0000
0001
0000
0100
0001
0100
0000
0010
0000
0100
0000
0010
0000
1000
0000
,
0000
0100
0010
0001
0000
1000
0010
0000
,
0200
0000
0301
0000
0010
0001
0010
0001
,
0000
0100
0001
2000
0000
3100
0010
0000
,
0002
0000
0100
0003
0010
0010
0010
0000
,
0001
0000
0010
0000
0001
0010
0001
0000
0100
0000
0010
0000
1000
0010
1000
0000
,
0100
0000
1000
0000
0010
1000
0010
0000
0100
0000
0001
0000
0010
0001
0010
0000
,
0100
0000
1000
0000
0010
1000
0010
0000
0100
0000
0001
0000
0010
0100
0010
0000
,
0100
0000
1000
0000
0010
1000
0010
0000
0100
0000
0010
0000
0100
0000
0001
0000
,
1000
0001
0000
0000
0101
0000
0000
1010
0000
0000
1100
0000
0000
0110
0000
0000
,
0001
0100
0000
0000
0101
0000
0000
1100
0000
0000
1010
0000
0000
1100
0000
0000
,
0010
0001
0000
0000
0100
0000
0000
0002
0000
0000
0013
0000
0000
0002
0000
0000
,
1003
0100
0000
0000
2000
0000
0000
3100
0000
0000
0020
0000
0000
0031
0000
0000
,
1000
0100
0010
0100
1000
0010
0100
0010
,
1000
0000
0100
0000
0010
0000
0100
0000
1000
0010
1000
0010
1000
0010
1000
0000
,
0100
0000
0010
0000
0001
0000
1000
0000
0010
0000
0000
0110
0000
0000
1000
0000
,
0100
0000
0010
0000
0001
0000
1000
0000
0010
0000
0000
0101
0000
0000
0001
0000
,
1000
0000
0100
0000
1000
0000
0010
0000
0100
0000
0000
0101
0000
0000
0010
0000
,
0100
0001
1000
0100
0010
0001
1100
0000
,
1010
0000
0010
0110
0000
0100
1100
0000
,
0100
0101
0000
0001
0011
0000
1001
0000
,
1000
0100
0010
0001
2000
0000
3100
0000
,
0010
0001
1000
0010
0100
0010
1000
0100
,
1100
0000
0100
0110
0000
0001
1000
0100
,
0010
0001
1000
0010
1000
0010
0100
0000
,
0001
1000
0100
0010
0002
0000
1003
0000
,
0001
0000
0100
0000
0010
0000
1000
0000
0100
0000
0010
0000
0001
0010
0001
0000
,
1000
0010
0100
0001
2000
0000
3100
0000
,
0010
0000
0001
0000
1000
0000
0100
0000
1000
0010
1000
0000
0100
0001
0100
0000
,
0010
1000
0100
0010
0200
0000
1300
0000
,
0100
0000
1000
0000
0010
0000
0100
0000
0001
0010
0001
0000
0100
0010
0100
0000
,
0010
0100
0010
1000
0100
0010
0001
1000
,
0010
0100
0010
1000
0100
0010
0100
1000
,
1010
0000
1000
1100
0000
1000
0100
0010
,
0002
0000
1003
0000
0100
0010
0200
0000
,
0310
0000
0010
0100
0000
0100
0010
0000
0010
1000
0000
1000
0100
0000
0010
0000
,
0011
0000
0000
0101
0000
0000
1010
0000
0000
1000
0100
0000
1000
0100
1000
0100
;
