#TITLE:101 Kittens;
#SUBTITLE:;
#ARTIST:Cranky;
#TITLETRANSLIT:;
#SUBTITLETRANSLIT:;
#ARTISTTRANSLIT:;
#GENRE:Helium Dance;
#CREDIT:;
#MUSIC:101.ogg;
#BANNER:101.png;
#BACKGROUND:101-bg.png;
#CDTITLE:;
#SAMPLESTART:39.995;
#SAMPLELENGTH:12.000;
#SELECTABLE:YES;
#OFFSET:0.000;
#BPMS:0.000=150.000
,220.000=400.000
,230.667=600.000
;
#STOPS:;
#CRChallenge:;
#LABEL:Feline Groove;
#BGCHANGES:;
#FGCHANGES:;

//--------------- dance-single - Renard ----------------
#NOTES:
     dance-single:
     Renard:
     Easy:
     6:
     0.381,0.396,0.498,0,0:
0000
0000
0000
0000
,
0001
0001
1000
1000
,
0010
0000
0000
0000
,
0100
0100
0010
0010
,
1000
0000
0000
0001
,
0001
1010
1000
0001
,
1000
0011
0001
1000
,
0001
1100
1000
0001
,
1000
0101
0010
0000
,
1000
0011
0001
1000
,
1001
0000
0101
0010
,
1000
0100
0010
0100
,
1000
0010
0100
0001
,
0010
0010
0100
0100
,
1000
0000
0001
0100
,
0010
1000
0001
0010
,
0001
0100
0010
1000
,
0001
0001
1000
0010
,
1000
1001
1001
1001
,
1001
1000
0001
0001
,
1000
0010
0000
0110
,
0001
0100
0010
1000
,
0001
0010
0000
0110
,
0100
1000
0010
0100
,
0001
1000
0000
0110
,
0001
0100
0010
1000
,
0010
0100
0000
0110
,
0001
0001
0100
0100
,
0001
0001
1000
1010
,
0001
0001
0100
0100
,
0001
0001
1000
1010
,
0100
0100
1000
1000
,
0100
0100
0001
0011
,
0100
0001
0011
0100
,
1000
0010
1000
1001
,
1001
0010
0100
0001
,
0010
0011
0011
0011
,
0011
0100
1000
0010
,
1000
1010
1010
1010
,
1010
1000
0001
0001
,
0100
0100
0010
0010
,
1000
0000
0001
0000
,
0101
0011
0110
1100
,
1001
0000
0000
0000
,
1001
0000
0000
0100
,
1010
0000
0000
0001
,
0010
0011
0100
1000
,
0010
1010
1000
1000
,
0001
0011
0001
0001
,
0010
0100
1100
1000
,
0001
1001
1000
1010
,
0001
0001
0010
0010
,
0100
1000
0100
0010
,
0001
1000
0010
0100
,
0001
0110
1001
1000
,
1001
0000
0000
0000
;

//--------------- dance-single - Renard ----------------
#NOTES:
     dance-single:
     Renard:
     Medium:
     8:
     0.407,0.417,0.199,0.055,0.006:
0000
0000
0000
0000
,
1000
1000
0001
0001
,
0200
0000
0000
0000
,
0310
0010
0100
0100
,
0002
0000
0000
0000
0000
0003
1001
0000
,
1000
0001
0100
0000
0001
0000
1000
0000
,
0001
1000
0100
0000
1000
0000
0001
0000
,
1000
0001
0010
0000
0001
0000
1000
0000
,
0001
1000
0010
0200
0000
0000
0000
0000
,
0301
1000
0100
0000
1000
0000
0001
0000
,
1001
0000
0000
1010
0000
0000
0100
0000
,
0001
0000
0010
0000
0100
0000
0010
0001
,
0000
0100
0010
1000
,
0100
0100
0010
0010
,
0001
0000
1000
0010
,
0100
0001
1000
0100
,
1000
0010
0100
0001
,
1000
1000
0001
0100
,
0001
1000
0001
1000
0001
1000
0001
1000
,
0001
0001
1000
1000
,
0001
0000
0100
0000
0000
0110
0110
0000
,
1000
0010
0100
0001
,
1000
0000
0100
0000
0000
0110
0110
0000
,
0010
0001
0100
0010
,
1000
0000
0001
0000
0000
0110
0110
0000
,
1000
0010
0100
0001
,
0100
0000
0010
0000
0000
0110
0110
0000
,
1000
1000
0010
0010
,
1000
0000
1000
0000
0001
0100
0001
0000
,
1000
1000
0010
0010
,
1000
0000
1000
0000
0001
0100
0001
0000
,
0010
0010
0001
0001
,
0010
0000
0010
0000
1000
0100
1000
0000
,
0010
0000
1000
0100
1000
0000
0010
0000
,
0001
0000
0100
0000
0001
1000
0001
1000
,
0001
0100
0010
1000
,
0100
1000
0100
1000
0100
1000
0100
1000
,
0100
0010
0001
0100
,
0001
0100
0001
0100
0001
0100
0001
0100
,
0001
0001
1000
1000
,
0010
0010
0100
0100
,
0001
0000
1000
0000
,
1010
1100
0110
0011
,
1001
0000
0000
0000
0000
0000
0000
0001
,
1000
0000
0000
0000
0000
0000
0010
0100
,
0001
0000
0000
1000
,
0100
1000
0100
0010
0000
0000
0001
0000
,
0100
0001
0100
0000
0001
0000
0001
0000
,
1000
0100
1000
0000
1000
0000
1000
0000
,
0100
0000
0010
0001
0010
0000
0001
0000
,
1000
0001
1000
0000
0001
0100
0001
0000
,
1000
1000
0100
0100
,
0010
0001
0010
0100
,
1000
0001
0100
0010
,
1000
0010
0100
0001
1000
0000
0001
0000
,
0202
0000
0000
0000
,
0000
0000
0000
0000
,
0000
0000
0000
0000
0000
0000
0000
0000
1010
0000
0000
0000
,
0303
0000
0000
0000
;

//--------------- dance-single - Renard ----------------
#NOTES:
     dance-single:
     Renard:
     Hard:
     12:
     0.612,0.607,0.233,0,0.249:
0000
0000
0000
0000
,
1000
0000
0000
0001
0000
0000
0000
0000
0100
0000
0000
0001
0000
0000
0000
0000
,
1000
0100
1000
0100
,
0010
0000
0000
0001
0000
0000
0000
0000
0100
0000
0000
0001
0000
0000
0000
0000
,
1000
0000
0001
0000
0100
0001
0100
0000
,
0010
0000
0000
0010
1000
0000
0100
0000
0010
0000
0000
0000
0010
0000
0000
0000
,
0001
0000
0000
0001
0100
0000
0001
0000
1000
0000
0100
0000
1000
0000
0000
0000
,
0010
0000
0000
0010
1000
0000
0001
0000
0100
0000
0000
0100
0001
0000
1000
0000
,
0100
1000
0001
1000
0000
0000
0000
0000
,
0001
0100
0010
0000
1000
0100
0010
0000
,
0001
0100
0001
1000
0001
1000
0001
0000
,
1000
0010
1000
0000
0100
0010
0001
0000
,
1000
0000
0001
0000
0000
0100
0001
0000
1000
0000
0000
0000
0001
0000
0000
0000
,
0101
0110
1010
1001
,
1000
0000
0100
0000
0010
0000
0000
0010
0001
0000
0100
0000
0010
0000
0000
0010
,
1000
0100
1000
0010
0100
0001
1000
0001
,
1000
0000
1000
0000
0001
0000
0001
0000
0100
0001
0100
0000
0001
0000
0000
0000
,
1000
1000
0100
0010
,
1001
1010
0101
1001
,
1000
0100
1000
0100
1000
0100
1000
0100
,
0010
0010
0001
0001
0100
0010
0100
0010
,
1000
0010
1000
0010
1000
0001
1000
0001
,
0100
0001
1000
0001
0100
0100
0100
0100
,
0001
1000
0010
1000
0001
0010
0001
1000
,
0010
1000
0100
0010
0001
0001
0001
0001
,
0100
0010
1000
0001
0100
0001
1000
0001
,
0100
0100
0010
0010
1000
1000
0100
0000
,
0100
0000
0000
0100
0001
0000
0010
0000
0100
0000
0000
0000
0100
0000
0000
0000
,
1000
0000
0000
1000
0010
0000
1000
0000
0001
0000
0010
0000
0001
0000
0000
0000
,
0100
0000
0000
0100
0001
0000
1000
0000
0010
0000
0000
0010
1000
0000
0001
0000
,
0010
0000
0001
0000
1000
0000
0001
0000
1000
0001
0000
0101
0000
0000
0000
0000
,
1000
0010
0100
0000
0001
0010
0100
0000
,
1000
0010
1000
0001
1000
0001
1000
0000
,
0001
0100
0001
0000
0010
0100
1000
0000
,
0001
0000
1000
0000
0000
0010
1000
0000
0001
0000
0000
0000
1000
0000
0000
0000
,
1010
0110
0101
1001
,
0001
0000
0010
0000
0100
0000
0000
0100
1000
0000
0010
0000
0100
0000
0000
0100
,
0001
0010
0001
0100
0010
1000
0001
1000
,
0001
0000
0001
0000
1000
0000
1000
0000
0010
1000
0010
0000
1000
0000
0000
0000
,
0001
0001
0010
0100
,
1001
0101
1010
1001
,
0001
0010
0001
0010
0001
0010
0001
0010
,
0100
0000
0100
0000
1000
0000
1000
0000
0001
1000
0001
1000
0001
1000
0001
1000
,
0001
0000
0100
0000
0001
0000
1000
0001
,
0100
0000
0010
0000
1000
0000
0100
1000
,
0001
0000
0000
0000
0010
0000
0000
0000
0001
0000
0000
0000
0001
1000
0001
0000
,
1000
0000
1000
0000
0100
0000
0010
0000
0000
0000
0001
1000
0001
0000
1000
0000
,
0010
0100
0001
1000
0100
1000
0001
0010
,
0001
0100
0010
1000
0100
1000
1001
0000
,
0001
0010
0001
0100
0010
1000
0001
0100
,
0001
1000
0100
1000
0001
1000
1001
0000
,
1000
0000
0001
0000
0100
0010
0000
1000
0000
0010
0000
0100
0001
0000
0100
0000
,
0010
0000
1000
0000
0100
0010
0000
0001
0000
0010
0000
0100
1000
0000
0010
0000
,
0100
0000
0001
0000
1000
0001
0000
0100
0000
0010
0000
1000
0100
0000
1000
0000
,
0010
0000
0100
0000
0001
1000
0000
0001
0000
0100
0000
0010
1000
0000
0000
0000
,
1001
0000
0000
0000
,
0000
0000
0000
0000
,
0000
0000
0000
0000
0000
0000
0000
0000
0110
0000
0000
0000
;

//--------------- dance-single - Renard ----------------
#NOTES:
     dance-single:
     Renard:
     Challenge:
     16:
     0.982,0.958,0.93,0.089,0.914:
0000
0000
0000
0000
,
1100
0000
0000
1100
0000
0000
0000
0000
0011
0000
0000
0011
0000
0000
0000
0000
,
0000
0000
1000
0000
0001
0000
1000
0001
0100
0010
0000
1000
0000
0001
0100
0000
,
0101
0000
0000
0110
0000
0000
0000
0000
1010
0000
0000
0110
0000
0000
0000
0000
,
0001
0100
0000
0100
0010
0000
0010
0000
1000
0100
0000
0100
0010
0000
0001
0000
,
1000
0000
0100
1000
0100
0010
0000
0011
0000
0110
0000
0100
1000
0000
0010
0000
,
0100
0000
0001
0100
0010
1000
0000
1010
0000
0110
0000
0001
0100
0001
1000
0001
,
1000
0000
0001
0100
0001
1000
0000
1100
0000
0110
0000
0010
0001
0000
1001
0000
,
1000
0000
0000
0000
0000
0000
0100
0000
0000
0000
0000
0000
0010
0000
0000
0000
0000
0000
0001
0000
0000
0000
0000
0000
1000
0000
0000
0001
0000
0000
0000
0000
0000
0000
0001
0000
1000
0000
0000
0000
0000
0000
0001
0000
0000
0000
0000
0000
,
1000
1000
0100
0010
0001
0001
0010
0100
,
2000
0000
3010
0200
0000
0001
0301
0000
,
1000
1000
0001
0001
0100
0100
0010
0020
,
2000
0030
0200
0000
0001
0010
3311
0000
,
1200
0000
0010
0000
0001
0000
0301
0100
,
1000
0010
0001
0010
0011
0000
1010
0000
,
0201
0000
0010
0000
1300
0100
0001
0010
,
1000
1010
0011
0101
,
0001
0000
1000
0100
1000
0000
0001
0100
0001
0000
1000
0100
1000
0000
0001
0100
,
0001
0000
0010
0000
0100
0000
1000
0010
1000
0000
0001
0010
0001
1000
0001
0000
,
1100
0000
0110
0000
0110
0000
0001
0010
0100
0000
0110
0000
0110
0000
0001
0100
,
0010
0000
0110
0000
0100
0000
1100
0000
1000
0000
1001
0000
1001
0000
0001
0100
,
0010
0000
0110
0000
0110
0000
1000
0010
0100
0000
0110
0000
0110
0000
1000
0010
,
0100
0110
0010
1010
1000
1001
1001
0000
,
0011
0000
0110
0000
0110
0000
1000
0100
0010
0000
0110
0000
0110
0000
1000
0010
,
0100
0000
0110
0000
0010
0000
0011
0000
0001
0000
1001
0000
1001
0000
1000
0010
,
0100
0000
0110
0000
0110
0000
0001
0100
0010
0000
0110
0000
0110
0000
0001
0100
,
0010
0110
0100
0101
0001
1001
1001
0000
,
1000
0000
0001
0100
1000
0100
0000
0110
0000
0010
0000
1000
0010
0000
0001
0000
,
0010
0000
1000
0000
0010
0000
0001
0000
0010
0100
0000
0110
0000
0000
0110
0000
,
1000
0000
0100
0001
0100
0010
0000
0110
0000
1000
0000
0010
0001
0000
0010
0000
,
0100
0000
1000
0100
0001
0000
0100
0000
0010
1000
0000
0001
1000
0001
1000
0000
,
0001
0000
0100
0001
0100
0000
0001
0000
1000
0000
0100
1000
0100
0000
1000
0000
,
0001
0000
0010
0001
0010
0000
0001
0000
1000
0000
0010
1000
0010
1000
0010
0000
,
1000
0100
0010
0000
0110
0000
0000
0000
0001
0010
0100
0000
0110
0000
0000
0000
,
1000
0010
0100
0000
0110
0000
0001
0100
0010
0000
0110
0000
1000
0001
1000
0000
,
0001
0010
0100
1000
0100
0010
0001
0010
0100
1000
0100
0010
0001
0000
1000
0000
,
0001
0100
0001
0100
0001
0100
0001
0100
0001
0100
0001
0100
0001
0100
0001
0000
,
1000
0010
0100
0001
0100
0010
1000
0010
0100
0001
0100
0010
1000
0000
0000
0000
,
0100
1000
0100
1000
0100
1000
0100
1000
0100
1000
0100
1000
0100
1000
0100
0000
,
0010
0000
0001
0000
0010
0100
0000
0100
1000
0000
0010
0000
0100
0001
0000
0001
,
0100
0000
0010
0000
1000
0100
0000
0100
1000
0000
0001
0000
0100
0000
0010
0000
,
1000
0100
0010
0000
0001
0010
0100
0000
1000
0100
0010
0000
0001
0010
0100
0000
,
1000
0100
1000
0100
0010
0100
0010
0100
0001
0100
0010
0100
1000
0100
0010
0000
,
0011
0000
0010
0100
1000
0010
0000
0110
0000
0101
0000
0001
1000
0000
0001
0000
,
1001
0000
0010
1000
0001
0100
0000
0101
0000
1010
0000
0001
0010
0001
0010
0001
,
0010
0000
0100
1000
0010
1000
0000
0101
0000
1010
0000
0001
0100
0000
0101
0000
,
0101
0110
1100
0120
1000
0001
0031
0000
,
1000
0010
0100
0001
0100
0000
0001
0000
1000
0100
0010
0001
0010
0000
0100
0000
,
1000
0001
0100
0001
1000
0000
0001
0000
1000
0100
1000
0001
1000
0000
0010
0000
,
0100
0001
0100
0010
0100
0000
0010
0000
1000
0010
0100
0001
0100
0000
0010
0000
,
1000
0100
0010
0100
0001
0000
0100
0000
0010
0001
0010
1000
0010
0000
0100
0000
,
1000
0010
0001
0010
0100
0000
0010
0000
1000
0001
0100
0010
0100
0000
1000
0000
,
0100
0001
0010
1000
0010
0000
0100
0000
0001
0100
0001
0100
0010
0000
1000
0000
,
0010
0001
0010
0100
1000
0000
0010
0000
0100
0001
0100
0010
1000
0000
0010
0000
,
0001
0010
0100
1000
0100
0000
0001
0000
0110
0000
1010
0000
1001
0000
0101
0000
,
1001
0000
0000
0000
,
0000
0000
0000
0000
,
0000
0000
0000
0000
0000
0000
0000
0000
1111
0000
0000
0000
;
