#TITLE:1-2-3;
#SUBTITLE:;
#ARTIST:Captain Jack;
#TITLETRANSLIT:;
#SUBTITLETRANSLIT:;
#ARTISTTRANSLIT:;
#GENRE:Dance;
#CREDIT:;
#MUSIC:123.ogg;
#BANNER:1-2-3.png;
#BACKGROUND:1-2-3-bg.png;
#CDTITLE:;
#SAMPLESTART:26.462;
#SAMPLELENGTH:13.314;
#SELECTABLE:YES;
#OFFSET:0.000;
#BPMS:0.000=145.020;
#STOPS:;
#CRChallenge:;
#LABEL:EMI;
#BGCHANGES:;
#FGCHANGES:;

//--------------- dance-single - Renard ----------------
#NOTES:
     dance-single:
     Renard:
     Easy:
     5:
     0.279,0.291,0.183,0,0:
0000
0000
0000
0000
,
0000
0000
0000
0000
,
0000
0000
0000
0000
,
0000
0000
0000
0000
,
1000
0000
0001
0100
,
0010
1000
0100
0000
,
1000
0000
0010
0100
,
0001
0010
0100
1001
,
1010
0000
0101
0000
,
1000
0100
0001
0100
,
1000
0000
0010
0000
,
0100
0001
1000
0000
,
1001
0000
1010
0000
,
0100
0001
0010
1000
,
0010
0001
0100
0000
,
1010
0000
0101
0000
,
1000
0001
0100
0010
,
1000
1000
0001
0000
,
0100
0010
1000
0100
,
0010
0010
0001
0001
,
0100
0010
1000
0100
,
0010
0010
0001
0000
,
0010
0100
1000
0010
,
0100
0000
1001
0000
,
1010
0000
0100
0000
,
0011
0000
0100
0000
,
0001
0100
0010
1000
,
0100
0010
0100
0000
,
1001
0000
0100
0000
,
1010
0000
0100
0000
,
1001
0000
0010
0000
,
0100
0001
0100
0000
,
0010
1000
0010
1000
,
0001
0100
0001
0100
,
0010
1000
0010
1000
,
0001
0100
0001
0000
,
1000
0100
1000
0100
,
0010
0001
0010
0001
,
1000
0010
1000
0010
,
0100
0001
0001
0000
,
0100
0010
1000
0100
,
0010
0001
0100
0010
,
1000
0100
0010
0001
,
0100
0010
1000
0000
,
0010
0100
0001
0100
,
0010
0100
0001
0100
,
0010
1000
0010
0100
,
0001
1000
0010
0000
,
0100
0001
0100
0010
,
1000
0010
0100
0000
,
0001
0001
1000
0010
,
0100
0001
0010
0000
,
0001
0010
0100
1000
,
0010
0100
0001
0000
,
1001
0000
1010
0000
,
0101
0000
1001
0000
,
0001
0010
0001
0100
,
0001
1000
0010
0000
,
1000
0100
1000
0001
,
0100
0001
0010
0000
,
0001
1000
0010
0100
,
0001
0000
1000
0000
,
0010
0000
0100
0000
,
1010
1001
0101
0000
;

//--------------- dance-single - Renard ----------------
#NOTES:
     dance-single:
     Renard:
     Medium:
     9:
     0.425,0.407,0.119,0,0:
0000
0000
0000
0000
,
0000
0000
0000
0000
,
0000
0000
0000
0000
,
0000
0000
0000
0000
,
1000
0000
0001
0100
0001
0000
1000
0000
,
0100
0000
1000
0001
1000
0000
0100
0000
,
1000
0000
0000
1000
0001
0000
0001
0100
,
0001
1000
0001
1001
,
1000
0000
0001
0000
0100
0001
1000
0100
,
0010
0001
0010
0001
,
0010
0000
0100
0000
1000
0001
0100
0001
,
0100
0001
1000
1000
,
0100
0000
1000
0000
0001
0000
0010
0001
,
0010
0001
0010
0000
0001
0000
0010
0000
,
0100
0000
1000
0000
0001
0000
1000
0100
,
1000
0100
1000
0000
0000
0001
0001
0001
,
1000
0000
0100
0010
0001
0000
0001
0010
,
0100
1000
0010
0100
,
0001
0100
0001
0100
0001
0000
0100
0000
,
0001
1000
0100
0010
0000
0010
0001
0000
,
0010
0000
0100
1000
0001
0000
1000
0001
,
0100
0001
1000
0001
0000
0000
1001
0000
,
1000
0001
0100
0000
1001
0000
1000
0100
,
0000
0100
1000
0000
1001
0000
1001
0000
,
0100
0000
0001
1000
0100
0000
0100
1000
,
0001
0000
0100
0001
1000
0000
0100
1000
,
0001
0000
0001
0010
0001
0000
0001
1000
,
0010
0000
0010
1000
0001
0010
0001
1000
,
0100
0010
0001
0000
0001
0010
0100
0000
,
0100
1000
0010
0000
0010
0100
0001
0000
,
1000
0001
0100
0000
0100
0001
1000
0000
,
0100
1000
0010
0000
0010
1000
0001
0000
,
0001
1000
0100
1000
,
0001
0100
0001
0010
0000
0010
0001
0100
,
0010
1001
1100
1000
,
0010
0100
0001
1000
0000
0100
1000
0010
,
0100
1001
1010
0100
,
0001
0000
0010
0001
0010
0000
0001
0000
,
0100
0100
0010
0010
,
1000
1000
1000
0000
,
0001
0000
0100
0000
0001
0000
0100
0001
,
0100
0001
1000
0000
,
0001
0000
1000
0000
0100
1000
0100
0000
,
1000
0001
0001
1000
,
0001
0000
0100
0000
0001
1000
0001
1000
,
0001
0000
1000
0000
0001
1000
0001
1000
,
0001
0000
1000
0000
0100
1000
0001
1000
,
0000
0000
0001
0000
1000
0001
0001
0001
,
1000
0000
0100
0000
0010
0001
0010
0001
,
0010
0001
0010
0001
0000
0000
0010
0000
,
0100
0000
1000
0000
0001
0000
1000
0100
,
1000
0100
1000
0100
1000
0000
0010
0000
,
0100
0001
1000
0100
,
0010
0001
0010
0001
0000
0000
1001
0000
,
1000
0100
1000
0000
1100
0000
0100
1000
,
0000
1000
0100
1000
0100
1000
0100
0000
,
1000
0000
0010
0000
0100
0000
0001
1000
,
0000
1000
0001
0000
0001
1000
0000
1000
,
0001
0000
0100
0000
0001
1000
0100
0000
,
0100
0010
0000
0010
0100
0000
0100
1000
,
0010
0000
0100
0000
0001
0000
1000
0001
,
0000
0001
1000
0000
1000
0001
0000
0001
,
1000
0000
0001
0000
0100
0000
0001
1000
,
0100
1001
0101
0000
;

//--------------- dance-single - Renard ----------------
#NOTES:
     dance-single:
     Renard:
     Hard:
     12:
     0.579,0.552,0.266,0.064,0:
0000
0000
0000
0000
,
0000
0000
0000
0000
,
0000
0000
0000
0000
,
0000
0000
0000
0000
,
1000
0000
0001
0000
0100
0001
1000
0100
,
0010
0001
1000
0010
0100
0000
0001
0000
,
1000
0001
0100
0000
0001
1000
0100
0000
,
1000
1000
0001
0001
0100
0000
1001
0000
,
0001
0100
0010
1000
0100
0010
0100
1000
,
0010
0100
0001
0100
0010
1000
0100
0000
,
1000
0010
0100
0001
0010
0100
1000
0010
,
0100
0001
1000
0100
1000
0000
1001
0000
,
0100
0001
1000
0100
1000
0001
0010
0100
,
1000
0010
0100
0001
0010
0001
0010
0000
,
0001
0010
0100
0000
0100
1000
0010
0000
,
0100
0001
1000
0100
1000
1001
1001
1001
,
1000
0100
1000
0010
0100
0001
0010
0100
,
0010
0010
0001
0100
0010
1000
0100
1000
,
0010
0100
0001
1000
0100
0010
0001
0001
,
1000
0100
0010
0001
0010
0100
1000
0010
,
0100
0001
0100
0010
1000
0000
0100
0100
,
1000
0010
0100
0001
0010
0000
1001
0000
,
1000
0010
0100
0000
1001
0000
1000
0010
,
0000
0100
0001
0010
0100
1000
0010
0000
,
1000
0010
1000
0100
1000
0010
1000
0001
,
1000
0100
1000
0010
0000
0100
0001
0010
,
0001
0100
0001
1000
0001
0000
0001
0100
,
0010
1000
0001
0100
0000
0001
1000
0100
,
0010
0001
0010
0100
1000
0010
0100
0001
,
0100
0010
1000
0100
0000
0100
1000
0010
,
0100
0001
0010
0001
1000
0010
0100
0001
,
1000
0001
0100
0000
0001
1000
0001
1000
,
0001
1000
0010
1000
0100
0000
1000
0010
,
0100
0001
0010
0001
0100
0000
1001
0000
,
1000
0100
1000
0010
0100
0001
0010
0001
,
1000
0100
1000
0000
1001
0000
1010
0000
,
0100
0001
0010
0001
0100
0000
1001
0000
,
1000
0100
1000
0010
0100
0001
0010
0001
,
1000
1001
1010
0101
,
0001
0010
0100
1000
0001
1001
1001
1001
,
1000
0010
0100
0001
0010
0001
0010
0100
,
1000
0010
1000
0010
0100
0001
0010
0100
,
1000
0001
1000
0001
0010
0100
1000
0010
,
0100
0001
1000
0100
1000
0001
0100
0001
,
1000
0001
0010
0100
1000
0010
0100
0001
,
0100
0010
1000
0100
0010
0001
0010
0100
,
1000
0010
0100
0001
0100
0010
1000
0001
,
0000
1000
0001
1000
0001
1000
1000
1000
,
1010
0000
0101
0000
0011
0000
0100
1000
,
0010
0100
0001
0100
0000
0001
0001
0000
,
2000
0000
0200
0000
3310
0000
0100
1000
,
0010
0100
0001
0010
0001
0001
0001
0000
,
0002
0000
0200
0000
0313
0000
0001
0100
,
0010
1000
0100
1000
0010
0000
1001
0000
,
2002
0000
0200
0000
3313
0000
1000
0010
,
0000
0010
0100
0001
0010
0100
1000
0000
,
1000
0001
0100
0001
1000
0100
1000
0001
,
0000
1000
0010
0000
0101
0000
1001
0000
,
1000
0100
0010
0001
0010
0100
1000
0010
,
0100
0001
0100
0010
1000
0000
0101
0000
,
0100
1000
1000
0100
1000
1000
0100
1000
,
1000
0001
0100
0100
0001
0000
0100
0000
,
0101
0000
0010
1010
0000
1000
1100
0000
,
1000
0010
0100
0000
1001
0000
0000
0000
;

//--------------- dance-single - Renard ----------------
#NOTES:
     dance-single:
     Renard:
     Challenge:
     13:
     0.664,0.698,0.586,0.027,0.229:
0000
0000
0000
0000
,
0000
0000
0000
0000
,
0000
0000
0000
0000
,
0000
0000
0000
0000
,
1000
0010
1000
0001
1000
0000
0010
0000
,
0100
0001
0010
0001
1000
0010
0100
0000
,
0001
1000
0100
1000
0010
0000
0100
0000
,
0001
1000
0010
0100
0010
0000
1001
0000
,
1000
0010
0000
0010
0100
0000
0100
0001
0000
0001
0010
0000
0100
0000
1000
0000
,
0010
0100
0001
0010
0100
1000
0010
0100
,
0001
0010
0000
0010
0001
0000
0001
1000
0000
1000
0010
0000
0100
0000
0001
0000
,
1000
0000
0100
0000
0010
0000
0001
0000
1000
0000
0100
0000
1000
0010
1000
0000
,
0001
0100
0000
0100
0010
0000
0010
1000
0000
1000
0100
0000
0010
0000
0001
0000
,
0100
0010
1000
0100
0010
0001
0100
0010
,
1000
0100
0000
0100
1000
0000
1000
0001
0000
0001
0100
0000
0010
0000
1000
0000
,
0001
0010
0100
1000
0001
0010
1001
0000
,
1000
0000
1001
0000
1011
0000
1000
0100
,
0001
0010
0100
1000
0010
0100
0001
0000
,
0011
0000
1100
0000
1010
0000
0100
0001
,
0010
0100
1000
0010
0001
0100
0010
0000
,
1010
0000
1100
0000
1001
0000
0010
0100
,
0001
0010
1000
0010
0100
0001
0100
0000
,
1100
0000
0011
0000
1001
0000
1000
0010
,
0000
0100
0001
0010
1001
0010
1001
0000
,
1000
0000
0000
1000
0100
0000
0000
0100
0010
0000
0000
0010
0001
0000
0000
0001
,
1000
0000
0000
0010
0100
0000
0001
0000
0100
0000
0010
0000
1000
0000
0100
0000
,
0010
0000
0000
0010
0100
0000
0000
0100
1000
0000
0000
1000
0010
0000
0000
0010
,
0001
0010
0100
1000
0100
0001
0010
0000
,
0100
0000
0000
0100
1000
0000
0000
1000
0010
0000
0000
0010
0100
0000
0000
0100
,
0010
0000
0000
0010
1000
0000
0100
0000
1000
0000
0001
0000
0010
0000
0100
0000
,
1000
0000
0000
1000
0100
0000
0000
0100
0001
0000
0000
0001
0100
0000
0000
0100
,
1000
0000
0010
0000
0100
0000
0001
1000
0000
0000
0101
0000
1001
0000
1010
0000
,
0100
0001
0010
0100
1000
0010
0100
0001
,
0010
0100
1000
0100
0010
0100
1000
0000
,
1100
1010
1001
0101
,
0001
0010
0100
1000
0100
0010
0001
0000
,
1111
0000
1111
0000
,
1000
0100
0010
0100
1000
0001
0010
0001
,
1000
0000
0010
0000
0100
0000
0001
0000
1000
0010
1000
0000
0001
0000
0010
0000
,
0100
0000
1000
0000
0001
0000
0010
0000
0001
0100
0001
0000
0010
0000
0100
0000
,
1000
0000
0100
0000
1000
0010
1000
0000
0010
0000
0100
0000
0001
0000
0010
0000
,
0100
0000
1000
0000
0010
0100
0010
0000
0100
0000
0001
0000
0010
0100
0010
0000
,
0100
0000
1000
0000
0010
0100
0010
0000
1000
0000
0010
0000
0100
0000
0001
0000
,
0010
0000
0100
0000
1000
0100
1000
0000
0001
0010
0001
0000
0100
0000
0010
0000
,
1000
0000
0000
1000
0010
0000
0000
0010
0100
0000
0001
0000
0010
0000
0100
1000
,
0010
0000
0000
0010
0100
0000
0000
0100
0001
0000
0010
0000
0001
0000
1000
0100
,
2000
0000
0000
3000
1001
0000
0000
0000
0010
0000
0100
0000
0001
0000
1000
0000
,
0010
2000
0002
0000
3003
1001
1001
1001
,
0001
0000
1001
0000
1101
0000
0001
0010
,
1000
0100
0010
0001
0100
0010
1000
0000
,
1100
0000
0011
0000
0101
0000
0010
1000
,
0100
0010
0001
0100
1000
0010
0100
0000
,
0101
0000
0011
0000
1001
0000
0100
0010
,
1000
0100
0001
0100
0010
1000
0010
0000
,
0011
0000
1100
0000
1001
0000
0001
0100
,
0000
0010
1000
0100
1001
0100
1001
0000
,
1100
0100
0100
1100
1000
1000
1100
0100
,
0100
0101
0001
0001
0011
0001
0011
0010
,
1010
1000
1000
1010
0010
0010
0110
0100
,
0100
0101
0001
0001
0011
0010
1010
1000
,
1010
0010
0010
0011
0001
0001
0101
0100
,
0100
0110
0010
0010
1010
1000
1100
0100
,
0110
0010
0010
0110
0100
0100
1100
0000
,
1000
1001
1011
0000
;
