#TITLE:feeling of love;
#SUBTITLE:-super euro version-;
#ARTIST:youhei shimizu (remixed by VENTURA);
#TITLETRANSLIT:;
#SUBTITLETRANSLIT:;
#ARTISTTRANSLIT:;
#CREDIT:;
#BANNER:feeling of love -super euro version- banner.png;
#BACKGROUND:feeling of love -super euro version- bg.png;
#LYRICSPATH:;
#CDTITLE:;
#MUSIC:feeling of love -super euro version-.mp3;
#OFFSET:-9.980;
#SAMPLESTART:43.560;
#SAMPLELENGTH:15.000;
#SELECTABLE:YES;
#BPMS:0.000=150.040;
#STOPS:;
#BGCHANGES:;

//---------------dance-single - ----------------
#NOTES:
     dance-single:
     :
     Hard:
     9:
     0.720,0.698,0.163,0.109,0.708:
1000
0100
1000
0100
1000
0000
0010
0100
0000
0100
0010
0000
1000
0001
1000
0000
,
0001
0010
0001
0010
0001
0000
0010
0100
0000
0100
0010
0000
0001
1000
0001
0000
,
0010
0000
0100
0000
1000
0000
0010
0100
1000
0000
0010
0000
0100
0000
0001
0010
,
0100
1000
0001
1000
0001
0000
0010
0100
0000
0100
0010
0000
1000
0100
0010
0001
,
0020
0000
0000
0000
0000
0000
0030
0100
1000
0000
0100
0000
0001
0100
0001
0000
,
0010
1000
0100
0001
0100
0000
0010
0000
,
1000
0001
0010
0001
1000
0000
0100
0000
,
0010
0000
0000
0100
0000
0000
1000
0000
0100
0000
0010
0000
0010
0000
0100
0000
,
0001
0000
0000
1000
0000
0000
0001
0000
0020
0000
0000
0230
0000
0000
0310
0000
,
0001
0010
0100
1000
0010
0100
0001
0000
,
1000
0010
0100
0010
0001
0000
0010
0100
,
0110
0000
1000
0001
1000
0000
0110
0000
,
1000
0100
0010
0001
0011
0010
0100
1000
,
0010
0100
0000
0000
0001
0010
0000
0000
0100
0000
0000
1000
0000
0000
0100
0010
,
0001
0000
0000
1000
0000
0000
0001
0000
0010
0000
0100
0000
0001
0000
0010
0000
,
1000
0000
0000
0010
0000
0000
0100
0000
0010
0000
1000
0000
0100
0000
0001
0000
,
0010
0000
0000
1000
0000
0000
0010
0000
0200
0000
0000
0320
0000
0000
1030
0000
,
0100
0000
0001
0000
0010
0000
1000
0000
0001
0000
0000
1000
0000
0000
0001
1000
,
0001
0000
0110
1000
,
0100
0001
0100
0001
0100
0000
0010
1000
0000
1000
0010
0000
0100
1000
0100
0010
,
0001
1000
0001
1000
0001
0000
0010
0100
0000
0100
1000
0010
0001
0010
0100
0010
,
1000
0000
0100
0001
0100
0000
0010
0000
0101
0000
0010
0000
1000
0100
1000
0000
,
0010
0000
0100
1000
0100
0000
0010
0000
1000
0100
0010
0000
0001
1000
0001
0000
,
0010
0100
0000
0000
0100
1000
0000
0000
0010
0000
0100
0000
0001
0000
0010
0000
,
0100
0000
0110
0000
1001
0000
0000
0000
0001
0010
0100
1000
0100
0010
0001
0010
,
0100
0000
0010
0001
0010
0000
1000
0000
0101
0000
0010
0000
0100
1000
0100
0000
,
0010
0000
0100
0001
0100
0000
0010
0000
1000
0001
0100
0000
0010
1000
0001
0000
,
0100
1000
0000
0000
0100
0010
0000
0000
0100
0001
0000
0000
0010
0000
0010
0000
,
0110
0001
0010
0200
1000
2300
0000
3100
,
0010
0100
0010
0001
0010
0000
1000
0010
0000
0010
0100
0000
0001
0010
0001
0100
,
0010
0100
0010
1000
0100
0000
0001
0100
0000
0100
1000
0000
0010
0100
0010
0000
,
1000
0100
0010
0001
0010
0000
0100
0010
0000
0001
0010
0000
0100
0010
0100
0000
,
0010
1000
0100
0001
0100
0000
0010
1000
0000
1000
0010
0000
0100
0010
0001
0010
,
1000
0100
0010
0001
0010
0000
1000
0010
0000
0100
0001
0000
0010
0100
0010
0001
,
0010
1000
0001
0100
0010
0000
0100
1000
0000
0100
1000
0000
0010
0100
0010
0000
,
0011
0010
0100
0010
1100
0010
0100
0001
,
0011
0010
0100
0010
2000
0000
0000
3000
,
0010
0100
0010
0100
0010
0000
1000
0001
0000
0001
1000
0000
0010
0100
0010
1000
,
0100
0000
0000
0000
;

//---------------dance-single - ----------------
#NOTES:
     dance-single:
     :
     Medium:
     7:
     0.401,0.362,0.150,0.068,0.000:
1000
0000
0100
0001
0100
0000
0010
1000
,
0010
0000
0100
0000
0010
0000
0001
0010
,
0110
0000
0100
1000
1100
0000
0010
0100
,
0010
0001
1000
0010
,
0200
0000
0310
0010
,
0001
0010
0100
0010
,
1000
0000
0100
0010
0100
0000
0001
0000
,
0010
0001
0001
0010
,
0100
1000
1000
0010
,
0100
0000
0010
0000
0100
0001
0100
0000
,
0010
0000
1000
0100
1000
0000
0010
0000
,
1100
0000
0000
0010
0100
0000
0110
0000
,
0010
1000
0010
0000
0101
0000
0110
0000
,
0010
0000
0100
0000
0010
0000
0001
1000
,
0001
0000
0010
0100
1000
0000
0010
0100
,
0010
0000
0100
0001
0100
0000
0010
0000
,
1000
0000
0001
1000
0010
0000
0010
0000
,
0100
0000
0010
0000
1000
0000
0100
1000
,
0010
0000
0110
0010
,
0001
0010
0100
0010
,
1000
0000
0010
0000
1000
0001
1000
0001
,
1000
0000
0100
0010
1000
0000
0100
0001
,
0010
0000
0001
0010
0100
0000
0010
0100
,
1000
0000
0010
0000
0100
0000
0001
0001
,
0010
0200
0000
0000
0310
0010
0010
0000
,
0100
0000
0010
1000
0100
0000
0001
0100
,
0010
0000
0001
0010
1000
0000
0100
0000
,
0010
0000
1000
0000
0010
0000
0100
0010
,
0001
0010
0000
0100
0000
0010
0000
1000
,
0010
0000
0100
1000
0100
0000
0010
0100
,
0001
0000
0010
0000
0100
0000
0010
0100
,
0100
0000
0010
1000
0001
0000
0010
0100
,
0001
1010
1100
0010
,
0110
0000
0100
0001
0010
0000
1000
0010
,
0200
0302
0203
0300
,
0010
0000
0100
1000
1100
0000
0010
0100
,
0001
0010
0100
0100
,
0010
0100
0010
0000
1000
0100
0010
0001
,
0010
0000
0000
0000
;

//---------------dance-single - ----------------
#NOTES:
     dance-single:
     :
     Easy:
     3:
     0.301,0.285,0.095,0.082,0.000: // measure 1
1000
0100
0010
0010
,  // measure 2
0100
0001
0200
0300
,  // measure 3
0010
0100
0010
0010
,  // measure 4
0001
0010
0100
1000
,  // measure 5
0020
0000
0130
0100
,  // measure 6
0010
0100
0010
1000
,  // measure 7
0100
0010
0100
0000
,  // measure 8
0001
0010
0001
0010
,  // measure 9
0100
0010
0100
0000
,  // measure 10
0100
0100
0010
1000
,  // measure 11
0010
0100
0001
0000
,  // measure 12
0010
0000
0100
0001
,  // measure 13
0100
0100
0110
0001
,  // measure 14
0010
0100
0010
1000
,  // measure 15
0100
0100
1000
0000
,  // measure 16
0010
0100
1000
0001
,  // measure 17
0010
1000
0100
0100
,  // measure 18
0010
0100
0010
0010
,  // measure 19
0002
0000
0023
0000
,  // measure 20
0130
0100
0010
0010
,  // measure 21
0001
0010
0100
1000
,  // measure 22
0011
0100
0100
0010
,  // measure 23
1100
0100
0100
0010
,  // measure 24
0100
0100
0001
0010
,  // measure 25
1000
1001
0010
0100
,  // measure 26
0010
0001
0001
0100
,  // measure 27
0010
1000
1000
0010
,  // measure 28
0110
1000
0110
0001
,  // measure 29
0010
0100
0010
0001
,  // measure 30
0010
0100
0100
0010
,  // measure 31
1000
0100
0100
0001
,  // measure 32
0100
0010
0010
0100
,  // measure 33
0001
0010
0002
0013
,  // measure 34
0100
0100
0010
0010
,  // measure 35
1000
0001
2000
3000
,  // measure 36
0010
0100
0001
0010
,  // measure 37
0100
0010
1000
0000
,  // measure 38
0100
0100
0010
0010
,  // measure 39
0110
0000
0000
0000
;
