#TITLE:e-motion 2003 -romantic extra-;
#SUBTITLE:;
#ARTIST:dj TAKA;
#TITLETRANSLIT:;
#SUBTITLETRANSLIT:;
#ARTISTTRANSLIT:;
#CREDIT:;
#BANNER:e-motion 2003 -romantic extra- banner.png;
#BACKGROUND:e-motion 2003 -romantic extra- bg.png;
#LYRICSPATH:;
#CDTITLE:;
#MUSIC:e-motion 2003 -romantic extra-.mp3;
#OFFSET:-0.180;
#SAMPLESTART:44.840;
#SAMPLELENGTH:15.000;
#SELECTABLE:YES;
#BPMS:0.000=145.100,104.000=72.060,106.000=145.100;
#STOPS:;
#BGCHANGES:0.000=e-motion 2003 -romantic extra-.avi=1.000=1=0=0,
99999=-nosongbg-=1.000=0=0=0 // don't automatically add -songbackground-
;

//---------------dance-single - ----------------
#NOTES:
     dance-single:
     :
     Challenge:
     9:
     0.692,0.816,0.077,0.092,0.859:
0000
0000
0000
0000
,
0000
0000
0000
0000
,
0000
0000
0000
0000
,
0000
0000
0000
0000
,
0000
0000
0000
0000
,
0000
0000
0000
0000
,
0000
0000
0000
0000
,
0000
0000
0000
0000
,
1000
0000
0000
0000
0010
0100
1000
0001
0100
0000
0000
0001
0000
0000
0100
0000
,
0011
0010
0100
0010
0000
1000
0010
0100
,
0001
0000
0000
0001
0010
0100
1000
0100
0010
0001
0010
0100
,
1000
0000
0000
0000
0100
0000
0001
0100
0001
0000
0000
0010
0000
0000
0100
0000
,
1000
0001
0100
0020
0000
0030
1001
0000
,
0001
0010
0000
0010
0100
0010
1000
0100
,
0011
0000
0010
0100
1100
0000
0010
0100
,
0010
0000
1000
0001
0000
0001
2000
0000
,
0000
0000
0000
3000
,
0000
0020
0000
0030
,
1000
0000
0000
0100
0000
0000
0010
0000
0001
0100
0000
0100
0000
0001
0010
0100
,
1000
0000
0000
0001
0000
0000
1000
0000
0010
0100
0000
0100
0000
0001
1000
0010
,
0100
0000
0000
1000
0000
0000
0100
0000
0010
0001
0000
0001
0000
1000
0010
0100
,
0001
0000
0000
1000
0000
0000
0001
0000
0100
0001
0000
0001
0000
0010
1000
0010
,
0100
0000
0000
0001
0000
0000
1000
0000
0010
0100
0001
1000
0000
1000
0100
0001
,
0010
0000
0000
0100
0000
0000
1000
0000
0010
0100
0001
0010
0000
0001
0010
1000
,
0010
0000
0000
0100
0000
0000
0010
0000
1000
0001
0100
0001
0000
0010
1000
0001
,
0100
0000
0000
0010
0000
0000
0100
0000
0001
1000
0000
1000
0000
0000
0010
0000
,
1000
0000
0100
0000
0010
0000
0001
0010
0000
0010
0001
0000
0100
0000
0010
0001
1000
0000
0000
0000
0100
0000
0010
0000
0000
0000
0010
0000
0100
0000
0000
0000
,
0001
0000
0010
0100
0010
1000
0100
0001
0100
0000
0010
1000
0000
1000
0010
0000
,
0100
0000
0001
0010
1000
0010
0100
0001
1000
0000
0100
1000
0000
1000
0100
0000
,
0010
0000
0100
0001
0010
1000
0010
0001
0100
0000
0010
0001
0000
0001
0010
0000
,
0010
0000
0100
0001
0010
1000
0010
0100
0001
0000
0010
0100
0000
0100
1000
0000
,
0100
0000
0010
0100
0010
0000
0001
0010
1000
0000
0010
0100
0000
0100
0010
0000
,
0001
0000
1000
0100
0010
0000
0100
0010
0001
0000
1000
0010
0000
0010
0001
0000
,
0100
0000
0010
1000
0100
0000
0001
0100
0010
0000
1000
0100
0000
0100
0010
0000
,
0001
0000
0010
0100
1000
0100
0010
0100
0001
0000
0010
0100
1000
0000
0010
0100
,
1000
0000
0010
0100
1000
0000
0010
0100
1000
0000
0000
0001
0000
0000
1000
0000
,
0010
0100
0000
0100
0000
0001
1000
0010
0100
0000
0001
0010
0100
0000
0001
0010
,
0100
0000
0001
0010
0100
0000
0001
0010
0100
0000
0000
0010
0000
0000
1000
0000
,
0001
0100
0000
0100
0000
0001
1000
0010
0100
0000
0010
0100
0010
0000
1000
0001
,
1000
0000
0010
0100
0010
0000
1000
0001
1000
0000
0000
0010
0000
0000
0100
0000
,
0001
1000
0000
1000
0000
0010
0100
0001
1000
0000
0001
0010
0001
0000
0010
0100
,
0010
0000
0100
1000
0100
0000
1000
0100
1000
0000
0000
0010
0000
0000
0100
0000
,
0001
0010
0000
0010
0000
0100
0010
1000
0100
0000
0000
0000
0001
0010
0100
1000
,
0100
0000
0000
0010
0000
0000
0100
0000
0001
0000
0010
0000
0100
0000
1000
0000
,
0010
0000
0000
0100
0000
0000
1000
0000
0000
0010
0000
0000
0010
0000
0000
1000
0000
0000
0001
0000
0010
0000
0100
0000
,
1000
0000
0000
0000
0001
0000
0000
0000
0010
0000
0000
0000
0100
0000
0000
0000
1000
0000
0000
0000
0001
0000
0000
0000
0010
0000
0000
0000
0000
0000
0100
0000
0000
0000
0000
0000
1000
0000
0000
0000
0000
0000
0100
0000
0000
0010
0000
0000
,
0100
0000
0000
0001
0000
0000
1000
0000
0010
0000
0100
0000
1000
0000
0001
0000
,
0000
0001
0011
0010
0100
1010
0100
0010
,
1000
0001
0100
0010
1000
0000
0001
0001
,
0101
0000
0010
1000
0010
0000
1000
1000
,
1010
0000
1001
0000
0100
0010
0002
0013
,
0100
0020
0130
1000
0010
2000
3100
0010
,
0100
0000
0002
0000
0013
0000
0100
0010
0100
0000
1000
0000
0001
0000
2000
0000
,
3010
0200
0301
0020
0031
0010
0100
1000
,
0100
0000
0010
0000
0001
0000
0010
0000
0001
0000
1000
0100
1000
0000
0100
0010
,
0100
0000
0010
0001
0010
0000
0001
0010
0001
0000
0010
0100
0010
0000
1000
0100
,
1000
0000
0010
0100
0010
0000
0001
1000
0001
0000
0000
0010
0000
0000
0100
1000
,
0100
0000
0000
0001
0000
0000
0100
0010
0100
0000
0001
0000
1000
0000
0001
0000
,
1000
0100
0010
0001
0010
0100
1000
0100
0010
0000
0001
0000
0010
0100
0010
0000
,
1000
0000
0001
0010
0000
0010
0100
0010
1000
0000
0000
0001
0000
0000
0100
0000
,
0010
1000
0000
1000
0000
0100
0010
0001
0100
0000
1000
0000
0010
0100
0010
0000
,
0001
0000
1000
0010
0000
0010
0100
0000
0001
0000
0000
1000
0000
0000
0100
0000
,
0010
0001
0000
0001
0000
0010
0100
1000
0010
0000
0100
0000
0001
1000
0001
0000
,
0010
0000
1000
0100
0000
0100
0010
0000
0100
0000
0000
0001
0000
0000
0100
0000
,
0010
1000
0000
1000
0000
0001
0100
0010
1000
0000
0010
0000
0100
0001
0100
0000
,
0010
0000
1000
0001
0000
0001
1000
0000
0010
0000
0000
0100
0000
0000
0010
0000
,
1000
0001
0000
0001
0000
0010
0100
0001
1000
0000
0010
0000
0100
0001
0010
0100
,
1000
0000
0010
0000
0100
0001
0010
1000
0010
0000
0000
0001
0000
0000
0100
0000
,
0010
1000
0000
1000
0000
0100
0010
0001
0010
0000
1000
0000
0010
0100
0001
1000
,
0010
0000
0100
0000
0001
0010
0100
1000
0100
0000
0000
0010
0000
0000
0001
0000
,
0100
0010
0000
0010
0000
0001
0010
0100
1000
0000
0010
0000
0100
1000
0100
0010
,
0001
0000
0010
0000
0100
1000
0010
0100
0001
0000
0000
0010
0000
0000
0100
0000
,
1000
0010
0000
0010
0000
0100
0001
0010
1000
0000
0000
0010
0000
0000
0100
0000
,
0001
1000
0000
1000
0000
0100
0001
1000
0010
0000
0000
0100
0000
0000
1000
0000
,
0010
0000
0000
0100
0000
0000
0001
0000
2002
0000
0000
0000
0000
0000
0000
0000
,
0000
0000
0000
0000
,
3003
0000
0000
0000
;

//---------------dance-single - ----------------
#NOTES:
     dance-single:
     :
     Hard:
     8:
     0.536,0.583,0.069,0.038,0.326:
0000
0000
0000
0000
,
0000
0000
0000
0000
,
0000
0000
0000
0000
,
0000
0000
0000
0000
,
0000
0000
0000
0000
,
0000
0000
0000
0000
,
0000
0000
0000
0000
,
0000
0000
0000
0000
,
1000
0000
0001
0010
0100
0000
0010
0100
,
1000
0000
0100
0010
0000
0010
0100
0000
,
0002
0000
0013
0100
1000
0100
0010
0001
,
0010
0000
0000
0000
0100
0000
1000
0000
0100
0000
0000
0001
0000
0000
0100
0000
,
0010
0001
1000
0020
0000
0000
0130
0000
,
0001
1000
0000
1000
0100
0010
0001
0010
,
0100
0000
0010
0100
0010
0000
0001
1000
,
0001
0000
1000
0010
0000
0010
0002
0000
,
0000
0000
0000
0000
,
0003
0000
0000
0000
,
1001
0000
0000
0100
0000
0000
0010
0000
0000
0001
0000
0000
0010
0000
0100
0000
,
1000
0000
0000
0100
0000
0000
0010
0000
0000
0100
0000
0000
0001
0000
0010
0000
,
0100
0000
0000
0010
0000
0000
1000
0000
0000
0010
0000
0000
0100
0000
0001
0000
,
1000
0000
0000
0010
0000
0000
0001
0000
0000
0010
0000
0000
0100
0000
0010
0000
,
0110
0000
0000
1000
0000
0000
0100
0000
0000
0010
0000
0000
0001
0000
0010
0100
,
0010
0000
0000
0001
0000
0000
0010
0000
0000
0100
0000
0000
1000
0000
0100
0010
,
0100
0000
0000
0001
0000
0000
1000
0000
0000
0010
0000
0000
0100
0000
0001
1000
,
0001
0000
0000
0010
0000
0000
0100
0000
0000
1000
0000
0000
0100
0000
0010
1000
,
0100
0001
0010
1000
0100
0010
0001
0000
0010
0000
1000
0000
0100
0000
0010
0000
,
0100
0001
0100
0010
1000
0000
0100
0010
,
0001
0100
0010
1000
0010
0000
0100
0010
,
0100
1000
0100
0001
0100
0000
0010
0001
,
0010
0010
0100
0000
0010
0100
1000
0100
,
0001
0100
1000
0100
0010
0001
0100
0010
,
0100
1000
1000
0000
0010
0100
0010
0001
,
0010
0100
0010
1000
0100
0010
0001
0010
,
0100
0000
0001
0000
0001
0000
0000
0000
1001
0000
0100
0000
0010
1000
0000
0000
,
0100
0000
0010
0000
1000
0001
0000
0000
0100
0000
0000
0010
0000
0000
0001
0000
,
0010
0000
0100
0000
0010
0000
0010
0000
1000
0000
0100
0000
0001
0100
0000
0000
,
0010
0000
0100
0000
0001
1000
0000
0000
0100
0000
0000
1000
0000
0000
0100
0000
,
0010
0000
0100
0000
0001
0000
0010
0000
0100
0000
0010
0000
1000
0001
0000
0000
,
0100
0000
0010
0000
0001
0010
0000
0000
0100
0000
0000
0001
0000
0000
0100
0000
,
0010
0000
1000
0100
1000
0000
0010
0000
0100
0000
1000
0000
0100
1000
0000
0000
,
0100
0000
0010
0000
1000
0001
0000
0000
0100
0000
0000
1000
0000
0000
0001
0000
,
0100
0000
0010
0000
0001
0010
0001
0000
0010
0000
0000
0000
0100
0010
0001
0000
,
0010
0000
0100
0010
0100
0000
0001
0010
,
0000
0010
0100
1000
1000
0000
0010
0100
,
0010
0001
1000
0001
1000
0000
0100
0010
,
0010
0000
1000
0100
0010
0010
0100
0001
,
0000
0001
0010
0000
0100
0010
0000
1000
,
0001
0100
1000
0010
0110
0000
1000
0100
,
0011
0000
0010
0100
1100
0000
0010
0100
,
0010
0000
1001
0000
0001
0010
0100
1000
,
0100
0010
0001
0010
0100
1000
0100
0010
,
0010
0000
0100
0000
0001
0000
1000
0100
1000
0000
0100
0000
0010
0000
1000
0000
,
0100
0001
0100
1000
0100
0010
0100
1000
,
0100
0000
0010
0000
0001
0000
0100
0000
0010
1000
0010
0000
0100
0000
0100
0000
,
0001
0010
0001
0000
0100
0000
0100
0000
0001
0010
1000
0000
0010
0000
0100
0000
,
0010
1000
0001
0000
0100
0000
0100
0000
0010
0000
0000
1000
0000
0000
0010
0000
,
0100
0000
0000
0000
0001
0000
0000
0001
0010
0000
0000
0000
0100
0000
0000
0000
,
0010
0100
0010
0100
0010
0000
0001
0000
1000
0000
0000
0100
0000
0000
0010
0000
,
0100
0000
0010
0100
0000
0100
0010
0000
0001
0000
0000
1000
0000
0000
0010
0000
,
0100
0000
0001
0010
0000
0010
0100
0000
1000
0000
0000
0100
0000
0000
1000
0000
,
0010
0000
0100
0001
0000
0001
0100
0000
0010
0000
0000
0100
0000
0000
0010
0000
,
1000
0000
0010
0100
0000
0100
1000
0000
0100
0000
0010
0000
0001
0000
0100
0000
,
0010
1000
0100
0001
0100
0100
0010
0100
,
1000
0000
0001
0010
0001
0000
0100
0010
0100
0000
0001
0000
0010
0000
1000
0000
,
0010
0001
0100
1000
0100
0010
0100
1000
,
0100
0000
0001
1000
0001
0000
0100
1000
0100
0000
0010
0000
0100
0001
0100
0000
,
0010
0000
1000
0100
1000
0000
0010
0000
0100
0000
0000
0001
0000
0000
0100
0000
,
0010
0000
0001
0010
0000
0010
0100
0000
1000
0000
0010
0100
0010
0000
0001
0000
,
0100
0010
0100
0000
0001
0000
0010
0000
0100
0000
0000
1000
0000
0000
0100
0000
,
0010
0000
1000
0001
0000
0001
1000
0000
0110
0000
0000
0100
0000
0000
0001
0000
,
0010
0100
0000
0100
0000
0000
0010
0000
1000
0000
0000
0100
0000
0000
1000
0000
,
0010
0001
0000
0001
0000
0000
0100
0000
0010
0000
0000
1000
0000
0000
0001
0000
,
0100
0000
0000
0010
0000
0000
0001
0000
0010
0000
0000
0100
0000
0000
1000
0000
,
0100
0010
0000
0010
0000
0000
0100
0000
2002
0000
0000
0000
0000
0000
0000
0000
,
0000
0000
0000
0000
,
3003
0000
0000
0000
;

//---------------dance-single - ----------------
#NOTES:
     dance-single:
     :
     Medium:
     6:
     0.363,0.408,0.061,0.038,0.000:
0000
0000
0000
0000
,
0000
0000
0000
0000
,
0000
0000
0000
0000
,
0000
0000
0000
0000
,
0000
0000
0000
0000
,
0000
0000
0000
0000
,
0000
0000
0000
0000
,
0000
0000
0000
0000
,
0010
0100
0010
0001
,
1000
0000
0010
1000
0000
1000
0010
0000
,
0010
0100
0001
0100
,
0010
0000
1000
0001
1000
0000
0010
0100
,
0100
0000
0001
0010
0000
0000
0110
0000
,
1000
0100
0000
0010
0100
0000
0001
0010
,
0001
0000
0000
0010
0110
0000
0010
0000
,
1000
0000
0000
0100
0000
0000
0020
0000
,
0000
0000
0000
0030
,
0000
0000
0000
0000
,
1001
0000
0100
0000
0010
0000
1000
0100
,
1000
0000
0010
0000
0100
0000
0001
0010
,
0001
0000
0010
0000
0100
0000
0010
1000
,
0010
0000
0100
0000
1000
0000
0010
0100
,
0110
0000
0001
0000
1000
0000
0010
0100
,
0010
0000
1000
0000
0100
0000
1000
0010
,
1000
0000
0100
0000
0001
0000
0010
0001
,
0010
0100
0010
0010
,
1000
0100
0010
0001
0110
0000
1000
0000
,
0100
0000
0010
0100
0010
0000
0001
0010
,
0100
0000
0010
1000
0010
0000
0100
0000
,
1000
0000
0010
0100
0010
0000
0001
0010
,
0001
0000
0100
0010
0010
0000
0100
0000
,
1000
0000
0100
1000
0100
0000
0010
0100
,
0010
0000
0001
0010
0001
0000
0100
0000
,
0010
0000
1000
0000
0100
0000
0010
0100
,
0010
0000
1000
0100
0011
0000
0100
0000
,
0010
0000
1000
0000
0100
0000
0001
0100
,
0000
0100
0010
1000
0010
0000
0100
0000
,
0001
0000
0010
0000
0100
0000
0010
1000
,
0000
1000
0010
0100
0010
0000
0100
0000
,
0010
0000
0100
0000
0001
0000
1000
0001
,
0000
0100
0010
0001
0010
0000
0010
0000
,
0010
0000
0010
0000
0100
0001
0100
1000
,
0100
0001
0100
0000
0010
0000
0100
0010
,
0100
0000
1000
0100
0010
0000
0100
0001
,
0000
0001
0010
0000
0100
0000
0010
0100
,
0010
0000
1000
0100
1000
0000
0100
0000
,
0010
0000
0100
0100
0100
0000
0001
0010
,
0000
0010
0100
0000
0010
0001
0000
0010
,
0100
0000
1000
0001
1000
0000
0010
0010
,
0010
0000
0100
0001
0100
0000
0010
1000
,
0000
1000
0010
0000
0100
0000
1000
0000
,
0100
0010
0100
0010
,
0001
0000
1000
1000
1000
0000
0100
0000
,
1000
0100
0010
0100
,
1000
0010
0001
0010
,
0100
1000
0001
0010
,
0100
1000
0010
0010
,
0100
0001
2002
0000
,
0000
3003
0010
1000
,
0100
0000
0010
0100
0010
0000
1000
0001
,
0000
0001
0010
0100
0010
0000
0100
0000
,
0010
0000
0001
0010
0001
0000
0010
0100
,
0000
1000
0100
0010
0100
0000
1000
0000
,
0010
0000
0100
1000
0100
0000
0010
0100
,
0000
0001
0010
1000
0100
0000
0010
0000
,
0001
0000
0100
0010
0100
0000
0001
0100
,
0000
0100
0010
0100
1000
0000
0010
0000
,
0100
0000
0001
0000
0010
0000
0100
0100
,
0100
0000
0001
0010
0001
0000
0010
0000
,
0100
0000
1000
0000
0010
0000
1000
1000
,
1000
0000
0100
0010
0100
0000
0001
0000
,
0010
0100
1000
1000
,
0100
0100
0010
0100
,
0001
0010
0100
0100
,
0010
0010
2002
0000
,
0000
0000
0000
0000
,
3003
0000
0000
0000
;

//---------------dance-single - ----------------
#NOTES:
     dance-single:
     :
     Easy:
     3:
     0.251,0.262,0.023,0.031,0.000: // measure 1
0000
0000
0000
0000
,  // measure 2
0000
0000
0000
0000
,  // measure 3
0000
0000
0000
0000
,  // measure 4
0000
0000
0000
0000
,  // measure 5
0000
0000
0000
0000
,  // measure 6
0000
0000
0000
0000
,  // measure 7
0000
0000
0000
0000
,  // measure 8
0000
0000
0000
0000
,  // measure 9
1000
0100
0010
0001
,  // measure 10
0010
0000
0100
0000
,  // measure 11
0010
0010
0100
0100
,  // measure 12
0001
0000
0010
0000
,  // measure 13
1000
1000
0100
0100
,  // measure 14
1000
0000
0010
0100
,  // measure 15
0010
0000
0010
0000
,  // measure 16
0100
0000
0001
0002
,  // measure 17
0000
0000
0000
0003
,  // measure 18
0000
0000
0000
0000
,  // measure 19
1001
0000
0100
0000
,  // measure 20
0010
0000
0100
0010
,  // measure 21
0001
0000
0010
0000
,  // measure 22
0100
0000
0010
1000
,  // measure 23
0110
0000
1000
0000
,  // measure 24
0100
0000
0010
0100
,  // measure 25
0010
0000
0001
0000
,  // measure 26
1000
0000
0010
0100
,  // measure 27
0010
0000
1000
0100
,  // measure 28
0010
0100
0010
0001
,  // measure 29
0010
0010
0100
0001
,  // measure 30
0010
0100
0010
1000
,  // measure 31
0100
0100
1000
0100
,  // measure 32
0010
0100
1000
0001
,  // measure 33
1000
1000
0010
0100
,  // measure 34
0001
0010
0001
1000
,  // measure 35
0100
0100
0010
0100
,  // measure 36
0001
0010
0001
0010
,  // measure 37
0100
0010
1000
0100
,  // measure 38
1000
0010
0100
0010
,  // measure 39
0001
0100
0010
0100
,  // measure 40
0010
0010
0001
0010
,  // measure 41
1000
0100
0010
1000
,  // measure 42
0100
0100
1000
0010
,  // measure 43
0100
0010
0001
1000
,  // measure 44
1000
0100
0100
0010
,  // measure 45
0000
0100
0000
0001
,  // measure 46
0010
0100
1000
0000
,  // measure 47
0100
0100
0010
0100
,  // measure 48
0001
0001
0010
0010
,  // measure 49
0100
0010
1000
0000
,  // measure 50
0001
0000
1000
0000
,  // measure 51
0010
0000
0100
0100
,  // measure 52
0010
0010
0001
0100
,  // measure 53
0010
1000
0100
0010
,  // measure 54
0100
1000
0100
0010
,  // measure 55
0100
0000
0010
0010
,  // measure 56
0100
0100
0001
0001
,  // measure 57
1000
1000
0001
0000
,  // measure 58
0010
0000
0100
0000
,  // measure 59
0020
0000
0130
0010
,  // measure 60
0100
0001
0010
0100
,  // measure 61
0010
0001
1000
0100
,  // measure 62
1000
0010
0100
1000
,  // measure 63
0010
0001
0100
0010
,  // measure 64
1000
0010
0100
0001
,  // measure 65
0010
0100
0010
0100
,  // measure 66
1000
0010
0100
0001
,  // measure 67
0010
0001
0100
0010
,  // measure 68
0100
0100
0010
1000
,  // measure 69
0010
0010
0100
0010
,  // measure 70
0001
0001
1000
0100
,  // measure 71
1000
1000
0010
0000
,  // measure 72
0100
0000
0001
0000
,  // measure 73
0010
0000
1000
1000
,  // measure 74
0100
0100
0010
0100
,  // measure 75
0010
0001
2002
0000
,  // measure 76
0000
0000
0000
0000
,  // measure 77
3003
0000
0000
0000
;
