#TITLE:air x WAP;
#SUBTITLE:;
#ARTIST:DJ SIMON x Cardi B & Megan Thee Stallion;
#TITLETRANSLIT:;
#SUBTITLETRANSLIT:;
#ARTISTTRANSLIT:;
#CREDIT:;
#BANNER:air x wap banner.png;
#BACKGROUND:air x wap bg.png;
#LYRICSPATH:;
#CDTITLE:;
#MUSIC:air x wap.mp3;
#OFFSET:-7.420;
#SAMPLESTART:7.360;
#SAMPLELENGTH:15.000;
#SELECTABLE:YES;
#BPMS:0.000=130.000;
#STOPS:;
#BGCHANGES:0.000=air x wap.avi=1.000=1=0=0,
99999=-nosongbg-=1.000=0=0=0 // don't automatically add -songbackground-
;

//---------------dance-single - ----------------
#NOTES:
     dance-single:
     :
     Hard:
     9:
     0.579,0.650,0.308,0.174,0.254: // measure 1
1000
0100
1000
0000
0100
0010
0100
0000
0001
0000
0010
0100
1000
0100
0010
0000
,  // measure 2
0100
0000
0001
0000
1001
0000
0010
0100
0010
0001
0010
0100
1000
0100
0010
0001
,  // measure 3
1000
0100
0010
0001
0010
0100
1000
0010
1000
0001
0100
0010
1000
0001
1000
0010
,  // measure 4
0100
0000
0001
0000
0010
0000
1000
0000
0010
0000
0010
0000
0100
0001
0100
0000
,  // measure 5
0010
1000
1010
0000
0100
0001
0101
0000
,  // measure 6
0010
0000
1000
0001
1000
0000
0010
0100
0010
0000
0100
0000
2001
0000
0000
0000
,  // measure 7
3100
0010
0001
0000
0010
0100
0010
0001
0010
1000
0100
0010
0100
0000
0000
0000
,  // measure 8
0001
0000
0010
0000
0100
0000
1000
0000
0010
0000
0100
0001
0100
0000
0000
0000
,  // measure 9
1000
0000
0100
0001
0001
0010
0100
0010
,  // measure 10
1000
0100
0000
0010
0110
0000
1000
0001
,  // measure 11
1001
0000
0100
0010
0110
0000
0100
0010
,  // measure 12
0001
0020
0000
0130
0100
1000
0010
0100
,  // measure 13
1001
0000
0100
0010
0001
0001
0010
0100
,  // measure 14
0010
2000
0000
3100
0100
0010
0100
0010
,  // measure 15
0011
0010
1000
0100
0010
0010
0100
0001
,  // measure 16
0010
0200
0000
1300
1000
0100
0010
0100
,  // measure 17
1001
0000
0010
0100
0001
1000
0010
0001
,  // measure 18
0100
0020
0000
0130
0110
0000
1000
0000
,  // measure 19
2000
0000
3001
0010
0200
0000
0310
1000
,  // measure 20
0200
0000
0310
1000
0001
0000
0010
0010
,  // measure 21
0100
0000
0000
0001
0000
0000
0010
0000
0100
0000
0000
1000
0000
0000
0010
0000
,  // measure 22
0100
0000
0000
0001
0000
0000
0010
0000
0010
0000
0100
0000
0001
0000
0100
0000
,  // measure 23
0010
0000
0000
1000
0000
0000
0010
0000
0100
0000
0000
0001
0000
0000
0010
0000
,  // measure 24
0100
0000
0000
0001
0000
0000
0010
0000
0100
0000
0010
0000
1000
0000
0100
0000
,  // measure 25
0001
0010
0100
1000
0010
0000
0100
0010
,  // measure 26
0110
0000
1000
0100
0011
0000
0100
0010
,  // measure 27
2000
0000
3100
0010
0001
0000
0010
0010
,  // measure 28
0100
0000
0001
0000
0010
0000
1000
0000
0110
0000
0000
0000
1000
0001
0000
0000
,  // measure 29
0110
0000
0000
0000
0001
1000
0000
0000
0110
0000
0000
0000
1000
0000
0100
0000
,  // measure 30
0010
0000
0002
0000
0000
0000
0013
0000
0010
0000
0100
0000
1000
0001
0000
0000
,  // measure 31
0010
0100
0000
0000
0100
0010
0000
0000
1001
0000
0000
0000
0001
0000
0010
0000
,  // measure 32
0100
2000
0000
3100
0100
0010
1000
0001
,  // measure 33
1001
0000
1001
0000
1001
0000
0010
0100
,  // measure 34
0001
0020
0000
0130
0100
0000
0010
1000
,  // measure 35
0011
0000
0100
0000
0010
1000
0000
0000
1001
0000
0000
0000
0010
0000
0100
0000
,  // measure 36
0001
2000
0000
3100
0100
0000
0010
0000
,  // measure 37
1001
0000
0000
0000
;

//---------------dance-single - ----------------
#NOTES:
     dance-single:
     :
     Medium:
     6:
     0.413,0.385,0.160,0.160,0.000:
1000
0100
0010
0001
,
0010
0100
0001
0000
0010
1000
0010
0000
,
0100
0001
0010
1000
,
0100
1000
0010
0000
0100
0001
0100
0000
,
0010
1000
0020
0000
0130
0001
0200
0000
,
0310
0000
1000
0000
0001
1000
2000
0000
,
3100
0010
0100
0001
,
0010
0000
1000
0000
0010
0001
0001
0000
,
0010
0100
0010
1000
,
0001
1000
0000
1000
0001
0000
0001
0010
,
0100
0000
0010
0100
1000
0000
0010
0100
,
0001
2000
0000
3010
0010
0000
0100
0001
,
0100
0000
0010
1000
0100
0000
0010
0100
,
0010
2000
0000
3100
0100
0000
0001
1000
,
0010
0000
1000
0001
0100
0000
0010
0001
,
0100
0002
0000
0013
0010
0000
0100
0010
,
0200
0000
0310
1000
0010
0000
0100
0001
,
1000
0020
0000
0130
0100
0000
0010
0000
,
1000
0000
0100
0100
0100
0000
0001
0001
,
0001
0000
0010
0010
0010
0000
0100
0000
,
0101
0010
1000
0010
,
1100
0010
0100
1000
,
1001
0010
0100
0010
,
1010
0100
0001
0100
,
0010
0010
0100
0000
0001
0000
1000
0100
,
0010
0000
0100
0010
0001
0000
0010
0100
,
0010
0000
1000
0001
1000
0000
0010
0001
,
0010
0000
0110
0110
,
1001
0000
0010
0100
0010
0000
1000
0100
,
0010
0002
0000
0013
0010
0000
0100
0010
,
0001
0000
0010
0100
1000
0000
0010
0100
,
0010
0200
0000
0310
0010
0000
1000
0100
,
1001
0000
1001
0000
1001
0000
0010
0100
,
0010
0200
0000
0301
0001
0000
1000
0010
,
0001
0000
0001
0010
1001
0000
0010
0100
,
0010
0200
0000
1300
1000
0000
0010
0000
,
1001
0000
0000
0000
;

//---------------dance-single - ----------------
#NOTES:
     dance-single:
     :
     Easy:
     3:
     0.288,0.289,0.107,0.134,0.000:
1000
0100
0010
0010
,
0001
0010
0100
0100
,
0010
0001
1000
0010
,
0001
0100
0010
0010
,
1000
0001
1000
0001
,
0100
0001
0010
0010
,
0100
0001
0010
1000
,
0010
0100
0001
0001
,
0010
0000
0100
0000
,
0001
0010
0100
1000
,
0020
0030
0200
0300
,
0010
0010
0001
1000
,
0200
0300
2000
3000
,
0100
0100
0010
1000
,
0200
0300
0020
0030
,
1000
0001
0010
0001
,
0200
0300
0002
0003
,
0010
0100
1000
0010
,
0100
0100
0001
0000
,
0010
0010
0100
1000
,
0010
0010
0100
0100
,
0001
0001
1000
1000
,
0010
0001
0100
0010
,
1000
0100
0010
0010
,
0100
0001
1000
0010
,
0010
1000
0010
0100
,
0002
0013
0100
0010
,
1000
0000
1001
1001
,
0010
0100
0110
0010
,
0001
1000
0010
0200
,
0301
0001
0010
0100
,
1000
0010
0100
0010
,
1001
1001
1001
0010
,
0100
0010
1000
0100
,
0100
0010
1001
0010
,
0001
0100
0010
1000
,
1001
0000
0000
0000
;

//---------------dance-single - Original air Heavy c----------------
#NOTES:
     dance-single:
     Original air Heavy c:
     Challenge:
     7:
     0.439,0.360,0.160,0.134,0.000:
0100
0000
0011
0000
1000
0200
0001
0000
,
2300
0000
3001
0010
1000
0010
0001
0000
,
1000
0000
1100
0000
0010
0002
0100
0000
,
2003
0000
3010
0100
0001
1000
0100
0000
,
0010
0000
1100
0000
0001
0020
1000
0000
,
0032
0000
1003
0010
0100
0001
1000
0000
,
0100
0000
0101
0000
0010
0200
1000
0000
,
0302
0000
0103
1000
0010
0100
0001
0000
,
0010
0001
0100
0000
0010
1000
0100
0000
,
0010
1000
0100
0000
0010
0001
0100
0000
,
1000
0000
0100
0000
0001
0100
1000
0100
,
0001
0000
0001
0100
1000
0100
0001
0000
,
0010
0000
0100
0000
0010
0001
0100
0001
,
0010
0000
0100
0001
0010
0001
0100
0000
,
0010
0000
1000
0000
0010
1000
0001
1000
,
0010
0000
0010
1000
0001
1000
0010
0000
,
0001
0000
0100
0000
1000
0010
0100
0010
,
1000
0000
1000
0100
0010
0100
1000
0000
,
1100
0000
0011
0000
0010
0100
1000
0010
,
0100
0000
0001
1000
0100
0000
0010
0000
,
1100
0000
0101
0000
0010
0001
1000
0010
,
0100
0000
0001
1000
0100
0000
0010
0000
,
1100
0000
0101
0000
0010
0001
0100
0001
,
1000
0000
1000
0100
1000
0000
0010
0000
,
1100
0000
0101
0000
1000
0100
0001
0100
,
1000
0000
0001
0010
1000
0000
0100
0000
,
0010
0100
1000
0000
0010
0100
0001
0000
,
0010
0100
1000
0000
0010
0100
0001
0000
,
1000
0100
0001
0000
0001
0020
1000
0000
,
0001
0000
1030
0000
0001
1000
0100
0000
,
0001
0010
1000
0000
0001
0010
0001
0000
,
1000
0010
0001
0000
1000
0100
0001
0100
,
1000
0100
0001
0000
0001
0020
1000
0000
,
0001
0000
1030
0000
0001
1000
0100
0000
,
0001
0010
1000
0000
0001
0010
0001
0000
,
1000
0010
0001
0000
1000
0100
0001
0100
;
