#TITLE:Wii Shop Channel;
#SUBTITLE:;
#ARTIST:Nintendo;
#TITLETRANSLIT:;
#SUBTITLETRANSLIT:;
#ARTISTTRANSLIT:;
#CREDIT:;
#BANNER:Wii Shop Channel banner.png;
#BACKGROUND:Wii Shop Channel bg.png;
#LYRICSPATH:;
#CDTITLE:;
#MUSIC:Wii Shop Channel.mp3;
#OFFSET:-6.860;
#SAMPLESTART:6.860;
#SAMPLELENGTH:15.000;
#SELECTABLE:YES;
#BPMS:0.000=148.200;
#STOPS:;
#BGCHANGES:;

//---------------dance-single - ----------------
#NOTES:
     dance-single:
     :
     Hard:
     7:
     0.336,0.303,0.021,0.055,0.007:
1000
0010
0100
0001
0010
1000
0100
0010
,
0100
0000
0001
0100
0000
0010
0100
0010
,
1000
0100
0001
0100
1000
0010
0100
0010
,
1000
0000
0100
0010
0000
0010
0001
0100
,
0010
1000
0100
0001
0010
0001
0100
0010
,
0001
0000
0010
0100
0000
0001
0010
1000
,
0010
0100
0010
1000
0100
0001
0100
1000
,
0010
0000
0100
1000
0000
0100
0010
0100
,
0001
0000
0010
0100
0010
0000
1000
0002
,
0000
0000
0000
0000
0013
0000
0010
0100
,
0010
0000
0100
0001
0010
1000
0100
0010
,
0200
0000
0310
0000
,
0100
0010
0001
0010
0000
0010
0100
0010
,
0000
1000
0100
1000
0000
0010
0100
0020
,
0000
0000
0130
0100
,
0010
0000
1000
0001
1000
0001
1000
0000
,
0010
0100
0100
0010
0100
0100
0001
0010
,
1000
0000
0010
0100
0000
0100
0010
1000
,
0010
0001
0001
0010
0001
0001
0010
0100
,
1000
0000
0010
0100
0000
1000
0001
1000
,
0010
1000
1000
0010
1000
1000
0010
0100
,
0001
0000
0100
0010
0000
0100
0010
1000
,
0001
0100
0100
0010
0100
0100
0010
1000
,
1000
0100
0010
0100
0000
0010
0100
0010
,
0001
0000
1000
0010
0100
0001
0000
0020
,
0000
0130
1001
0010
,
1000
0010
0000
0100
0010
1000
0001
0010
,
0200
0000
0310
0000
,
0010
0100
0001
1000
0010
0000
0100
0000
,
0100
0000
0010
1000
0100
0001
0100
0000
,
0010
0100
0001
0010
0001
0000
0100
0010
,
0100
0000
0000
0000
1001
0000
0000
0000
0010
0100
0010
0100
0010
0000
0000
0000
,
1000
0100
0100
0010
0100
0001
1000
0010
,
0100
0001
0100
0010
0000
0010
0000
0100
,
0001
0010
1000
0010
0100
0010
0001
0100
,
1000
0010
0100
0010
0000
1000
0100
0001
,
0010
0100
0010
1000
0001
0010
0100
0010
,
1000
0100
0001
0100
0000
0010
0100
0001
,
0010
0001
1000
0100
1000
0010
0100
0010
,
1000
0100
0010
0001
0000
0010
0100
0010
,
1000
0000
0001
0010
0001
0000
0010
0200
,
0000
0000
1000
1000
1300
0000
0010
0100
,
0010
0000
1000
0100
0010
0001
0010
0100
,
2000
0000
0010
0010
3010
0000
0100
0000
,
0001
0010
1000
0010
0000
0100
0010
0100
,
0000
0001
0010
0001
0000
0100
0010
0100
,
0002
0000
0013
0100
,
0010
0100
0010
1000
0001
0100
0010
0000
,
1000
0100
0001
0100
1000
0010
0100
0010
,
0100
0001
1000
0010
0000
0100
0010
0100
,
0001
0010
0100
0010
1000
0100
0010
0100
,
0010
1000
0001
0100
0000
0010
0001
0010
,
1001
0000
0000
0000
;

//---------------dance-single - ----------------
#NOTES:
     dance-single:
     :
     Medium:
     5:
     0.256,0.232,0.014,0.055,0.000:
1000
0100
0100
0000
0010
0010
0000
0100
,
0100
0000
0001
0001
0000
0010
0000
0100
,
0010
1000
1000
0000
0100
0100
0000
0001
,
0001
0000
0100
0100
0000
1000
0000
0010
,
0100
0001
0001
0000
0100
0100
0000
0010
,
0010
0000
1000
1000
0000
0100
0000
0010
,
0100
0010
0010
0000
1000
1000
0000
0001
,
0001
0000
0100
0100
0000
0010
0000
0100
,
0001
0000
0010
0000
0100
0000
1000
0200
,
0000
0000
0310
0100
,
0010
0000
1000
0000
0001
0010
0001
0000
,
0200
0000
0310
0000
,
0010
0000
0001
0010
0000
0100
0000
0010
,
0000
1000
0010
1000
0000
0100
0000
0002
,
0000
0000
0000
0103
,
0010
1000
0100
0100
,
0010
0100
1000
0000
0010
0100
0000
0001
,
1000
0000
0010
0100
0000
0001
0000
1000
,
0010
0100
0001
0000
0100
0010
0000
1000
,
0010
0000
0100
1000
0000
0010
0000
0100
,
0001
1000
0010
0000
0100
0010
0000
1000
,
0001
0000
0010
0001
0000
0010
0000
0100
,
0010
1000
0001
0000
0010
0100
0000
1000
,
0001
0000
0010
0100
0000
0010
0000
0100
,
0010
0000
1000
0100
1000
0100
0000
0020
,
0000
0000
0130
0000
,
0001
0010
0000
0100
0010
0000
0100
0010
,
0200
0000
0301
0000
,
0010
0000
0100
0010
0100
0000
0001
1000
,
0001
0000
1000
0100
1000
0000
0011
0000
,
0100
0000
1000
0010
1000
0000
0010
0010
,
0010
0000
0100
0000
0100
0001
1000
0000
,
0010
0100
0010
0000
1000
0001
0000
0010
,
0100
0000
0001
0010
0000
0100
0010
0000
,
1000
0100
1000
0000
0010
0100
0000
0001
,
0010
0000
0100
0010
0000
1000
0001
1000
,
0010
0100
0001
0000
0010
0100
0000
0010
,
1000
0000
0100
1000
0000
0010
0000
0100
,
0001
0100
1000
0000
0010
0100
0000
0001
,
0010
0000
0100
0010
0000
1000
0100
0000
,
0010
0000
0100
0000
0001
0000
1000
0020
,
0000
0000
0130
0000
,
0100
0000
0010
0000
1000
0000
0001
1000
,
0002
0000
0013
0000
,
0100
0000
0010
1000
0000
0100
0000
0001
,
0000
0100
0010
0100
0000
0001
0000
1000
,
0020
0000
0000
0130
,
0100
0000
0001
1000
0001
0000
0010
0000
,
0100
0010
1000
0000
0100
0001
0000
0010
,
0100
0000
0001
0100
0000
1000
0010
1000
,
0100
0001
1000
0000
0010
0100
0000
0001
,
1000
0000
0010
0100
0000
0010
0000
0000
,
1001
0000
0000
0000
;

//---------------dance-single - ----------------
#NOTES:
     dance-single:
     :
     Easy:
     3:
     0.182,0.178,0.014,0.048,0.000: // measure 1
1000
0100
0010
0100
,  // measure 2
0001
0001
0001
0000
,  // measure 3
0010
0100
0010
1000
,  // measure 4
0100
0100
0100
0000
,  // measure 5
0010
1000
0100
0001
,  // measure 6
0100
0100
0100
0000
,  // measure 7
0010
1000
0100
1000
,  // measure 8
0001
0001
0001
0000
,  // measure 9
0010
0100
0001
1000
,  // measure 10
0020
0000
0030
0000
,  // measure 11
0100
0010
1000
0100
,  // measure 12
0002
0000
0013
0000
,  // measure 13
0100
0010
0100
0001
,  // measure 14
0010
0100
0010
1000
,  // measure 15
0200
0000
0000
0300
,  // measure 16
0010
0100
0100
0100
,  // measure 17
0010
1000
0100
0001
,  // measure 18
0100
0010
0100
0000
,  // measure 19
0010
1000
0100
0001
,  // measure 20
0100
0010
1000
0000
,  // measure 21
0010
0001
0100
0010
,  // measure 22
1000
0100
0001
0000
,  // measure 23
0010
0100
0001
0010
,  // measure 24
0001
1000
0010
0000
,  // measure 25
0100
0010
0010
0100
,  // measure 26
0020
0000
0030
0000
,  // measure 27
0100
0010
1000
0100
,  // measure 28
0002
0000
0013
0000
,  // measure 29
0010
0100
1000
0100
,  // measure 30
0100
0010
0100
0010
,  // measure 31
1000
0001
0001
0100
,  // measure 32
0010
1001
0010
0010
,  // measure 33
0100
0010
1000
0100
,  // measure 34
0001
0100
0010
0000
,  // measure 35
0100
1000
0010
0100
,  // measure 36
0001
1000
0010
0000
,  // measure 37
0100
0001
0010
0100
,  // measure 38
0010
1000
0100
0000
,  // measure 39
0010
0100
0010
1000
,  // measure 40
0001
1000
0010
0000
,  // measure 41
0100
0010
0100
0001
,  // measure 42
0020
0000
0030
0000
,  // measure 43
0100
0010
0100
0100
,  // measure 44
0020
0000
0130
0000
,  // measure 45
1000
0100
0010
0001
,  // measure 46
0001
0010
0100
1000
,  // measure 47
1000
0100
0100
0010
,  // measure 48
0100
0001
0001
0001
,  // measure 49
0010
0100
0010
0100
,  // measure 50
0001
0010
0010
0000
,  // measure 51
1000
0100
0010
0100
,  // measure 52
0001
0010
0100
0000
,  // measure 53
1001
0000
0000
0000
;
