#TITLE:Why Not?;
#SUBTITLE:;
#ARTIST:LOONA;
#TITLETRANSLIT:;
#SUBTITLETRANSLIT:;
#ARTISTTRANSLIT:;
#CREDIT:;
#BANNER:Why Not banner.png;
#BACKGROUND:Why Not bg.png;
#LYRICSPATH:;
#CDTITLE:;
#MUSIC:Why Not.mp3;
#OFFSET:-7.620;
#SAMPLESTART:39.480;
#SAMPLELENGTH:15.000;
#SELECTABLE:YES;
#BPMS:0.000=128.000;
#STOPS:60.000=1.420
,161.000=1.380
;
#BGCHANGES:;

//---------------dance-single - ----------------
#NOTES:
     dance-single:
     :
     Hard:
     9:
     0.657,0.619,0.472,0.173,0.433:
1000
0100
1000
0000
0010
0000
0100
0000
0001
0000
1000
0020
0000
0000
0030
1000
,
0100
0001
0010
0000
0100
0010
0100
0000
0001
0000
0010
2000
0000
0000
3000
0010
,
0100
0001
0010
0100
0010
0000
1000
0001
1000
0000
0010
2000
0000
3000
0010
0100
,
0010
0000
1000
0001
0000
0000
0010
0100
0010
0000
0001
0020
0000
0000
0030
1000
,
0010
0100
0001
0000
0010
0000
0100
0000
0001
0000
1000
0002
0000
0000
0003
0100
,
0010
0100
0001
0000
1000
0000
0010
0100
1000
0000
0010
0200
0000
0000
0300
0001
,
0010
0100
0001
0000
0010
0000
1000
0000
0001
0000
0100
0020
0000
0030
1000
0001
,
1000
0000
0100
0010
0000
0000
1000
0100
0001
0000
0010
0100
1000
0000
1000
0000
,
0110
0100
0001
0010
0200
0000
1300
0010
,
0010
1000
0100
0001
0200
0000
0310
0001
,
0010
1000
0010
0010
0001
0100
0010
1000
,
0100
0000
0000
0001
0000
0010
0100
0000
0010
0000
0000
1000
0000
0001
0010
0000
,
0100
0010
1000
0100
1002
0000
0013
0100
,
0001
0001
0010
0100
2001
0000
3100
0000
,
1000
0100
0010
0001
0100
0010
0200
0000
,
0310
0000
0000
0000
1001
0000
1001
0000
0000
0010
0100
0000
0000
0000
0010
0000
,
0100
0000
0001
1000
0110
0000
0000
0000
1001
0000
0000
0000
0110
0000
0001
0010
,
0000
0010
0100
0000
1100
0000
0011
0000
1000
0100
0010
0001
0000
0000
0000
0000
,
1001
0000
0000
0000
0110
0000
0000
0000
1001
0000
0000
0000
1100
0000
0010
0100
,
0000
0100
0010
0000
0011
0000
1100
0000
0010
0100
0010
0100
0001
0000
0001
0000
,
1000
0000
1000
0000
0110
0000
0000
0000
0011
0000
0000
0000
1010
0000
0010
0100
,
0000
0100
0001
0000
0010
0000
0100
0000
0010
1000
0001
0100
0000
0000
0010
0100
,
0001
0010
1000
0000
0110
0000
0000
0000
1001
0000
0000
0000
0010
0000
0100
0001
,
0000
0001
0100
0000
0010
0000
0100
0000
0001
0010
0100
1000
0000
0000
1100
0000
,
0011
0000
2001
0000
3100
0010
0020
0000
,
0130
0001
1100
0010
1100
0010
0101
0000
,
0010
0000
0100
0010
0200
0000
0000
0000
0310
0000
1000
0000
0020
0000
0000
0000
,
0130
0001
1001
0010
0110
1001
1001
0000
,
0110
0000
1000
0001
0100
0000
2000
0000
,
3100
0010
0100
0001
0100
0010
0100
0100
,
0101
0000
0001
0010
2000
0000
3020
0000
,
0130
0100
0001
0010
1000
0010
0001
0010
,
0000
0100
0110
0110
0000
0000
0001
0000
,
0001
0000
1000
0100
0100
0010
0001
0010
,
0010
0100
1000
0100
0100
0010
1000
0010
,
0010
0000
0100
0000
0001
0000
1000
0000
0000
0000
0100
0000
0011
0000
0000
0110
,
0000
0100
1000
0000
0010
0001
1000
0010
,
0100
0010
1000
0100
0100
1000
0010
0100
,
0100
1000
0001
0100
0100
0010
0001
0100
,
0100
0000
0010
0000
0001
0000
1000
0000
0000
0000
0010
0000
0110
0000
0000
1001
,
0000
0110
1001
0000
1000
0000
0100
0000
,
0010
0000
0001
1000
0000
1000
0001
0000
0010
0000
0010
0000
0100
0001
1000
0020
,
0000
0030
1001
0000
0100
0000
0010
0000
,
0100
0000
0001
0010
0000
0010
0100
0000
0010
0000
1000
0000
0010
0100
0010
0001
,
0010
0100
0110
0110
1000
0100
0010
0001
,
0010
0000
0100
0010
0000
0001
0010
0000
1000
0000
0010
0000
0100
0010
1000
0001
,
0000
0000
0100
0010
1000
0001
0100
0000
0010
0000
0100
0000
0001
0000
1000
0000
,
0001
0000
0010
0100
0000
0100
0010
0000
1000
0000
0001
0000
0010
0100
1000
0010
,
0000
0000
1000
0000
0001
0000
1000
0100
0010
1000
0001
0010
1000
0001
0100
1000
,
0010
0000
0100
1000
0000
1000
0100
0000
0010
0000
0100
0001
0000
0001
0100
0000
,
0110
0000
0010
0000
0110
0000
1000
0000
0001
0010
0100
1000
0001
0010
0100
1000
,
0100
0000
0010
0001
0000
0001
0010
0000
1000
0000
0100
0001
0000
0001
0100
0000
,
0011
0000
0110
0000
1000
0000
1000
0000
1001
0000
0001
0010
0001
0000
0010
0100
,
0010
0000
1000
0001
1000
0000
0010
1000
0010
0000
0100
1000
0100
0000
0001
0010
,
0000
0000
1000
0100
0001
0100
0010
1000
0010
0000
1000
0001
0010
0000
0100
1000
,
0010
0000
0100
0001
1000
0000
0010
0100
0001
0000
1000
0000
0010
0100
0010
0001
,
0010
1000
0110
1001
0110
0000
1000
0100
,
0011
0000
0010
0100
0011
0100
0110
0100
,
1100
0000
0000
0001
0000
0001
0010
0000
0110
0000
0001
0000
0010
0000
1000
0000
,
0110
0000
1000
0000
0010
0000
0100
0001
0100
0000
0010
0000
1000
0000
0001
0000
,
0220
0000
0000
0030
0301
0000
0010
0100
1001
0000
0000
0000
0000
0000
0000
0000
;

//---------------dance-single - ----------------
#NOTES:
     dance-single:
     :
     Medium:
     7:
     0.425,0.405,0.228,0.047,0.000:
1000
0000
0100
0010
0001
0000
0011
0000
,
0010
0000
0100
1000
0100
0000
1010
0000
,
0100
0000
0010
1000
0001
0000
0110
0000
,
0001
0001
0010
0000
1000
1000
0100
0000
,
0010
0100
0010
0000
1000
0100
0010
0000
,
0001
0010
0001
0000
0010
0100
1000
0000
,
0010
0000
0100
0000
0010
0100
0100
0000
,
1000
0001
0001
0000
0010
1000
1000
0000
,
0001
0010
0100
0010
1000
0000
0100
0000
,
0001
1000
0010
0001
0010
0000
0100
1000
,
0100
0000
0010
0100
0010
0000
0001
1000
,
0010
0010
0100
0100
,
1000
0100
0010
0001
0010
0000
0100
0000
,
0001
0010
0100
1000
0100
0000
0010
0000
,
0100
0100
0010
0010
1000
0001
1000
0000
,
1001
0000
1000
1000
0000
0010
0000
0100
,
0001
0000
1001
0000
0110
0000
0001
0001
,
0010
0000
0100
0010
1000
0000
0100
0000
,
0101
0000
0010
0000
1000
0000
0010
0100
,
0010
0000
1000
0100
1000
0000
0001
0001
,
1000
1000
0010
0000
0110
0000
0001
0000
,
0011
0000
1000
0000
1100
0000
0010
0100
,
0001
0010
1010
0100
,
1010
0000
0001
0000
0010
0000
0100
0001
,
1000
0000
1001
0000
0010
0100
0100
0000
,
0010
0000
1000
0001
1000
0001
1000
0000
,
0010
0000
0101
0000
0001
1000
1000
0000
,
0010
0100
0010
0100
0010
0100
0010
0000
,
1001
0000
0010
0100
0100
0000
1000
0000
,
0010
0100
0001
0000
0010
0100
1000
1000
,
0001
0000
1000
0100
1000
0000
0011
0000
,
0100
0000
0010
0000
1000
0001
0010
1000
,
0000
0000
0110
0110
0000
0000
1000
0000
,
0100
0000
0010
0002
0000
0003
0001
0020
,
0000
0030
0100
2000
0000
3000
0100
0020
,
0000
0030
0001
2000
0000
3000
0010
0100
,
0010
0001
1000
0000
0010
0000
0100
0001
,
0001
0000
0010
0100
0000
0001
1000
0001
,
0000
0100
1000
0100
0000
0010
0100
0010
,
0000
1000
0100
1000
0000
0010
0100
0000
,
0001
1001
0100
0100
,
0010
1000
0010
0000
0100
0100
0001
0010
,
0100
1001
0010
0001
,
0100
0010
0010
0000
1000
0100
0010
0001
,
0100
0100
0001
0001
0010
0000
1010
0000
,
0010
1100
0010
0100
,
0001
1000
1000
0010
0100
0000
0001
0000
,
0010
0000
1000
0000
0010
0100
0010
0100
,
0000
0000
1001
0000
0100
0010
0001
0010
,
1000
0100
0010
1000
0100
0001
0100
0010
,
1000
0000
0100
0000
0010
1000
0100
0001
,
0010
0001
1000
0100
0010
1000
0100
0001
,
0100
0010
1000
0100
0010
0000
0100
0000
,
0001
0010
0010
0100
0010
1000
0100
0001
,
0100
0000
0110
0000
0010
0100
1000
0001
,
0010
0100
0100
0010
1000
0001
0010
0010
,
0100
0001
0010
1000
0110
0000
1000
0001
,
1001
0000
0010
1000
0010
0100
0001
0100
,
0001
0000
0010
0000
0110
0000
0001
1000
,
1001
0000
0100
0000
0010
1000
0001
0100
,
0020
0000
1000
0030
0110
0000
0000
0000
;

//---------------dance-single - ----------------
#NOTES:
     dance-single:
     :
     Easy:
     3:
     0.285,0.286,0.181,0.102,0.000: // measure 1
0010
0010
0010
0100
,  // measure 2
0001
0001
0001
0100
,  // measure 3
1000
1000
1000
0100
,  // measure 4
0001
1000
0010
0100
,  // measure 5
0001
0001
0001
0010
,  // measure 6
1000
1000
1000
0010
,  // measure 7
0100
0100
0100
0010
,  // measure 8
1000
0001
0010
0001
,  // measure 9
0100
0100
0002
0013
,  // measure 10
1000
0010
2000
3100
,  // measure 11
0001
0100
0010
1000
,  // measure 12
0020
0030
0000
0000
,  // measure 13
1000
0100
0001
0100
,  // measure 14
1000
0010
0100
0000
,  // measure 15
0001
1000
0010
0100
,  // measure 16
1001
0000
0000
0000
,  // measure 17
0100
0110
0110
0001
,  // measure 18
1000
0010
0100
0001
,  // measure 19
0000
1001
1001
0010
,  // measure 20
0100
1000
0010
0100
,  // measure 21
0100
0001
1001
1000
,  // measure 22
1001
0010
0100
0001
,  // measure 23
1000
0010
0110
0100
,  // measure 24
0110
0001
1000
0010
,  // measure 25
0010
0200
0300
0002
,  // measure 26
0003
1000
0010
0100
,  // measure 27
0001
2000
3000
0020
,  // measure 28
0030
1000
0100
0001
,  // measure 29
0100
0010
0010
0100
,  // measure 30
0001
1000
0010
0110
,  // measure 31
1000
0100
0001
0100
,  // measure 32
1000
0010
1000
0110
,  // measure 33
0001
1000
0000
0010
,  // measure 34
0010
0200
0300
0002
,  // measure 35
0003
2000
3000
0020
,  // measure 36
0030
0200
0300
0001
,  // measure 37
1000
0010
0010
0100
,  // measure 38
0100
0001
0010
0001
,  // measure 39
0010
1000
0100
1000
,  // measure 40
0100
0010
0010
0100
,  // measure 41
0001
1001
0100
0000
,  // measure 42
0100
0000
0010
0000
,  // measure 43
1000
0001
0010
0000
,  // measure 44
0010
0000
0001
0001
,  // measure 45
0001
1001
0010
0100
,  // measure 46
0010
1000
0100
0001
,  // measure 47
0100
0100
0010
1000
,  // measure 48
0100
0010
0100
0001
,  // measure 49
0000
0110
1001
1001
,  // measure 50
1001
0010
0100
0001
,  // measure 51
1000
0010
0110
0110
,  // measure 52
0110
1000
0001
0100
,  // measure 53
0010
0010
1000
0001
,  // measure 54
0100
1000
0010
0001
,  // measure 55
0100
0110
0001
0010
,  // measure 56
0100
1000
0010
0010
,  // measure 57
0100
1001
0010
1000
,  // measure 58
0001
0100
0010
1000
,  // measure 59
0100
0000
0100
0010
,  // measure 60
0001
0010
1000
0001
,  // measure 61
0200
0300
1001
0000
;
