#TITLE:Watashitachi Wo Shinjite Ite;
#SUBTITLE:;
#ARTIST:CINDY;
#TITLETRANSLIT:;
#SUBTITLETRANSLIT:;
#ARTISTTRANSLIT:;
#CREDIT:;
#BANNER:Watashitachi Wo Shinjite Ite banner.png;
#BACKGROUND:Watashitachi Wo Shinjite Ite bg.png;
#LYRICSPATH:;
#CDTITLE:;
#MUSIC:Watashitachi Wo Shinjite Ite.mp3;
#OFFSET:-2.940;
#SAMPLESTART:18.060;
#SAMPLELENGTH:15.000;
#SELECTABLE:YES;
#BPMS:0.000=116.800,92.000=116.700;
#STOPS:;
#BGCHANGES:;

//---------------dance-single - ----------------
#NOTES:
     dance-single:
     :
     Hard:
     7:
     0.409,0.421,0.069,0.206,0.055:
1000
0000
0100
0000
0001
0000
0000
0000
0020
0000
0000
0000
0130
0000
0001
1000
,
0001
0000
0000
0010
0000
0000
0100
0000
0010
0000
0000
0000
1000
0000
0000
0000
,
0001
0000
0010
0000
0100
0000
0000
0000
2000
0000
0000
0000
3100
0000
0010
0100
,
0010
0000
0000
1000
0000
0000
0001
0000
0100
0000
0000
0000
0010
0000
0000
0000
,
0100
0000
0010
0000
0100
0000
0000
0000
2000
0000
0000
0000
3100
0000
0001
0010
,
0001
0000
0000
0100
0000
0000
0010
0000
1000
0000
0000
0000
0010
0000
0000
0000
,
0100
0001
1000
0010
,
0110
0000
0000
1000
0100
0010
0001
0010
,
0200
0001
1000
0301
,
0010
0000
0010
0100
0001
1000
0010
1000
,
0020
1000
0001
1030
,
0100
0000
0000
0001
0000
0000
0010
0000
1000
0000
0010
0000
0100
0000
0001
0000
,
2000
0100
0100
3100
,
0010
0000
1000
0100
0001
0100
1000
0010
,
0020
0130
0001
1000
,
0010
0000
0100
0000
0001
1000
0001
0000
,
0200
0000
1300
0010
0001
0000
0010
0100
,
0010
1000
0100
0001
,
0200
0000
0000
0000
0300
0001
0010
0100
,
1000
0000
0010
0000
0100
0001
0010
1000
,
0010
0000
0100
0000
0001
0010
0010
0000
,
0100
0010
0000
1000
0000
0001
0000
0100
,
0010
1000
0001
0100
,
0110
0000
0000
1000
0001
0010
0001
1000
,
0020
0001
1000
0031
,
0100
0000
0010
1000
0100
0001
1000
0010
,
0200
1000
0010
1300
,
0010
0000
0000
0100
0000
0000
0010
0000
0001
0000
1000
0000
0010
0000
0100
0000
,
0002
0010
0010
0013
,
0100
0000
0010
1000
0010
0001
0010
0100
,
0200
0301
1000
0010
,
0100
0000
0001
0000
1000
0010
0100
0000
,
0002
0000
0013
0000
1000
0100
0000
1000
,
0010
0000
0100
1000
0001
0000
0010
0000
,
2000
0000
0000
0000
3000
0001
0010
1000
,
0010
0000
0100
0000
0010
1000
0010
0001
,
0100
0000
0001
0100
0001
0010
0010
0000
,
1000
0001
1000
0001
0000
0010
1000
0010
,
0200
0302
2003
3020
,
0130
0000
0001
0000
1000
0100
0010
0001
,
0110
0000
0001
0000
1000
0010
0100
0001
,
0020
0000
0130
0000
0001
0010
0100
1000
,
0000
0010
0000
0100
0100
0000
0001
0010
,
0100
1000
0000
0010
0010
0100
0001
1000
,
0200
0000
0310
0000
0001
1000
0010
0100
,
0002
0000
0013
0000
0100
0001
0100
0010
,
0000
1000
0001
0100
0100
0000
0010
1000
,
0000
0100
0000
0001
0010
1000
0010
0001
,
0200
0000
0310
0100
0010
1000
0001
0100
,
0010
0000
1000
0000
0001
0010
0100
0001
,
0000
1000
0000
0010
0000
0100
0001
0100
,
0000
2002
0000
0000
0000
3003
0100
0000
,
0010
1000
0000
1000
0000
0010
0100
0000
,
0001
1000
0000
0010
0000
0001
0000
0100
,
0010
0000
1000
0000
0001
0000
0010
0100
,
0010
0000
1000
0100
0010
0000
0001
0000
,
1000
0001
1000
0001
1000
0001
1001
1001
,
1001
0100
0020
0230
,
0301
0000
0010
0000
1000
0000
0000
0000
0200
0000
0000
0000
0310
0000
0001
1000
,
0001
0000
0000
0100
0000
0000
0010
0000
1000
0000
0000
0000
0100
0000
0000
0000
,
1000
0000
0100
0000
0001
0000
0000
0000
0020
0000
0000
0000
0130
0000
1000
0001
,
1000
0000
0000
0010
0000
0000
0100
0000
0001
0000
0010
0000
1000
0000
0010
0000
,
0100
0000
1000
0000
0010
0000
0000
0000
2000
0000
0000
0000
3100
0000
0010
0100
,
0010
0000
0000
0001
0000
0000
0010
0000
0100
0000
0000
0000
0010
0000
0001
0000
,
0010
0000
0100
1000
0100
0000
0010
0100
,
0010
1000
0011
1100
,
0010
0000
0100
0000
0010
0000
0000
0000
1000
0000
0010
0000
1000
0000
0001
0100
,
0001
0000
0000
1000
0000
0000
0010
0000
0100
0000
0001
0000
0100
0000
0000
0000
,
1001
0000
0000
0000
;

//---------------dance-single - ----------------
#NOTES:
     dance-single:
     :
     Medium:
     4:
     0.323,0.304,0.062,0.069,0.000:
1000
0010
0200
0300
,
0001
0000
0010
0000
0100
0010
0100
0000
,
0001
1000
0020
0030
,
0100
0000
0001
0000
0010
0000
1000
0010
,
0010
0100
0002
0013
,
0100
0000
0010
0000
1000
0000
0100
0010
,
0100
0001
0010
0100
,
1001
0000
0000
0010
0100
0000
0001
0000
,
0110
1000
0100
0001
,
0010
0000
0010
0000
0001
0100
0001
0000
,
0010
0100
0010
1000
,
0100
0000
0100
0000
0010
1000
0010
0000
,
0100
0010
0100
0100
,
0001
0000
1000
0010
1000
0000
0010
0100
,
0100
0001
0010
0100
,
0010
0000
0010
0000
1000
0001
1000
0000
,
0020
0000
0030
0000
0100
0000
0001
0010
,
0001
0010
0100
1000
,
0020
0000
0000
0000
0000
0100
0130
0000
,
0001
0000
0010
0000
1000
0000
0001
1000
,
0001
0000
0010
0000
0100
0001
0001
0000
,
0010
0100
0000
0001
0000
1000
0000
0010
,
0100
0001
1000
0010
,
1001
0000
0000
0010
0100
0000
0010
0000
,
0001
0010
0100
0010
,
1000
0000
1000
0000
0010
0100
0010
0000
,
1000
0100
0010
0100
,
0001
0000
0010
0000
0100
0000
1000
0001
,
1000
0100
0010
0100
,
0001
0000
0010
0100
0010
0000
1000
0001
,
1000
0010
0001
0100
,
0010
0000
0010
0000
1000
0100
1000
0000
,
0010
0000
0001
0000
0100
0001
0000
0010
,
0100
0010
0001
1000
,
0200
0000
0000
0000
0000
0010
0310
0000
,
0001
0000
0010
0000
0100
0000
0010
1000
,
0010
0100
1000
0010
,
0100
0001
0010
0001
,
0100
0100
0010
0010
,
1000
0000
0000
0000
0001
0100
0001
0100
,
0000
0010
0000
1000
0000
0010
0100
0000
,
0110
0000
0001
0000
0010
0100
1000
0100
,
0000
0010
0000
0100
0010
0000
0001
0000
,
0010
0100
0000
0100
0010
0001
0010
0001
,
0000
0010
0000
0100
0000
0010
1000
0000
,
0110
0000
1000
0000
0100
0010
0100
0001
,
0000
0010
0000
0100
0010
0000
0010
0100
,
0000
1000
0000
0100
0010
0000
0100
0010
,
0001
0000
1000
0000
0010
0100
0010
0000
,
1001
0000
0010
0000
0100
0001
1000
0010
,
0000
0100
0000
0001
0000
1000
0000
0010
,
0000
0020
0000
0000
0000
0000
0030
0000
,
0100
0001
0000
0010
0000
0100
0010
0000
,
1000
0001
0000
0100
0000
0010
0000
1000
,
0001
0010
0100
1000
,
1001
0001
0010
0100
,
1000
1000
1000
1000
1000
1000
1000
1000
,
0010
0100
0001
0001
,
0010
0100
0020
0130
,
0001
0000
0010
0100
1000
0000
0010
0000
,
0100
0000
1000
0000
0020
0000
0130
1000
,
0100
0000
0001
1000
0001
0000
0010
0000
,
0100
0001
2000
3010
,
0100
0000
1000
0010
0100
0000
0001
0000
,
0010
0100
0010
1000
,
1001
0010
0100
0001
,
1000
0000
0010
0100
0010
0000
0001
0100
,
0010
0000
1000
0001
0010
0000
0100
0000
,
1001
0000
0000
0000
;

//---------------dance-single - ----------------
#NOTES:
     dance-single:
     :
     Easy:
     2:
     0.231,0.234,0.007,0.165,0.000: // measure 1
0010
0010
0200
0300
,  // measure 2
0001
0010
0100
1000
,  // measure 3
0010
0010
2000
3000
,  // measure 4
0100
0010
1000
0100
,  // measure 5
0001
0010
2000
3000
,  // measure 6
0100
0010
0100
0001
,  // measure 7
0010
0010
0010
0100
,  // measure 8
0010
0000
1000
1000
,  // measure 9
0002
0000
0000
0003
,  // measure 10
0100
0000
0010
1000
,  // measure 11
0020
0000
0000
0030
,  // measure 12
0100
0001
0010
0010
,  // measure 13
2000
0000
0000
3000
,  // measure 14
0100
0100
0010
0010
,  // measure 15
0200
0000
0000
0300
,  // measure 16
0010
0000
0100
0001
,  // measure 17
0100
0000
0010
0001
,  // measure 18
0010
0000
1000
1000
,  // measure 19
0020
0000
0000
0000
,  // measure 20
0130
1000
0100
0010
,  // measure 21
0100
0000
0100
0000
,  // measure 22
0001
0000
0001
0010
,  // measure 23
1000
0000
0010
0010
,  // measure 24
0010
0000
0100
0100
,  // measure 25
0002
0000
0000
0013
,  // measure 26
0100
0010
1000
0100
,  // measure 27
2000
0000
0000
3100
,  // measure 28
0010
1000
0100
0010
,  // measure 29
0200
0000
0000
0310
,  // measure 30
0100
0001
0010
0001
,  // measure 31
2000
0000
0000
3000
,  // measure 32
0010
0100
0001
0100
,  // measure 33
0010
1000
0010
0000
,  // measure 34
0100
0001
0100
0000
,  // measure 35
0020
0000
0000
0100
,  // measure 36
0130
0001
0010
1000
,  // measure 37
0010
0000
0100
0000
,  // measure 38
0001
0000
1000
0010
,  // measure 39
0100
0000
0010
0100
,  // measure 40
0001
0000
0010
0010
,  // measure 41
0200
0300
0010
0010
,  // measure 42
0002
0003
1000
0001
,  // measure 43
1000
1000
0001
0001
,  // measure 44
0100
0100
0010
0010
,  // measure 45
2000
3000
0010
0100
,  // measure 46
0020
0030
1000
0100
,  // measure 47
0001
0100
1000
0010
,  // measure 48
0010
0100
0001
1000
,  // measure 49
0020
0030
0100
0001
,  // measure 50
0020
0030
1000
0001
,  // measure 51
0100
0100
0010
0010
,  // measure 52
0100
0002
0000
0003
,  // measure 53
0010
0010
0100
0100
,  // measure 54
0010
1000
0010
0100
,  // measure 55
0001
0000
0010
0000
,  // measure 56
0100
0000
1000
0000
,  // measure 57
0001
0001
0001
0001
,  // measure 58
0010
0000
0100
0100
,  // measure 59
0010
0100
0020
0030
,  // measure 60
1000
0100
0010
0001
,  // measure 61
0010
0100
0002
0003
,  // measure 62
0010
0100
1000
0010
,  // measure 63
0100
0010
2000
3000
,  // measure 64
0010
0100
0010
0001
,  // measure 65
0010
1000
0001
0100
,  // measure 66
0100
0010
0100
0001
,  // measure 67
0010
1000
0200
0300
,  // measure 68
0010
0100
0010
0001
,  // measure 69
1001
0000
0000
0000
;
