#TITLE:WE RIDE;
#SUBTITLE:;
#ARTIST:BRAVE GIRLS;
#TITLETRANSLIT:;
#SUBTITLETRANSLIT:;
#ARTISTTRANSLIT:;
#CREDIT:;
#BANNER:WE RIDE banner.png;
#BACKGROUND:WE RIDE bg.png;
#LYRICSPATH:;
#CDTITLE:;
#MUSIC:WE RIDE.mp3;
#OFFSET:-7.820;
#SAMPLESTART:64.280;
#SAMPLELENGTH:15.000;
#SELECTABLE:YES;
#BPMS:0.000=110.020;
#STOPS:;
#BGCHANGES:0.000=WE RIDE.avi=1.000=1=0=0,
99999=-nosongbg-=1.000=0=0=0 // don't automatically add -songbackground-
;

//---------------dance-single - ----------------
#NOTES:
     dance-single:
     :
     Hard:
     8:
     0.492,0.466,0.293,0.139,0.297:
0000
0000
0000
0000
,
0000
0000
0000
0000
,
1001
0000
0100
0000
0000
0010
0000
0000
0001
0000
0000
0010
0000
0000
0100
0000
,
1000
0000
0010
0000
0000
1000
0000
0000
0002
0000
0000
0000
0023
0000
0000
0000
,
0130
0000
0001
0000
0000
1000
0000
0000
0010
0000
0000
0010
0000
0000
0100
0000
,
1000
0100
0010
0200
0000
0301
0010
0101
,
1001
0000
0010
0000
1000
0100
0000
0000
0010
0000
0000
0100
0000
0000
0010
0000
,
0001
0000
1000
0000
0010
1000
0000
0000
0100
0000
0000
0010
0000
0000
0100
0000
,
0001
0000
0000
0010
0000
0000
0200
0000
0000
0000
0000
0000
1300
0000
0010
0100
,
0010
1000
0001
0100
0000
0110
0000
1001
,
0010
0000
0000
0000
0100
0000
0010
0000
1000
0001
0000
0010
0000
0000
0001
0000
,
0100
0000
0000
0000
0010
0000
0000
0000
1000
0010
0000
0100
0000
0000
1000
0000
,
1010
0000
0000
0000
0100
0000
0000
0000
0010
0000
0100
0000
0001
0000
0010
1000
,
0000
0000
0100
0000
0010
0000
1000
0001
0000
0000
0100
0000
0100
0000
0010
0000
,
0100
0000
0000
0000
0001
0000
0010
0000
0100
0000
0010
1000
0000
0100
0000
0010
,
0000
0000
0100
0000
0001
0000
0010
0000
1000
0000
0010
0100
0000
1000
0000
0020
,
0000
0030
0000
0000
0100
0000
0001
0000
1000
0000
0010
0000
0010
0000
0100
0000
,
0001
0010
1000
0010
1000
0100
0010
0001
,
1000
0000
0100
1000
0100
0000
0100
0010
0100
0000
0010
0001
0010
0000
0100
0000
,
0010
1000
0100
0001
0001
0010
0100
0020
,
0000
0130
0001
1000
0010
1000
0100
2000
,
0000
3100
0010
0100
0010
0001
0001
0100
,
0010
0000
0010
1000
0010
0000
0100
0001
0100
0000
0010
0100
0010
0000
1000
0000
,
0001
0010
0100
1000
0100
0010
0001
0000
,
1000
0000
0010
0100
0000
0100
0000
0000
0001
0000
0010
1000
0000
1000
0000
0000
,
0100
0010
0000
0000
0110
0000
1000
0001
0000
0000
0110
0000
0110
0000
0001
0000
,
1000
0010
0000
0200
0000
0000
0310
0000
0110
0000
0000
0000
0001
0000
0010
1000
,
0010
0100
0000
0002
0000
0000
0013
0000
0110
0000
0000
0000
1000
0000
0010
0000
,
0100
0010
0010
1000
0001
0100
1000
0010
,
1100
0000
0110
0000
0001
0010
0000
0100
,
0010
0000
1000
0002
0000
0000
1003
0000
0110
0000
0000
0000
0001
0000
0010
0000
,
0100
0000
0010
0200
0000
0000
0310
0000
1001
0000
0000
0000
0010
0000
1000
0000
,
0100
0000
0010
0001
0000
0001
0000
0011
0000
0000
0100
0000
0010
0000
1000
0001
,
1000
0000
0010
1000
0000
1000
0000
1100
0000
0000
0010
0000
0110
0000
1001
0000
,
0020
0000
0000
0000
0000
0000
0000
0000
0100
0000
0030
0000
1000
0001
0000
0000
,
0100
0010
0000
0000
1000
0100
0000
0000
0002
0000
0000
0000
0003
0000
0010
0000
,
0110
0000
0001
0010
0100
0000
0010
0000
1000
0000
0010
0000
0100
0000
0002
0000
,
0000
0000
0200
0000
0000
0303
0000
0000
0010
0000
1000
0000
0010
0000
0100
0000
,
0110
0000
1000
0000
0010
0000
0000
0000
0100
0000
0001
0000
0100
0010
0000
0000
,
0001
0010
0000
0100
1000
0000
0010
0100
0020
0000
0000
0000
0130
0000
1000
0000
,
0101
0000
0010
0100
0001
2000
0020
3030
,
0100
0001
0000
0000
0110
0000
1000
0001
0000
0000
0110
0000
0001
0010
0100
0000
,
0010
1000
0000
0001
0000
0000
0100
0000
0110
0000
0000
0000
0010
0000
0100
0001
,
1000
0001
0000
0100
0000
0000
0010
0000
0110
0000
0000
0000
1000
0000
0100
0000
,
0010
0100
0001
0101
0010
0100
0100
0010
,
1000
0001
0100
0010
1000
0001
0000
0100
,
0011
0000
0100
1000
0000
0000
0100
0000
0110
0000
0000
0000
0010
0000
0100
0000
,
0001
0000
0010
0100
0000
0000
0010
0000
1000
0001
1000
0000
0010
0000
0100
0000
,
1000
0000
0010
0100
1000
0100
0000
0110
0000
0000
0010
0000
0100
0000
0001
0010
,
0001
0000
0100
0010
0000
0010
0000
0110
0000
0000
1000
0000
0001
0000
1000
0000
,
0001
0010
0100
1000
0001
0010
0100
1000
,
1000
0100
0010
0001
1000
0100
0010
0001
,
0110
0010
0001
1000
0010
0100
0001
0010
,
0110
0001
1000
0010
0000
0110
0110
1001
,
0010
0000
0100
0000
0010
1000
0000
0000
0110
0000
0000
0000
1000
0000
0100
0010
,
0001
0010
0000
0100
0000
0000
0010
0000
0110
0000
0000
0000
0001
0000
0010
0000
,
1000
0000
0000
0010
0000
0000
0100
0000
0000
0000
0001
0000
0101
0000
0010
1000
,
0010
0100
0010
2000
0000
3010
0000
0110
;

//---------------dance-single - ----------------
#NOTES:
     dance-single:
     :
     Medium:
     5:
     0.314,0.297,0.081,0.081,0.000:
0000
0000
0000
0000
,
0000
0000
0000
0000
,
1001
0000
0100
0000
0010
0000
0100
0001
,
0001
0000
0010
0100
2000
0000
3200
0000
,
0310
0000
1000
0000
0001
0000
0100
0010
,
0001
0010
0001
0100
0000
0010
0000
1000
,
0110
0000
0001
0000
0010
0000
0100
1000
,
1000
0000
0010
0000
0100
0001
0020
0000
,
0032
0003
0010
0010
,
0100
0000
0010
1000
0000
0001
0000
0100
,
0010
0000
1000
0000
0100
1000
0100
0000
,
0010
0000
0100
0000
0001
0010
0001
0000
,
0100
0000
0010
0000
0100
0001
0010
0000
,
1000
0010
0100
0000
0001
0000
0101
0000
,
0010
0000
0100
0000
0010
0100
1000
0000
,
0010
0000
0100
0000
1000
0001
0100
0000
,
0010
0000
0100
0000
1000
0010
0100
0000
,
0100
0010
1000
0000
0001
0100
0010
0000
,
1000
0000
0100
0000
0010
0000
0001
0100
,
0000
0010
0100
0000
0001
1000
0001
1000
,
0000
0010
0100
0000
1000
0001
1000
0001
,
0000
0100
0010
0000
1000
0010
1000
0010
,
0100
0001
1000
0010
,
0100
0001
0001
0000
0010
1000
1000
0000
,
0010
0100
0010
0000
1000
0001
1000
0000
,
0010
0000
0010
0100
0000
0100
0010
0000
,
1001
0000
0010
0100
2000
0000
3010
0000
,
0100
0000
1000
0010
0002
0000
0103
0000
,
0010
0000
1000
0100
0001
0100
1000
0010
,
0000
0100
0001
0000
0100
0010
0000
1000
,
0001
0000
0010
0100
0020
0000
0130
0000
,
0001
0000
0010
1000
0020
0000
0130
0000
,
0001
0000
1000
1000
0100
0000
0010
0000
,
0100
0000
0001
0010
0010
0000
0100
0010
,
0002
0000
0000
0003
0010
0000
0100
0000
,
1000
0010
0200
0300
,
0001
0100
0010
1000
,
0010
0010
0100
0010
,
1000
1000
0100
0100
,
0010
0100
0002
0003
,
0100
0000
0010
0000
0001
1000
0001
0000
,
1000
0000
0100
0010
0000
0010
0100
0000
,
0011
0000
0010
0100
0010
0000
0100
0000
,
1100
0000
0100
0010
0100
0000
0001
0000
,
0010
1000
0010
0100
0010
1000
0010
0100
,
0010
0000
0100
0000
0001
1000
0000
1000
,
0001
0000
0010
0100
1000
0000
0010
0000
,
0100
0000
0001
0010
0100
0000
0010
0000
,
1000
0000
0010
0100
0001
0000
0010
0000
,
1000
0000
0100
1000
0010
0000
0100
0000
,
0110
0001
0010
0100
,
0011
0010
0100
0010
,
1100
0000
0010
0000
0100
0000
0010
1000
,
0100
0001
0100
1000
0000
0010
0000
0100
,
0001
1000
0010
0100
,
0110
1000
0001
0010
,
0100
0000
0001
0010
0000
0010
0000
0100
,
0010
0000
1000
0001
0000
0010
0000
0110
;

//---------------dance-single - ----------------
#NOTES:
     dance-single:
     :
     Easy:
     4:
     0.235,0.233,0.088,0.051,0.000: // measure 1
0000
0000
0000
0000
,  // measure 2
0000
0000
0000
0000
,  // measure 3
1000
0100
0010
0001
,  // measure 4
1000
0100
0010
0001
,  // measure 5
0100
0010
1000
0001
,  // measure 6
0010
0010
0010
0100
,  // measure 7
0001
0010
0100
1000
,  // measure 8
0001
0010
0100
1000
,  // measure 9
0010
0100
0001
1000
,  // measure 10
0100
0100
0100
0010
,  // measure 11
1000
0000
0100
0010
,  // measure 12
0200
0300
0001
0010
,  // measure 13
0100
0000
0010
0001
,  // measure 14
0100
0010
1000
1000
,  // measure 15
0010
0000
0100
0010
,  // measure 16
2000
3000
0010
0001
,  // measure 17
0100
0000
0000
0100
,  // measure 18
0001
0010
1000
0010
,  // measure 19
0100
0100
0010
0010
,  // measure 20
1000
0100
0010
0010
,  // measure 21
0100
0001
0010
0010
,  // measure 22
0100
0001
1000
1000
,  // measure 23
0010
0010
1000
1000
,  // measure 24
0100
0001
1000
0010
,  // measure 25
0100
0100
0001
0001
,  // measure 26
0110
0000
0110
0000
,  // measure 27
1001
0010
0010
0000
,  // measure 28
1001
0100
0100
0000
,  // measure 29
0010
0100
0001
0010
,  // measure 30
1000
0010
0100
1000
,  // measure 31
0010
0100
0110
0000
,  // measure 32
0100
0010
0110
0000
,  // measure 33
0001
0001
0010
0100
,  // measure 34
1000
1000
0010
0100
,  // measure 35
0020
0000
0030
0010
,  // measure 36
0100
0100
0010
0000
,  // measure 37
1000
0100
0001
0100
,  // measure 38
1000
0000
0010
0000
,  // measure 39
0100
0001
0010
1000
,  // measure 40
0010
0001
0100
0000
,  // measure 41
0010
0010
0100
0100
,  // measure 42
0010
0001
1000
0010
,  // measure 43
1001
0010
0001
0100
,  // measure 44
1001
0100
0010
1000
,  // measure 45
0010
0100
1000
0010
,  // measure 46
0100
0100
0001
0001
,  // measure 47
0110
1000
0100
0001
,  // measure 48
0110
0001
0010
1000
,  // measure 49
0010
0010
0100
0010
,  // measure 50
0001
1000
0010
0100
,  // measure 51
0020
0100
0001
0100
,  // measure 52
0230
1000
0010
1000
,  // measure 53
0301
0010
0100
0010
,  // measure 54
0001
0001
1000
1000
,  // measure 55
0002
0010
0100
0010
,  // measure 56
2003
0100
0010
0100
,  // measure 57
3010
0010
0100
0100
,  // measure 58
0010
0000
0001
0000
1000
0000
0110
0110
;
