#TITLE:WANNABE;
#SUBTITLE:;
#ARTIST:ITZY;
#TITLETRANSLIT:;
#SUBTITLETRANSLIT:;
#ARTISTTRANSLIT:;
#CREDIT:;
#BANNER:WANNABE banner.png;
#BACKGROUND:WANNABE bg.png;
#LYRICSPATH:;
#CDTITLE:;
#MUSIC:WANNABE.mp3;
#OFFSET:-4.320;
#SAMPLESTART:49.600;
#SAMPLELENGTH:15.000;
#SELECTABLE:YES;
#BPMS:0.000=122.000;
#STOPS:;
#BGCHANGES:0.000=WANNABE.avi=1.000=1=1=0,
99999=-nosongbg-=1.000=0=0=0 // don't automatically add -songbackground-
;

//---------------dance-single - ----------------
#NOTES:
     dance-single:
     :
     Hard:
     8:
     0.529,0.509,0.286,0.095,0.278:
0000
0000
0000
0000
,
0000
0000
0000
0000
,
0000
0000
0000
0000
,
1000
0200
0300
0000
0110
0000
0001
0010
,
0100
0002
0003
0000
0110
0000
1000
0100
,
0010
0100
0110
0000
0000
0000
1001
0000
,
0010
0000
0000
0000
0100
0000
0000
0000
0010
0000
0001
0000
1000
0100
1000
0000
,
0110
0000
0000
0000
0001
0000
0010
0000
0100
0000
0010
0100
1000
0000
0100
0000
,
0110
0000
0000
0000
1000
0000
0100
0000
0010
0000
0100
0010
0001
0000
0010
0000
,
1000
0000
0010
0100
0000
0100
0010
0000
0001
0000
1000
0000
0010
0000
0100
0000
,
0001
0000
0000
0002
0000
0000
0010
0000
0013
0100
1000
0000
0100
0010
0001
0000
,
0110
0000
0000
0000
1000
0000
0100
0000
0010
0000
0100
0000
0001
0000
0010
0100
,
0010
0000
1000
0001
0000
0001
0020
0000
0030
0000
0100
0000
0010
0000
1000
0000
,
0100
0001
0100
0010
1000
0010
0100
0010
,
0000
0000
0001
0000
0001
0000
0010
0000
0100
0000
0010
1000
0000
1000
0000
0000
,
0110
0000
0000
0000
1001
0000
0000
0000
0100
0000
0000
0200
0000
0000
0000
0000
,
0310
0000
0000
0000
0001
0000
0010
0000
0100
1000
0000
0100
0000
0000
0000
0000
,
0010
0000
0100
0000
0001
0000
0010
0000
1000
0010
0000
0010
0000
0100
0010
0000
,
0001
0000
0100
0000
0010
0000
1000
0000
0010
0100
0000
0001
0000
0100
0000
0010
,
0000
1000
1010
0000
0100
0001
0101
0000
,
0010
0100
0010
0000
1000
1000
0010
0000
,
0100
0000
0001
0010
0100
1000
0100
0010
0001
0000
0000
0000
0110
0000
0000
0000
,
0010
1000
0000
1000
0000
0100
0000
0000
0010
0000
0000
0000
0110
0000
0000
0000
,
2001
0000
3100
0010
0001
0010
0100
0010
,
1000
0000
0000
0001
0000
0000
1000
0000
0000
0000
0010
0000
0100
0000
0010
0000
,
0000
1000
0100
0001
0100
1000
0010
0010
,
0110
0000
0001
0000
1000
0001
1000
0000
0010
0000
0000
0100
0000
0000
0010
0000
,
0120
0000
0130
1000
0001
0100
0010
1000
,
0001
0000
0000
0010
0000
0000
0100
0000
0000
0000
0010
0000
1000
0000
0010
0000
,
0000
0100
0100
0001
0100
0010
1000
0010
,
0110
0000
0001
0000
1000
0001
1000
0000
0010
0000
0000
0100
0000
0000
0010
0000
,
1001
0000
1000
0100
1000
0000
0010
0000
0100
0000
0001
0010
0001
0000
0100
0000
,
0010
0000
0100
0010
0100
0000
0001
0000
1000
0000
0010
1000
0010
0000
0100
0000
,
0001
0000
0010
0000
1000
0010
0000
0000
0010
0000
0100
0000
0001
0000
1000
0000
,
0110
0000
0000
0000
1100
0000
0000
0000
0011
0000
0000
0011
0000
0000
0010
0000
,
0100
0000
0010
0000
1000
0000
0100
0001
0000
0000
0001
0000
0010
0000
0100
1000
,
0000
0000
1000
0000
0010
0000
0100
0010
0000
0000
0001
0000
1000
0000
0010
0100
,
0010
0000
0000
0000
1000
0000
0100
0000
0001
0100
0001
0000
0110
0000
0000
0000
,
0010
0100
1000
0100
0010
0000
1001
0000
,
0001
0010
0000
0000
0010
0100
0000
0000
0100
0000
0000
1000
0000
0000
0010
0000
,
0110
1000
0100
0010
0002
0000
0013
0000
,
1001
0000
0000
0000
0010
0000
0100
0001
0000
0001
0000
0000
0010
0000
0100
1000
,
0100
0000
0010
0000
0100
0010
0100
0000
0001
0000
0000
1000
0000
0000
0001
0000
,
1000
0000
0000
0100
0000
0000
0010
0000
0100
0000
0001
0010
0100
0000
0010
0000
,
1001
0001
0010
0100
0010
1000
0100
0010
,
0001
0000
0000
1000
0000
0000
0001
0000
0000
0000
0010
0000
0100
0000
0010
0000
,
1000
0000
0100
0000
0010
0000
0010
0000
0100
0000
0001
0000
0010
0000
1000
0100
,
0010
0000
0100
0000
0001
0010
0100
0000
1000
0000
0000
0001
0000
0000
1000
0000
,
0110
1000
0100
0010
0100
0001
0010
1000
,
0010
0000
0000
0100
0000
0000
0001
0000
0000
0000
0010
0000
0100
0000
0010
0000
,
0100
1000
1000
0010
0100
0001
0010
1000
,
0110
0000
0001
0000
1000
0010
1000
0000
0010
0000
0000
0100
0000
0000
0010
0000
,
1001
0000
0001
0010
0100
1000
0100
0010
,
0002
0000
0000
0020
0003
0000
0100
0000
0130
0000
1000
0000
0100
0000
0001
0000
,
0000
0001
0100
1000
0000
0010
0000
0100
,
0001
0000
0010
0000
1000
0100
1000
0000
0010
0000
0000
0100
0000
0000
0001
0000
,
1010
0000
0100
0010
0001
0010
0100
1000
,
0200
0000
0000
0020
0300
0000
0001
0000
0031
0000
0010
0000
0100
0000
1000
0000
,
0000
1000
0100
0010
0000
0100
0000
0001
,
1001
0000
0010
0000
0100
0010
0100
0000
0001
0000
0000
1000
0000
0000
0001
0000
,
0110
0000
0000
0000
1000
0000
0100
0000
0011
0000
0000
1100
0000
0000
0010
0000
,
0110
0000
0000
0000
;

//---------------dance-single - ----------------
#NOTES:
     dance-single:
     :
     Medium:
     6:
     0.387,0.363,0.270,0.079,0.000:
0000
0000
0000
0000
,
0000
0000
0000
0000
,
0000
0000
0000
0000
,
1000
0020
0000
0000
0130
0000
0001
0000
,
1000
0002
0000
0000
0013
0000
0100
0000
,
0010
0010
0110
0000
0000
0000
1000
0000
,
0200
0000
0000
0301
,
0110
0000
0001
0010
0001
0000
0010
0000
,
1100
0000
0010
0100
0010
0000
1000
0000
,
0101
0000
0010
1000
0010
0000
0100
0001
,
0100
0000
0010
0000
0010
0000
1000
0100
,
0010
0000
0100
0010
0001
0000
0010
0001
,
0100
0000
0010
1000
0010
0000
0100
0010
,
0100
0000
0001
0000
1000
0000
0010
0100
,
0000
0001
0000
0100
0010
0000
0110
0000
,
1100
0000
0011
0000
0100
0001
0100
0000
,
0011
0000
1100
0000
0010
0100
0010
0000
,
1000
0100
0001
0000
0001
0100
1000
0000
,
0010
0000
0100
0000
0001
1000
0001
1000
,
0001
0000
0110
0000
0010
0010
0010
0000
,
1000
0000
1100
0000
0001
0001
0001
0000
,
0010
0000
0100
0010
0001
0000
0110
0000
,
1000
0000
0010
0100
0100
0000
1001
0000
,
1010
0000
0100
0001
0100
0000
0010
1000
,
0010
0000
0100
0000
0001
0000
0010
0100
,
0000
0100
0010
0000
1000
0000
0001
0100
,
0001
0000
0010
1000
1010
0000
1010
0000
,
0110
0000
1000
0001
1000
0000
0010
0100
,
0010
1000
0100
0010
,
0001
0000
0100
0000
0001
1000
0001
1000
,
0001
0010
0100
0101
,
0010
1010
0101
0010
,
0100
0000
0001
1000
0001
0000
0010
0100
,
1000
0010
0010
0000
0100
0000
0001
0100
,
0001
0010
0100
1000
,
1001
0010
0101
0010
,
1000
0000
0100
0000
0010
0100
0010
0000
,
1001
0000
0010
0000
0001
0010
0100
0000
,
0010
0100
0010
0100
0010
0000
1001
0000
,
0100
0000
0010
0001
0010
0000
0100
1000
,
0100
0000
0010
0100
0020
0000
0130
0000
,
1000
0100
0010
0000
0100
0010
0001
0000
,
0010
0000
0100
0001
0100
0000
0010
1000
,
0010
0000
0010
0000
0100
0001
0001
0001
,
0110
0000
1000
0001
0010
0000
0001
1000
,
0100
0000
0010
1000
0001
0000
0100
0010
,
0110
0000
1000
0100
0010
0001
0010
0100
,
1000
0000
0010
0100
0010
0000
0010
0000
,
1001
0010
0100
0001
,
1000
0000
0100
0000
0010
0000
1000
0100
,
0100
0000
0001
0000
0100
0000
0001
0010
,
0100
0010
1100
0011
,
1001
0000
0100
0010
0001
0000
0010
0100
,
1000
0000
0010
0000
0100
0010
0100
0020
,
0000
0030
0001
2000
0000
3200
0000
0300
,
0010
0000
0100
0010
0100
0000
0001
0000
,
1001
0000
0010
0100
1000
0000
0010
0001
,
0100
0000
0010
0000
1000
0001
1000
0002
,
0000
0003
1000
0020
0000
0230
0000
0300
,
0010
0000
0100
0010
0100
0000
1001
0000
,
0110
0000
0001
0010
0010
0000
0100
0010
,
0110
0000
0000
0000
;

//---------------dance-single - ----------------
#NOTES:
     dance-single:
     :
     Easy:
     3:
     0.288,0.266,0.151,0.056,0.000: // measure 1
0000
0000
0000
0000
,  // measure 2
0000
0000
0000
0000
,  // measure 3
0000
0000
0000
0000
,  // measure 4
0010
0100
0020
0030
,  // measure 5
1000
0001
2000
3000
,  // measure 6
0010
0110
0000
1000
,  // measure 7
0010
0010
0010
0010
,  // measure 8
0110
0001
0001
0010
,  // measure 9
1100
0010
0010
0100
,  // measure 10
0101
0010
1000
0010
,  // measure 11
0100
0100
0100
0001
,  // measure 12
1001
0010
0100
1000
,  // measure 13
1100
0010
0001
0100
,  // measure 14
0101
0010
0001
0010
,  // measure 15
0100
0100
0001
0001
,  // measure 16
1000
0010
0100
0200
,  // measure 17
0310
0001
1000
0020
,  // measure 18
0031
0001
0100
0100
,  // measure 19
0010
1000
0010
0001
,  // measure 20
0100
0100
2001
3000
,  // measure 21
0010
0010
0201
0300
,  // measure 22
0010
0010
0100
0001
,  // measure 23
1000
0100
0010
0001
,  // measure 24
1001
0010
0001
0100
,  // measure 25
0010
1000
0001
0100
,  // measure 26
0010
0010
0100
0100
,  // measure 27
0001
1000
0001
1000
,  // measure 28
1001
0010
0100
1000
,  // measure 29
0100
0010
0100
0001
,  // measure 30
1000
1000
0010
0010
,  // measure 31
0100
0001
0010
1000
,  // measure 32
1010
1000
1000
1000
,  // measure 33
0010
0100
0001
1000
,  // measure 34
0010
0100
0100
0010
,  // measure 35
0101
0010
1000
0010
,  // measure 36
1001
0100
0010
0001
,  // measure 37
0100
0010
0100
0100
,  // measure 38
0010
1000
0100
0001
,  // measure 39
0010
0100
1000
1001
,  // measure 40
0110
0010
0001
0001
,  // measure 41
0010
0100
2000
3100
,  // measure 42
0010
0100
0010
0001
,  // measure 43
1000
1000
0100
0100
,  // measure 44
0010
1000
0001
0100
,  // measure 45
1001
0010
0001
0100
,  // measure 46
0010
0010
0100
0100
,  // measure 47
0001
1000
0010
0100
,  // measure 48
0010
1000
0001
0001
,  // measure 49
0110
1000
0100
0010
,  // measure 50
0001
0001
0010
0100
,  // measure 51
0010
1000
0100
0001
,  // measure 52
1000
0010
0100
0100
,  // measure 53
1000
0100
0010
0001
,  // measure 54
1000
0100
0010
0001
,  // measure 55
0010
0010
0100
0100
,  // measure 56
0010
1000
0001
0100
,  // measure 57
0001
0010
0100
1000
,  // measure 58
0001
0010
0100
1000
,  // measure 59
0010
0100
0010
0001
,  // measure 60
1000
0100
0010
0010
,  // measure 61
0100
0001
1000
0010
,  // measure 62
0110
0000
0000
0000
;
