#TITLE:Vibe (Throw It Back);
#SUBTITLE:;
#ARTIST:Cookiee Kawaii;
#TITLETRANSLIT:;
#SUBTITLETRANSLIT:;
#ARTISTTRANSLIT:;
#CREDIT:;
#BANNER:Vibe (Throw It Back) banner.png;
#BACKGROUND:Vibe (Throw It Back) bg.png;
#LYRICSPATH:;
#CDTITLE:;
#MUSIC:Vibe (Throw It Back).mp3;
#OFFSET:-12.100;
#SAMPLESTART:36.100;
#SAMPLELENGTH:15.000;
#SELECTABLE:YES;
#BPMS:0.000=160.000,48.000=320.000,76.000=160.000;
#STOPS:76.000=0.100
,76.250=0.100
,76.500=0.100
,76.750=0.080
;
#BGCHANGES:;

//---------------dance-single - ----------------
#NOTES:
     dance-single:
     :
     Hard:
     9:
     0.562,0.608,0.529,0.153,0.135:
1000
0000
0010
0100
0110
0000
1000
0100
,
0002
0000
0013
0000
0100
0010
0100
0000
,
0001
0010
1000
0100
0010
0100
0020
0000
,
0130
1000
0100
0001
0100
0000
0010
0100
,
0110
0000
0000
0000
0011
0000
0000
0000
0110
0000
0000
1000
0000
0000
0100
0000
,
0110
0000
0000
0000
1100
0000
0000
0000
0101
0000
0000
0010
0000
0000
0100
0000
,
1000
0100
0010
0001
1000
0100
0010
0001
,
0020
0000
0000
0000
0030
0000
1000
0100
,
0010
0000
0000
0001
0010
0000
0000
0000
0100
0000
0000
0000
0010
0000
1000
0000
,
0010
0100
0001
0000
1000
0001
1001
0000
,
0001
0010
0100
1000
0100
0000
0010
0100
,
0010
0000
0000
1000
0001
0000
0000
0000
0010
0000
0000
0000
0100
0000
0010
0000
,
0001
0010
0200
0000
,
1000
0300
0010
1000
,
0100
0001
1000
0000
,
1000
0001
1001
0100
,
0001
1000
0000
0000
0010
0100
0000
0000
,
0020
0000
1030
0000
,
0110
0000
1001
0000
,
1000
0100
0010
0001
0110
0000
0000
0000
1001
0000
0000
0000
0110
0000
0000
1000
,
0000
0100
0011
0000
0110
0000
1100
1000
,
0001
0000
1000
0000
1001
0000
0000
0000
0110
0000
0000
0000
1001
0000
0000
0010
,
0000
0100
0101
0000
1010
0000
0110
0001
,
1000
0001
1000
0100
0010
0001
1000
0100
,
0010
0001
0001
0010
0100
1000
0010
0100
,
0110
0000
1000
0000
0011
0000
0010
0000
0110
0000
0100
0000
1100
0000
0100
0010
,
0000
0010
0100
0000
0001
0000
1000
0000
0010
0000
0100
0000
0001
0000
1000
0000
,
0100
0010
0001
0000
1001
0000
0001
0000
,
1001
0000
0000
0000
0001
0000
0000
0000
1001
0000
0000
0000
0001
0000
0010
0100
,
0010
0001
0010
0000
0110
0000
0010
0000
,
0110
0000
0010
0000
0110
0000
0010
0001
,
0010
0100
1000
0000
1001
0000
0001
0000
,
1001
0000
0000
0000
1000
0000
0000
0000
1001
0000
0000
0000
0010
0000
0100
0001
,
0100
0010
0100
0000
0110
0000
0010
0000
,
0110
0000
0100
0000
0110
0000
0010
1000
,
0001
0000
1000
0000
0010
0000
0100
0000
0001
0000
1000
0000
0010
0000
1000
0100
,
0000
0100
1000
0000
0010
0000
0100
0000
0001
0000
0010
0000
0100
0000
0010
1000
,
0010
0000
0100
0000
0001
0000
1000
0000
0010
0000
0100
0000
0001
0000
0010
0001
,
0000
0001
0010
0000
0100
0000
0010
0000
0100
0000
1000
0000
0010
0000
0001
0000
,
1000
0000
0010
0000
0100
0000
0001
0000
0101
0000
0010
0000
1000
0000
0100
0001
,
0000
0001
1000
0000
0010
0000
0100
0000
0101
0000
0010
0000
1000
0000
0010
0100
,
0000
0100
0010
0000
1000
0000
0001
0000
1001
0000
0010
0000
0100
0000
0010
0000
,
1000
0000
0100
0000
0001
0000
0100
0000
1010
0000
0100
0000
0001
0000
1000
0001
,
0000
0001
1000
0000
0210
0000
0000
0000
0000
0000
0000
0000
0002
0000
0000
0300
,
0000
0000
0000
0000
2000
0000
0000
0003
0000
0000
0000
0000
0200
0000
3000
0000
,
0010
0302
0000
0020
,
0000
0000
0000
0000
0203
0000
0000
0000
0000
0000
0000
0030
2000
0000
0000
0000
,
0300
3010
0000
0100
,
0000
0001
0000
1000
,
0000
1001
0000
0000
;

//---------------dance-single - ----------------
#NOTES:
     dance-single:
     :
     Medium:
     6:
     0.384,0.405,0.200,0.118,0.000:
1000
0100
0010
0100
,
0002
0003
0010
0110
,
0100
0000
0001
0000
0010
0000
0100
1000
,
0100
0010
0110
1000
,
0011
0000
0110
0000
1100
0000
0010
0100
,
0010
0000
0001
0000
0100
0000
0010
0010
,
0010
0000
1000
0100
1000
0000
0001
0010
,
0002
0000
0003
0010
,
0110
0000
0020
0000
0000
0000
0130
1000
,
0100
1000
0100
0000
0010
0010
0010
0000
,
0100
0001
0100
0000
0001
0000
0010
0100
,
1000
0000
0110
0000
1000
0000
0001
0010
,
0100
0000
0010
0000
,
0100
0000
0001
1000
,
0001
0000
0100
0000
,
0010
1000
1010
0000
,
0100
0000
0100
0000
,
0100
0000
0100
0000
,
0010
0000
1000
0000
,
0000
0110
1000
0110
,
0001
0010
0100
0000
0010
0000
0001
0000
,
1000
0010
0100
0000
0001
0000
0010
0000
,
0001
0100
1000
0000
0010
0000
0100
0000
,
0001
0010
0100
0000
1000
0100
0010
0000
,
0100
0001
0100
0000
0010
1000
0010
0000
,
0110
0000
1000
0000
0001
0010
0100
0000
,
0001
0000
0010
0000
1000
0100
0010
0000
,
1000
0001
0001
0001
,
0001
0000
0001
0000
0001
0000
0001
0010
,
0110
1000
1000
1000
,
1000
0000
1000
0000
1000
0000
0100
0010
,
0100
0010
0001
0000
1000
0000
0001
0000
,
1000
0000
0001
0000
1000
0000
0001
1000
,
1001
0100
0100
0100
,
0100
0000
0010
0000
0100
0000
0001
1000
,
0001
1000
0100
0010
,
0001
0100
0010
0000
0100
0000
0010
0000
,
1000
0100
1000
0000
0010
0000
0100
0000
,
0001
1000
0010
0000
0100
0000
0010
0001
,
0010
0110
0110
0110
,
1000
0100
0001
0000
0001
0000
0001
0000
,
0010
0100
0010
0000
1000
0000
0010
0000
,
0100
0001
0010
0000
1000
0000
0010
0000
,
0100
2000
0000
3200
,
0000
0320
0000
0031
,
1000
0002
0000
0023
,
0000
0230
0000
2300
,
0000
3100
0000
0010
,
0000
0100
0000
0001
,
0000
1001
0000
0000
;

//---------------dance-single - ----------------
#NOTES:
     dance-single:
     :
     Easy:
     4:
     0.297,0.318,0.106,0.035,0.000: // measure 1
0010
0100
0010
0001
,  // measure 2
0020
0030
0100
0100
,  // measure 3
0010
1000
0100
0001
,  // measure 4
0200
0300
0010
0010
,  // measure 5
0100
0100
0100
0001
,  // measure 6
1000
1000
1000
0010
,  // measure 7
0100
0001
0010
1000
,  // measure 8
0020
0000
0030
0100
,  // measure 9
0001
0001
0000
0010
,  // measure 10
0100
0010
0000
1001
,  // measure 11
0100
0100
0100
0010
,  // measure 12
1000
0001
0000
0010
,  // measure 13
0100
0000
0100
0000
,  // measure 14
0000
0000
0001
0000
,  // measure 15
0010
0000
0100
0000
,  // measure 16
0000
0000
0110
0000
,  // measure 17
1000
0000
1000
0000
,  // measure 18
1000
0000
0001
0000
,  // measure 19
0010
0000
0010
0000
,  // measure 20
0000
0110
0100
1000
,  // measure 21
0100
0010
0100
0010
,  // measure 22
0001
0110
0001
0010
,  // measure 23
0001
0010
0100
0010
,  // measure 24
1000
0100
0100
0010
,  // measure 25
0010
1000
0001
0010
,  // measure 26
0010
0001
0001
1000
,  // measure 27
1000
0010
0100
0001
,  // measure 28
0010
1000
1000
1000
,  // measure 29
1000
1000
1000
1000
,  // measure 30
0010
0001
0001
0001
,  // measure 31
0001
0001
0001
0001
,  // measure 32
0010
0100
0100
0100
,  // measure 33
0100
0100
0100
0100
,  // measure 34
0010
1000
0001
1000
,  // measure 35
0001
1000
0001
0100
,  // measure 36
0100
0110
0010
0001
,  // measure 37
0010
0110
1000
0100
,  // measure 38
0010
1001
0010
0001
,  // measure 39
0100
1001
0010
0001
,  // measure 40
0001
0010
0010
0100
,  // measure 41
0100
1000
1000
0010
,  // measure 42
0100
0010
0010
0100
,  // measure 43
0100
0001
0010
0100
,  // measure 44
1000
0100
0000
0010
,  // measure 45
0000
0100
0000
0001
,  // measure 46
0010
0100
0000
0010
,  // measure 47
0000
1000
0000
0010
,  // measure 48
0100
1000
0000
0100
,  // measure 49
0000
0010
0000
0001
,  // measure 50
1000
1001
0000
0000
;
