#TITLE:Super Smash Bros. Melee (Opening);
#SUBTITLE:;
#ARTIST:Nintendo;
#TITLETRANSLIT:;
#SUBTITLETRANSLIT:;
#ARTISTTRANSLIT:;
#CREDIT:;
#BANNER:Super Smash Bros Melee banner.png;
#BACKGROUND:Super Smash Bros Melee bg.png;
#LYRICSPATH:;
#CDTITLE:;
#MUSIC:Super Smash Bros Melee (Opening).mp3;
#OFFSET:0.340;
#SAMPLESTART:49.520;
#SAMPLELENGTH:12.000;
#SELECTABLE:YES;
#BPMS:0.000=170.000,12.000=160.000,15.000=150.000,16.000=140.000,20.000=70.000,24.000=75.000,25.000=79.500,27.000=150.000,32.000=159.940,96.000=146.000,112.000=150.500,138.000=158.200,154.000=159.200,162.000=160.200,186.000=159.200,190.000=157.200,194.000=150.000,202.000=118.600,203.500=90.000;
#STOPS:19.500=0.840
,31.000=1.060
,31.500=0.400
,112.000=0.940
,193.500=0.820
;
#BGCHANGES:2.000=Super Smash Bros Melee.avi=1.000=0=0=0,
99999=-nosongbg-=1.000=0=0=0 // don't automatically add -songbackground-
;

//---------------dance-single - ----------------
#NOTES:
     dance-single:
     :
     Hard:
     9:
     0.584,0.627,0.466,0.336,0.201:
0000
0000
0000
0000
,
2000
0000
0100
0010
,
3002
0000
0000
0000
0010
0000
0013
0100
,
0020
0000
0100
0001
,
0130
0000
0001
0000
1000
0000
0010
0110
,
2002
0000
0000
0000
0000
3003
1000
0100
,
0010
0000
0001
0000
0010
0000
0100
0000
1000
0000
0010
0000
0110
0000
0000
1000
,
0001
0000
0010
0000
0100
0000
0000
0001
0010
0000
0100
0000
1001
0000
0110
0000
,
1000
0100
0010
0001
0010
0100
1000
0100
,
0001
1001
0100
0010
1001
0100
0010
0100
,
0001
0000
1000
0000
0010
0000
0100
0000
0001
1000
0001
0000
0010
0000
0100
0000
,
0010
1001
0010
0100
1001
0010
0001
0100
,
0010
1000
0010
0000
0100
0000
0010
0000
0001
0000
0010
0000
0100
0000
1000
0000
,
0200
0010
0000
0000
0010
0000
0300
0000
,
1000
0100
1000
0000
0010
0000
0100
0000
1000
0000
0010
0000
0001
0000
0100
0000
,
0020
0100
0000
0000
0100
0000
0030
0000
,
1100
0100
0010
0011
0001
0010
0100
1000
,
0011
0100
0010
1100
0010
0100
0001
0010
,
1001
0010
0100
0110
0001
0010
0100
1000
,
0200
2300
3020
0032
,
0013
0100
0001
0010
1000
0100
1100
0000
,
0010
1000
0100
0010
0100
0010
0011
0000
,
1000
0100
0010
0000
0001
0000
0010
0000
0001
0000
0100
0000
0010
0000
1000
0000
,
0010
0100
0020
0000
0000
0000
0100
0000
0100
0000
0100
0000
1030
0000
0000
0000
,
1001
0000
0010
0000
0100
0000
1001
0000
0000
0001
0010
0100
,
1000
0000
0100
0010
0000
0001
0010
0000
0100
0010
0000
0000
,
1100
0000
0010
0000
0100
0000
0011
0000
0010
0100
0010
0001
,
0010
0000
0010
0100
0010
1000
0001
0000
0001
1000
0000
0000
,
1001
0000
0000
0000
1000
0100
0010
0001
0020
0000
0000
0000
0000
0000
0000
0000
,
0000
0130
0001
0010
2000
0000
3200
0000
,
0320
0230
0302
0000
,
0000
0013
0100
0010
0002
0000
0023
0000
,
0230
2300
3200
0000
,
0000
0310
1000
0001
0200
0000
0320
0000
,
0032
0203
0310
0100
,
0010
0100
0001
1000
,
0010
0000
0000
0000
0100
0000
0000
0000
1001
0000
0000
0100
0010
0000
0000
0000
,
1000
0010
0000
0100
0001
0010
1000
0010
,
0100
0000
0001
0000
0101
0000
0000
0000
0110
0000
0000
0001
0010
0000
0000
0000
,
1000
0100
0000
0010
0100
0001
0010
0001
,
1000
0000
0010
0000
0110
0000
0000
0000
1001
0000
0000
0010
0100
0000
0000
0000
,
0001
0000
0010
0000
0100
1000
0100
0000
0010
0000
2000
0000
0000
0000
0100
0000
,
0100
0000
0100
0000
3010
0000
0000
0000
1001
0000
0000
0100
0001
0000
0000
0000
,
0010
0000
0100
0000
0001
0010
0001
0000
0010
0000
0200
0000
0000
0000
1000
0000
,
1000
0000
1000
0000
0310
0000
0000
0000
1100
0000
0000
0010
0001
0000
0000
0000
,
0110
0000
0110
0000
0000
0000
0000
0000
0011
0000
0000
0001
0010
0000
0000
0000
,
0110
0110
0000
1000
0110
0000
0011
0000
,
0010
0100
0011
1100
,
0010
0000
1000
0001
1001
0000
0000
0000
,
1000
0000
0100
0000
0010
0000
0001
0000
0010
0000
0100
0000
,
1001
0000
0110
0000
0011
0000
0010
0100
,
0000
2002
0000
0000
0000
0000
0000
0000
,
0000
0000
0000
0000
0000
3003
0000
0000
;

//---------------dance-single - ----------------
#NOTES:
     dance-single:
     :
     Medium:
     6:
     0.409,0.456,0.228,0.163,0.000:
0000
0000
0000
0000
,
2000
0000
3100
0010
,
0002
0000
0000
0000
0013
0000
0100
0010
,
0200
0000
0310
0001
,
0010
0000
0100
0000
0001
0000
1000
0010
,
2002
0000
0000
0000
0000
3003
0100
0010
,
0100
0001
1000
0010
0100
0001
1000
0000
,
0100
0000
0010
0100
0001
1000
0010
0110
,
1000
0100
0010
1000
,
0100
0001
0000
0001
0100
0000
0010
0000
,
0100
0000
0010
0000
1000
0100
0001
0000
,
0010
0100
0000
0100
0010
0000
0001
0000
,
0010
0100
1000
0000
0010
0000
0100
0000
,
0002
0000
0010
0013
,
0100
0010
0001
0000
1000
0000
0010
0000
,
0200
0000
0010
0310
,
1000
0000
0001
0100
0000
0010
1000
0000
,
0010
0000
0100
0001
0000
1000
0010
0000
,
0100
0000
0010
1000
0000
0100
1000
0000
,
0110
0000
0100
0010
0001
0000
1001
0000
,
0010
0000
0100
0010
0000
0010
0100
0000
,
0011
0000
0100
1000
0000
1000
0100
0000
,
0010
1000
0100
0000
0001
0100
0010
0000
,
0200
0010
1000
0310
,
1000
0000
0100
0010
0001
0000
0010
0100
,
0010
1010
0110
1001
,
0010
0000
0100
0001
0010
0000
0010
0100
,
1000
0110
0011
1100
,
1001
0000
0010
0100
0002
0000
0000
0000
,
0003
0100
0010
0100
0010
0000
1000
0000
,
0100
0010
0200
0000
,
0300
0010
0001
0010
0100
0000
0010
0000
,
0100
1000
0020
0000
,
0030
0001
1000
0001
1000
0000
0010
0000
,
0100
0010
1000
0100
,
0010
0001
0010
0100
,
1000
0010
0110
0001
,
0010
0100
0000
0001
0010
0000
0010
1000
,
0100
0010
0100
0000
1001
0000
0010
0000
,
0100
0010
0000
0010
0100
0000
0001
0010
,
1000
0010
0100
0000
1001
0000
0010
0000
,
0100
1000
0100
0000
0010
0200
0000
0000
,
0000
0300
0000
0000
0011
0000
0010
0000
,
0100
0010
1000
0000
0100
0002
0000
0000
,
0000
0003
0110
0010
,
0100
0001
0000
0000
0110
0000
0010
0000
,
1000
0100
0000
0010
0100
0000
0010
0000
,
0001
1000
0010
0100
,
0010
0000
1000
0001
1001
0000
0000
0000
,
0010
0000
0100
0000
0001
0010
0100
1000
,
0100
0000
0010
0000
0110
0000
0000
0100
,
0000
2002
0000
0000
0000
0000
0000
0000
,
0000
0000
0000
0000
0000
3003
0000
0000
;

//---------------dance-single - ----------------
#NOTES:
     dance-single:
     :
     Easy:
     4:
     0.296,0.285,0.098,0.173,0.000: // measure 1
0000
0000
0000
0000
,  // measure 2
0020
0000
0130
0001
,  // measure 3
0200
0000
0000
0000
,  // measure 4
0320
0000
0130
0001
,  // measure 5
0200
0000
0310
0010
,  // measure 6
0200
0000
0000
0301
,  // measure 7
1000
0001
0100
0010
,  // measure 8
1000
0100
0010
1001
,  // measure 9
0100
0100
0100
0100
,  // measure 10
0001
0010
0001
0010
,  // measure 11
1000
1000
1000
1000
,  // measure 12
0010
0100
0010
0100
,  // measure 13
0001
0010
0100
1000
,  // measure 14
0200
0000
0000
0300
,  // measure 15
1000
0100
0010
0001
,  // measure 16
0020
0000
0000
0030
,  // measure 17
0100
0010
0010
0010
,  // measure 18
0100
0001
0001
0001
,  // measure 19
0100
1000
1000
1000
,  // measure 20
0020
0000
0130
0001
,  // measure 21
1000
0100
0100
0100
,  // measure 22
0010
0001
0001
0001
,  // measure 23
0010
0100
0001
1000
,  // measure 24
0020
0000
0000
0030
,  // measure 25
0100
0100
0001
0010
,  // measure 26
1000
0100
0010
0001
,  // measure 27
0010
0010
0100
1000
,  // measure 28
0001
0010
0100
1000
,  // measure 29
1001
0000
0020
0000
,  // measure 30
0000
0130
0001
0010
,  // measure 31
1000
0010
0200
0000
,  // measure 32
0000
0301
0010
0100
,  // measure 33
0010
0001
2000
0000
,  // measure 34
0000
3100
0010
0100
,  // measure 35
0010
1000
0001
0001
,  // measure 36
0001
0010
0100
0100
,  // measure 37
0100
1000
0010
0100
,  // measure 38
0001
0010
1000
0000
,  // measure 39
1000
1001
0100
0010
,  // measure 40
1000
0100
0010
0000
,  // measure 41
0010
0110
0001
0010
,  // measure 42
0100
1000
0010
0200
,  // measure 43
0000
0300
0010
0100
,  // measure 44
0001
1000
0010
0002
,  // measure 45
0000
0003
1000
1000
,  // measure 46
0110
0000
0001
0001
,  // measure 47
0110
0000
0001
0010
,  // measure 48
0100
1000
0100
0010
,  // measure 49
0001
0010
1001
0000
,  // measure 50
0010
0100
0001
1000
,  // measure 51
0010
0000
0000
0000
0110
0000
0000
0100
,  // measure 52
0000
2002
0000
0000
0000
0000
0000
0000
,  // measure 53
0000
0000
0000
0000
0000
3003
0000
0000
;
