#TITLE:Stay With Me;
#SUBTITLE:;
#ARTIST:Miki Matsubara;
#TITLETRANSLIT:;
#SUBTITLETRANSLIT:;
#ARTISTTRANSLIT:;
#CREDIT:;
#BANNER:Stay With Me banner.png;
#BACKGROUND:Stay With Me bg.png;
#LYRICSPATH:;
#CDTITLE:;
#MUSIC:Stay With Me.mp3;
#OFFSET:-9.400;
#SAMPLESTART:60.820;
#SAMPLELENGTH:15.000;
#SELECTABLE:YES;
#BPMS:0.000=108.300,161.500=108.180;
#STOPS:;
#BGCHANGES:0.000=Stay With Me.avi=1.000=1=0=0,
99999=-nosongbg-=1.000=0=0=0 // don't automatically add -songbackground-
;

//---------------dance-single - ----------------
#NOTES:
     dance-single:
     :
     Hard:
     8:
     0.477,0.398,0.087,0.215,0.289:
1001
0000
0000
0000
0010
0000
0100
0010
0001
0010
0000
0000
0010
0000
0000
0000
,
0100
0000
0001
0020
0000
0130
1000
0100
,
1000
0100
0000
0010
0000
0100
0000
0001
1000
0000
0010
0000
0200
0000
0000
0000
,
0310
0000
0000
0002
0000
0000
0000
0000
0013
0000
0000
0000
0100
0000
0000
0000
,
0010
1000
0000
0100
0000
0001
0000
0100
1000
0000
0010
0000
2000
0000
0000
0000
,
3100
0000
0000
0020
0000
0000
0000
0000
0130
0000
0001
0000
1000
0001
0010
0100
,
0000
0000
0001
0000
0010
0100
0000
0010
0000
0000
1000
0000
0100
0002
0000
0000
,
0013
0000
0100
0000
0010
1000
0000
0010
0000
0000
0100
0000
0010
0000
0001
1000
,
0002
0010
0100
0013
,
1000
0000
0000
0000
0100
0000
0000
0000
0010
0000
1000
0000
0010
0100
0001
1000
,
0000
0000
0010
0000
0100
0000
0001
1000
0000
0000
0100
0000
0010
0000
0100
0000
,
0000
0000
1000
0000
0100
0001
0000
0010
0000
0000
0100
0000
0010
0000
1000
0100
,
0010
0100
0010
1000
,
0100
0000
0010
0000
0001
0000
0010
0000
0100
0000
0010
0000
1000
0100
0000
0000
,
0010
0100
0001
0010
0010
0100
1000
0100
,
2000
0000
0000
0020
0000
3000
0000
0000
0130
0000
0000
0000
0100
0000
0010
0000
,
1000
0000
0100
0000
0001
0100
0000
0100
0000
0000
0010
0000
0100
0000
0001
0000
,
0010
0000
0001
0000
0010
1000
0000
2000
0000
0000
0100
0000
0100
0000
3100
0000
,
0010
0100
1000
0100
0010
0001
0100
0010
,
0200
0000
0000
0020
0000
0300
0000
0000
0030
0000
0000
0000
1000
0000
0001
0000
,
1000
0000
0100
0000
0010
1000
0000
0002
0000
0000
0000
0000
0013
0000
0100
0000
,
0010
0000
1000
0000
0001
0100
0000
0010
1000
0000
0100
0000
0010
0000
0001
0000
,
0010
0000
0100
0000
1000
0000
0100
0000
0010
0100
0000
0000
0000
0000
1000
0001
,
0000
0000
0110
0100
2001
0000
3010
0100
,
0001
0010
1000
0010
0010
0100
0001
0010
,
0100
0000
1000
0000
0010
0100
0000
0001
0020
0000
0000
0000
0130
0000
0001
0000
,
0100
0000
0010
0100
0100
1000
0100
1000
,
0010
0200
0000
0310
0001
1000
0010
0100
,
0010
0001
0001
0000
0010
0100
0010
1000
,
0100
0000
1000
0010
0100
0010
0001
0002
,
0000
0013
0100
0010
1000
0100
1000
2000
,
0000
0000
3000
0000
0100
0000
0010
0000
1001
0000
0010
0000
0100
0001
0000
1000
,
0000
0010
0100
0010
1000
0010
0001
0100
,
0020
0000
0000
0000
0130
0001
0000
1000
0000
0000
0100
0000
1000
0010
0000
0100
,
0000
0020
0000
0000
0130
0000
0001
0000
0010
0000
1000
0000
0010
0000
0100
0000
,
0001
0010
1000
0010
0100
0020
0000
0130
,
0100
0001
0101
0000
0010
1000
0010
0100
,
0010
0000
1000
0010
0001
0010
1000
1001
,
0000
0010
0100
1000
0010
0100
1000
0010
,
0001
0000
1000
0000
0010
0000
0001
0010
0200
0000
0000
0000
0000
0000
1300
0000
,
0100
0000
0010
0000
0100
0000
0001
0000
1000
0000
0100
0000
0010
0000
0001
0010
,
0000
2000
0000
0000
3010
0000
0100
0000
0010
0000
0010
0000
0100
1000
0000
0010
,
0000
0100
0000
0000
0010
0001
0000
0200
0000
0000
0000
0000
0310
0000
0001
0010
,
0000
0100
0000
0000
1000
0000
0100
0000
0010
0000
0100
0000
0001
0010
0100
1000
,
0100
0010
0001
0000
0010
0000
0100
0000
0110
0000
0000
0000
0010
0000
1000
0000
,
0100
0010
0001
0001
0020
0000
0130
0001
,
0100
0000
1000
0000
0010
1000
0000
0000
0010
0000
0100
0000
0010
0000
0001
0000
,
0010
0000
0001
0000
0010
0100
0000
0220
0000
0000
0000
0000
0000
0000
0000
0000
,
0000
0000
0000
0000
0000
0000
0330
0000
1000
0001
0000
0000
0000
0000
0010
0100
,
0000
0000
0000
0000
1001
0000
0100
0000
0110
0000
0001
0000
0010
0100
0000
0010
,
0000
1000
0100
0010
0001
0001
0010
0010
,
0100
0000
0001
0000
1000
0010
0000
0100
0000
0000
0010
0000
1000
0010
0000
0100
,
0000
1000
0010
0000
0100
0000
0001
0000
1000
0000
0010
0000
0001
0000
0010
0000
,
0100
0020
0000
0130
0100
1000
0010
0100
,
1000
0000
0010
0001
0000
0000
0010
0000
0100
0000
1000
0000
0000
0001
0000
0000
,
0010
1000
0010
0000
0100
0000
0010
0000
1000
0000
0001
0000
1000
0000
0200
0000
,
0000
1300
0010
0100
1000
0010
0001
0200
,
0000
0000
0310
0000
0001
0000
0001
0000
1001
0000
0010
0000
0100
1000
0000
0010
,
0000
0100
0001
0000
0010
0000
0100
0000
0010
0000
0001
0000
1000
0000
0010
0100
,
0020
0000
0000
0000
0130
1000
0000
0100
0010
0000
1000
0000
0001
0100
0000
0010
,
0000
1000
0100
0000
0010
0000
0100
0000
1001
0000
0010
0000
0100
0000
0010
0000
,
0001
2000
0000
3100
0010
0100
0001
0100
,
0010
0000
1000
0001
0000
0000
0010
0000
0110
0000
0000
0000
0000
0000
0000
0000
;

//---------------dance-single - ----------------
#NOTES:
     dance-single:
     :
     Medium:
     6:
     0.337,0.294,0.121,0.114,0.000:
1000
0000
0100
0000
0010
0020
0000
0130
,
0001
0010
0100
1000
,
0010
0010
1000
0000
0100
0010
0001
0000
,
0010
0000
0110
0000
1000
0100
0001
0000
,
0001
0010
0010
0000
0010
0100
1000
0000
,
0010
0000
0011
0000
0010
1000
0001
0000
,
0001
0000
0010
0000
0100
0010
1000
0000
,
0100
0000
1000
0000
0010
0100
1000
0000
,
0010
0100
0010
0100
,
0001
0000
1000
0000
0010
0010
0010
0000
,
0100
0010
1000
0000
0100
0000
1000
0000
,
0010
0100
0001
0000
0010
0000
0001
0000
,
0100
0110
0010
1010
,
0100
0000
0010
0000
0100
0010
0001
0000
,
0010
0000
0001
0000
0010
0000
0100
0010
,
1000
2000
0000
3100
,
0100
0000
0010
1000
0010
0000
0100
0000
,
0001
0000
0010
0100
0010
0000
0100
0000
,
0010
0000
0001
0000
1000
0000
0010
0100
,
0001
0002
0000
0013
,
0010
0000
0100
0001
1000
0000
0010
0100
,
0001
0000
0010
0100
1000
0000
0100
0000
,
0010
0000
1000
0000
0110
0000
0000
1001
,
0000
0000
0010
0100
0002
0000
0010
0000
,
0103
0000
0010
0000
1000
0010
0100
0000
,
0020
0000
0130
1000
0001
0000
0010
0010
,
0010
0000
0100
0000
0101
0000
0010
1000
,
0010
0000
0100
0010
1000
0002
0000
0000
,
0013
0100
0010
0000
1000
0000
0101
0000
,
1000
0010
0100
0000
1000
0010
0100
0002
,
0000
0003
0010
0001
0100
0010
1000
0020
,
0000
0030
0100
1000
0010
0000
0100
0000
,
0010
0000
1000
0100
0001
0000
0001
0010
,
0100
0000
0010
1000
0020
0000
0100
0000
,
0031
0100
0010
1000
,
0010
0100
0000
0100
0010
0000
1000
0000
,
0100
0010
0001
0000
0010
0100
1000
0000
,
0010
0100
0010
0000
1000
0001
1000
0200
,
0000
0300
0010
0000
0001
1000
0001
0020
,
0000
0130
0000
0001
1000
0000
0010
0000
,
0100
0001
1000
0010
0100
0000
0110
0000
,
0010
0000
0110
0000
0001
0010
1000
0000
,
1000
0010
0001
0000
0100
0000
1100
0000
,
0010
0000
0100
0000
0010
0000
1000
0100
,
0010
0001
0010
0100
1000
0000
0110
0000
,
0010
0000
0100
0000
0010
0000
1000
0100
,
0010
0000
0001
0010
0100
0000
0010
0000
,
0100
1000
0100
0001
0020
0000
0100
0000
,
0100
0000
0100
0030
1001
0000
0000
0110
,
0000
0000
1000
0000
0100
0010
0100
0000
,
0010
0001
0010
0000
0100
0010
0001
0000
,
0101
0000
0010
1000
0200
0000
1300
0000
,
0010
0000
1000
0000
0100
0010
1000
0000
,
0100
0001
0000
1000
0010
0100
0000
0010
,
0100
0000
0110
0000
1000
0100
0001
0000
,
0001
0100
1000
0000
0010
0100
0001
0020
,
0000
0030
1000
0100
0001
0000
0010
2000
,
0000
3000
0100
0010
1001
0000
0010
0000
,
0100
0000
0010
1000
1000
0000
0100
0000
,
0020
0000
0130
0001
0020
0000
0130
0000
,
0001
0000
1000
0010
0100
0000
0001
0000
,
0010
0100
1000
0100
0010
0000
0100
0000
,
0001
1000
0110
0000
;

//---------------dance-single - ----------------
#NOTES:
     dance-single:
     :
     Easy:
     3:
     0.250,0.231,0.081,0.154,0.000: // measure 1
1000
0000
1000
0100
,  // measure 2
0001
0000
0001
0010
,  // measure 3
0100
0100
0010
0002
,  // measure 4
0013
0010
0100
0110
,  // measure 5
0001
0010
0100
2000
,  // measure 6
3100
0010
1000
1000
,  // measure 7
0100
0010
0001
0200
,  // measure 8
0310
0001
1000
0010
,  // measure 9
0200
0300
0010
0000
,  // measure 10
0100
0000
0001
0010
,  // measure 11
0100
0001
1000
0002
,  // measure 12
0013
0100
0010
1000
,  // measure 13
0200
0300
1000
0000
,  // measure 14
0100
0000
0010
0100
,  // measure 15
0010
0100
0001
1000
,  // measure 16
0010
2000
3000
0100
,  // measure 17
0100
0010
0010
0001
,  // measure 18
0001
1000
0010
1000
,  // measure 19
0010
0100
0001
1000
,  // measure 20
0100
2000
3000
0100
,  // measure 21
1000
1000
0100
0100
,  // measure 22
0010
0010
0002
0003
,  // measure 23
0100
0010
1001
0000
,  // measure 24
1001
0010
0110
0001
,  // measure 25
0010
0100
0010
1000
,  // measure 26
0100
1000
0020
0130
,  // measure 27
0010
0010
0100
0001
,  // measure 28
0010
1000
0010
0200
,  // measure 29
0300
0000
0010
0010
,  // measure 30
0100
0001
1000
0010
,  // measure 31
0200
0300
1000
0100
,  // measure 32
0010
0001
0110
0001
,  // measure 33
0010
0001
0100
0010
,  // measure 34
1000
0100
0020
0130
,  // measure 35
1000
0100
0010
1000
,  // measure 36
0100
0001
0100
2000
,  // measure 37
3000
0000
0100
0010
,  // measure 38
0100
0010
1000
1000
,  // measure 39
0100
0000
0001
0001
,  // measure 40
0010
0100
0020
0030
,  // measure 41
0100
0100
1001
0010
,  // measure 42
0100
0010
0001
0010
,  // measure 43
0100
0010
1000
0100
,  // measure 44
0001
0100
1000
0100
,  // measure 45
0010
0010
0100
0001
,  // measure 46
0010
0001
1000
0100
,  // measure 47
1000
0100
0010
0100
,  // measure 48
1000
0010
2002
0000
,  // measure 49
0000
3003
0110
0000
,  // measure 50
1001
0100
0020
0130
,  // measure 51
0100
0010
1000
0100
,  // measure 52
0001
0010
0200
0301
,  // measure 53
0010
0010
0100
0010
,  // measure 54
0001
1000
0100
0020
,  // measure 55
0030
0100
0100
0010
,  // measure 56
0001
0010
0110
0100
,  // measure 57
0010
1000
1001
0100
,  // measure 58
0010
1000
2000
3100
,  // measure 59
0010
0001
0100
0100
,  // measure 60
0010
0100
0002
0013
,  // measure 61
0100
1000
0100
0010
,  // measure 62
0100
0010
1000
0020
,  // measure 63
0030
0100
1001
0000
;
