#TITLE:Spit It Out;
#SUBTITLE:;
#ARTIST:SOLAR;
#TITLETRANSLIT:;
#SUBTITLETRANSLIT:;
#ARTISTTRANSLIT:;
#CREDIT:;
#BANNER:Spit It Out banner.png;
#BACKGROUND:Spit It Out bg.png;
#LYRICSPATH:;
#CDTITLE:;
#MUSIC:Spit It Out.mp3;
#OFFSET:-8.320;
#SAMPLESTART:33.160;
#SAMPLELENGTH:15.000;
#SELECTABLE:YES;
#BPMS:0.000=128.000;
#STOPS:48.000=1.400
,177.000=1.400
;
#BGCHANGES:;

//---------------dance-single - ----------------
#NOTES:
     dance-single:
     :
     Hard:
     7:
     0.521,0.435,0.279,0.062,0.108: // measure 1
1000
0100
0001
0100
1000
0010
0100
0001
,  // measure 2
0100
1000
0010
0100
0002
0000
0013
0100
,  // measure 3
0010
1000
0100
0001
1100
0000
0110
0000
,  // measure 4
0012
0000
0000
0003
,  // measure 5
1000
0010
0100
0001
1000
0000
0010
0100
,  // measure 6
0010
1000
0001
0100
0020
0000
0130
0000
,  // measure 7
0001
0010
0100
1000
0100
0000
1000
0000
,  // measure 8
0100
0001
0000
0000
0010
0000
0100
0000
1000
0000
0010
0000
0100
0000
1000
0000
,  // measure 9
0100
0010
0010
0100
0001
1000
0010
0001
,  // measure 10
1000
0010
0100
0001
0100
0000
0010
0100
,  // measure 11
0010
0001
1001
0000
0110
0000
1001
0000
,  // measure 12
0020
0000
0000
0030
,  // measure 13
1001
0000
0110
0000
0010
0100
1000
0100
,  // measure 14
0001
0000
0100
0000
0100
0001
0000
0000
0100
1000
0000
0000
0010
0000
0100
0000
,  // measure 15
0001
0010
1000
0001
0100
0100
0010
1000
,  // measure 16
0001
0000
0100
0000
0010
0100
0000
0000
0001
0100
0000
0000
1000
0000
1000
0000
,  // measure 17
0010
0100
1000
0001
0110
0000
0110
0000
,  // measure 18
1000
0000
0100
0000
0001
0100
0000
0000
0010
0000
1000
0000
0100
0000
0001
0000
,  // measure 19
0100
0000
0010
0000
1000
0001
0000
0000
0010
0000
0100
0000
0010
0000
0001
0000
,  // measure 20
1000
0010
0100
1000
0010
0001
0100
0010
,  // measure 21
1000
0100
0001
0000
0010
0100
0010
1000
,  // measure 22
0100
0000
0001
0000
0100
0010
0000
0000
1000
0001
0000
0000
0010
0000
0100
0000
,  // measure 23
0010
0001
0001
0010
0100
0010
1000
0100
,  // measure 24
0001
0000
0100
0000
0010
1000
0000
0000
0100
0001
0000
0000
0010
0000
0100
0000
,  // measure 25
0010
0010
0100
0000
1001
0000
1001
0000
,  // measure 26
0100
0000
0010
0000
1000
0001
0000
0000
0010
0000
0001
0000
0100
0000
0010
0000
,  // measure 27
0001
0000
0100
0000
0010
1000
0000
0000
0100
0000
0010
0000
0100
0000
0000
0000
,  // measure 28
0100
0000
1000
0100
0001
0100
1000
0010
,  // measure 29
0100
0000
0001
0000
0100
0000
0000
0000
0010
0100
0010
0100
0010
0000
0001
0000
,  // measure 30
1000
0010
0100
0001
0200
0000
0310
1000
,  // measure 31
0010
1001
1100
0101
,  // measure 32
0010
0100
0001
0010
1000
0010
0002
0000
,  // measure 33
0013
0100
0011
1100
,  // measure 34
0010
0010
0100
0001
0100
0010
1000
0000
,  // measure 35
0100
0010
0101
1010
,  // measure 36
0100
1000
0100
0001
0010
0001
0200
0000
,  // measure 37
0310
0000
0000
0000
0110
0000
0110
0000
0000
0000
1000
0100
0010
0001
0010
0100
,  // measure 38
1000
0000
0100
1000
0001
1000
0010
0000
,  // measure 39
0100
0010
0010
0100
1000
0001
1000
0000
,  // measure 40
0110
0000
1000
0100
0010
0001
0010
0000
,  // measure 41
0100
0001
1000
0001
0010
0001
0100
0001
,  // measure 42
0100
1000
0010
0100
0100
0010
0001
0100
,  // measure 43
0010
0001
0100
1000
0100
0010
0010
0000
,  // measure 44
0100
0010
0100
0001
1100
0000
1001
0000
,  // measure 45
0110
0000
1001
0000
0110
0000
1000
0100
,  // measure 46
0010
0000
0100
0000
0001
0000
0100
0000
0110
0000
0000
1000
0001
0000
0010
0000
,  // measure 47
0100
0010
1000
0100
0001
1000
0010
0100
,  // measure 48
0010
0000
0010
0000
0100
0000
0001
0000
1000
0000
0000
0010
0100
0000
0010
0000
,  // measure 49
0001
0000
0000
1000
0010
0000
0000
1000
0100
0000
0010
0000
0110
0000
0000
0000
,  // measure 50
0110
0000
0000
0000
1000
0000
0010
0000
0100
0001
0000
0000
0010
0000
0100
0000
,  // measure 51
0001
0000
0010
0000
0001
0000
1000
0000
0010
0100
0000
0000
0010
0000
0100
0000
,  // measure 52
0001
1000
0010
0100
1000
1000
0100
0010
,  // measure 53
0100
0010
0001
0100
0010
0000
0100
1000
,  // measure 54
0010
0000
0100
0000
0001
0000
1000
0000
0110
0000
0000
1000
0001
0000
0010
0000
,  // measure 55
0100
0001
1000
0010
0100
0001
0010
0001
,  // measure 56
0001
0000
0010
0000
0100
0000
0010
0000
1001
0000
0000
0100
0001
0000
0100
0000
,  // measure 57
0010
1000
0010
0000
0100
0001
1001
0000
,  // measure 58
1001
0000
0000
0000
0100
0000
1000
0000
0010
0100
0000
0000
0001
0000
0100
0000
,  // measure 59
0010
0000
1000
0000
0001
0000
0100
0000
0001
0010
0000
0000
0100
0000
0010
0000
,  // measure 60
0100
0010
1000
1000
0001
1000
0001
0010
,  // measure 61
0100
0010
1000
0010
0010
0000
0100
0010
,  // measure 62
0100
0001
1000
0010
0110
0000
2001
0000
,  // measure 63
0000
0000
0000
0000
0000
0000
0000
3000
0100
0000
0000
0000
0000
0000
0000
0000
;

//---------------dance-single - ----------------
#NOTES:
     dance-single:
     :
     Medium:
     6:
     0.358,0.339,0.209,0.023,0.000:
1000
0100
0010
0100
,
0001
0001
0010
0000
0110
0000
1000
0000
,
0100
0000
0010
0100
0010
0000
0010
0000
,
0020
0000
0000
0030
,
0100
0000
0001
1000
0001
0000
0010
0000
,
0100
0000
0010
0100
0010
0000
1000
0000
,
1000
0000
0100
0010
0100
0000
0100
0000
,
0010
0100
0001
0010
,
0100
0000
0010
0000
0100
0100
0010
0000
,
1000
0000
0001
1000
0001
0000
0010
0000
,
0001
0100
0010
1000
,
0200
0000
0000
0300
,
0010
0110
1000
0100
,
0010
0000
0110
0000
1001
0000
0010
0100
,
0010
1000
0100
0001
,
0100
0000
0011
0000
1100
0000
0010
0100
,
0010
0001
0100
0100
,
0010
1000
0010
0000
0100
0000
0001
0100
,
0001
0010
0100
0001
,
0100
0000
0010
1000
0010
0000
0100
1000
,
0100
0000
0010
0000
0100
0001
0100
0000
,
0010
0110
1001
0010
,
0100
0001
0100
0010
,
1000
0010
1000
0000
0001
0000
0100
0000
,
0010
1000
1001
1001
,
0010
0000
0110
0000
0100
0000
0001
1000
,
0001
0000
0010
0100
0010
0000
1000
0000
,
0100
0001
0100
0010
,
1000
0100
1000
0000
0010
0000
0010
0000
,
0100
0000
0001
0100
0001
0000
0010
0000
,
1000
0110
0110
0110
,
1000
0001
1000
0000
0001
1000
0001
0000
,
0100
0010
1100
1100
,
0010
0001
0010
0000
1000
0100
1000
0000
,
0010
0100
0011
0011
,
0100
0010
0100
0000
0001
1000
0001
0000
,
0010
0000
0100
0100
0010
0000
0010
0000
,
0100
0000
0001
0000
0010
0100
1000
0000
,
0100
0000
0010
0000
1000
0100
0010
0000
,
0100
0000
0001
0000
0100
0010
0100
0000
,
0010
1000
0100
0001
,
0100
0010
0100
0001
,
0010
0100
0010
0000
1000
0001
1000
0000
,
0010
0001
0010
0000
0100
0000
0010
0000
,
1000
0001
1001
0010
,
0100
0010
1001
0110
,
1000
0000
0100
0000
0010
0100
0010
0000
,
0001
0010
0001
0000
1000
0001
1000
0000
,
0100
0110
0001
0100
,
0100
0000
0010
1000
0010
0000
0001
0000
,
0100
0010
0100
0000
0001
0010
0001
0000
,
0100
0000
0010
0000
0100
0100
0100
0000
,
0010
0010
0010
0000
1000
0000
0001
0000
,
0100
0010
1001
0110
,
0001
0000
0010
0000
0100
0000
0010
0100
,
0010
0000
1000
0100
0001
0000
0001
0000
,
0100
0100
0010
1001
,
1001
0000
0100
0010
0100
0000
0010
0000
,
1000
0001
1000
0000
0010
0100
0001
0000
,
0010
1000
0100
0000
0001
0010
0001
0000
,
0100
1000
0100
0000
0010
0000
0100
0010
,
0100
0010
0001
0100
0010
0000
2001
0000
,
0000
0000
0000
3000
0100
0000
0000
0000
;

//---------------dance-single - ----------------
#NOTES:
     dance-single:
     :
     Easy:
     3:
     0.273,0.266,0.077,0.039,0.000:
0100
0100
0010
0010
,
0100
0001
0100
0010
,
1000
0100
0001
0001
,
0002
0000
0000
0003
,
0010
0100
0010
0001
,
0010
1000
0020
0030
,
0100
1000
0100
0010
,
0100
0001
0100
0100
,
0010
0100
1000
0100
,
0001
0100
0010
1000
,
0010
0010
0100
0100
,
0002
0000
0000
0003
,
0000
0000
0010
0100
,
0010
1001
1001
0010
,
0100
0001
1000
0100
,
1000
0010
0010
0100
,
0001
1000
0100
0100
,
1000
0100
0010
0100
,
0001
0100
0010
1000
,
0100
0001
0001
0010
,
0010
0100
0010
0100
,
0010
1001
1001
0010
,
0100
0001
0010
0100
,
0010
0010
0000
1000
,
0001
0100
1000
1000
,
0100
0010
0010
0001
,
0100
1000
1000
0001
,
1000
0100
0010
0100
,
0001
0010
0100
0100
,
0010
1000
0100
0010
,
0001
0010
0010
0010
,
0100
0010
1000
0010
,
0100
0000
0001
0001
,
0010
0100
0010
1000
,
0100
0001
0000
0100
,
0100
0010
1000
0010
,
0100
0010
0000
1000
,
1000
0100
0010
0100
,
0001
1000
0010
0200
,
0300
0010
0100
0010
,
0001
0010
0100
0010
,
1000
0100
0100
0010
,
0010
0100
0001
1000
,
0010
0100
0001
0100
,
1000
0000
0000
0100
,
0010
0100
0010
0110
,
1000
0100
0001
0100
,
1000
0010
0100
0100
,
0001
0010
0001
0100
,
0100
0010
0110
1000
,
0100
0001
0110
1000
,
0100
0010
0100
1000
,
0100
0001
0100
0010
,
1000
0100
0010
0110
,
0001
0010
0100
1000
,
0010
0100
0001
0000
,
0010
0100
0010
0001
,
0001
0010
0110
1000
,
0100
0001
0110
1000
,
1000
0100
0010
0100
,
0010
0100
0001
1000
,
1000
1000
0010
0200
,
0000
0000
0310
0000
;
