#TITLE:Sour Candy;
#SUBTITLE:;
#ARTIST:Lady Gaga & BLACKPINK;
#TITLETRANSLIT:;
#SUBTITLETRANSLIT:;
#ARTISTTRANSLIT:;
#CREDIT:;
#BANNER:Sour Candy banner.png;
#BACKGROUND:Sour Candy bg.png;
#LYRICSPATH:;
#CDTITLE:;
#MUSIC:Sour Candy.mp3;
#OFFSET:-8.160;
#SAMPLESTART:64.900;
#SAMPLELENGTH:15.000;
#SELECTABLE:YES;
#BPMS:0.000=120.000;
#STOPS:;
#BGCHANGES:;

//---------------dance-single - ----------------
#NOTES:
     dance-single:
     :
     Hard:
     7:
     0.473,0.474,0.314,0.137,0.161:
1000
0000
0000
0100
0000
0000
0010
0000
0000
0100
0000
0000
0001
0000
0000
0000
,
0010
0000
0000
0100
0000
0000
0001
0000
0000
0010
0000
0000
0210
0000
0010
0000
,
0301
0000
0000
0010
0000
0000
0100
0000
0000
1000
0000
0000
0010
0000
0000
0000
,
1000
0000
0000
0010
0000
0000
0100
0000
0000
0001
0000
0000
0010
0000
0100
0000
,
0001
0000
0010
0100
0010
1000
0010
0001
,
0000
0000
0010
0000
0110
0000
1000
0001
1000
0100
0010
0100
0001
0000
0001
0000
,
2010
0000
3000
0100
0010
0100
0001
0000
,
1100
0000
0000
0010
0000
0000
0110
0000
0000
0001
0000
0000
0011
0000
0000
0000
,
0110
0000
1000
0010
0010
0100
0001
1001
,
0100
0010
0100
0000
0001
0000
1000
0100
1000
0000
0010
0000
0100
0000
0001
0010
,
0200
0000
0300
1000
1000
0010
0100
0000
,
0011
0000
0000
0010
0000
0000
0110
0000
0000
0100
0000
0000
2000
0000
0000
0000
,
3100
0010
0100
0001
0010
0100
0010
1000
,
0100
0010
0100
0001
2000
0000
3010
0100
,
0110
1000
0100
0010
0001
0000
0010
0100
,
0010
0001
1000
1000
0010
0000
0110
0000
,
1000
0100
0100
0010
0100
0001
0010
1000
,
0001
0100
0010
1000
0200
0300
0001
0100
,
0000
0100
1000
0100
0000
0010
0100
0020
,
0000
0030
0100
0002
0000
0000
0013
0000
,
1000
0100
0010
0100
0010
0001
0010
0100
,
0001
0010
1000
0010
0002
0000
0013
0100
,
0010
0100
0001
0010
1000
0100
0100
0010
,
0100
0001
0010
0100
2000
0000
3010
0000
,
0110
1000
0001
0010
0001
0100
0010
0001
,
1000
0100
0010
0100
0002
0003
0010
0110
,
0000
1000
0001
1000
0000
0010
1000
0010
,
0000
0100
0200
0000
0320
0000
1030
0001
,
2000
0000
3000
0100
0010
1000
0100
0011
,
0000
0011
0000
0100
0010
1000
0001
1100
,
0000
1100
0000
0000
0010
0100
0001
1000
,
0000
0000
0100
0000
0000
0000
0010
0000
0000
0000
0001
0000
0000
0000
0100
0010
,
0100
0000
0001
0010
0100
0010
0100
1001
,
0000
1001
0000
0010
0100
0001
1000
0110
,
0000
0110
0000
0011
0000
1100
0000
0110
,
0000
2002
0000
0000
0000
3003
0010
0010
,
0100
0000
0000
0001
0000
0000
0100
0000
0000
0010
0000
0000
1001
0000
0000
0000
,
1000
0100
0010
0100
0001
0010
0010
0000
,
0100
0000
0000
0001
0000
0000
0010
0000
0000
1000
0000
0000
0010
0000
0000
0000
,
0100
0010
0010
0100
0001
1000
1001
0000
,
0010
0000
0001
0000
0100
0010
0000
0010
0100
0000
0001
0000
1001
0000
0000
0000
,
0100
0000
1000
0100
0000
0100
0010
0000
0100
0000
0001
0000
0101
0000
0000
0000
,
0010
0000
0000
1000
0000
0000
0100
0000
0000
1000
0000
0000
0110
0000
0000
0000
,
1000
0001
0100
1000
0001
0100
1000
0000
,
0010
0000
0000
0100
0000
0000
0010
0000
0000
1000
0000
0000
1001
0000
0000
0000
,
0000
0010
0100
0010
0010
0100
0110
0000
,
1001
0000
0100
1000
0000
1000
0100
0000
0010
0000
0100
0001
0100
0000
0000
0000
,
0010
0000
0100
0001
0000
0001
0010
0000
0100
0000
0010
1000
0010
0000
0000
0000
,
0100
0000
0000
0010
0000
0000
0001
0000
0010
0000
0100
0000
1000
0000
0000
0000
,
0110
0000
0000
0000
1000
0100
0000
0000
0100
0010
0000
0000
0001
0000
0020
0000
,
0000
0030
0000
0100
0010
1000
0001
0100
,
0000
0010
0000
1000
0001
0010
0001
0100
,
0000
0010
0000
0100
1000
0100
0010
0100
,
0000
0001
0000
0110
0000
1000
0001
0100
,
0010
0000
1000
0100
0010
0100
0010
0001
,
0000
1001
0000
0100
0010
0100
0001
0110
,
0000
1001
0000
0000
0000
0000
0000
0000
;

//---------------dance-single - ----------------
#NOTES:
     dance-single:
     :
     Medium:
     6:
     0.325,0.315,0.072,0.056,0.000:
1000
0010
0100
0100
,
0010
0001
0100
0200
,
0310
1000
0010
0100
,
0010
0001
0010
0100
,
0010
0000
0010
0000
0100
0001
0100
0000
,
0010
0000
1000
0000
0010
0100
1000
0000
,
0020
0000
0030
0000
0100
0001
0100
0000
,
0010
0000
1000
0010
0000
0010
0100
0000
,
1000
0000
0100
0000
0010
0001
0010
0000
,
0100
0000
0010
0000
0001
1000
0001
0000
,
0200
0000
0300
0000
0010
0100
0010
0000
,
1000
0000
0001
0100
0000
0100
1000
0000
,
0010
0000
0100
1000
0100
0000
0010
0100
,
0010
0000
1000
0001
1000
0000
0010
0000
,
0001
0000
0100
0010
0001
0000
0010
0000
,
0100
0000
0010
1000
0100
0000
0010
0000
,
0100
0000
1000
0000
0010
0010
0100
0000
,
1000
0000
0100
0000
0010
0000
0100
0010
,
0000
0000
1000
0001
0000
0000
0100
0010
,
0000
0000
1000
0001
0000
0000
0110
0000
,
0010
0001
0010
0000
0100
0010
0100
0000
,
0010
1000
0010
1000
0010
0000
0100
0000
,
0010
0100
0010
0000
1000
0001
0001
0000
,
0010
0000
0100
0010
0001
0000
0100
0000
,
0010
0000
1000
0000
0100
0000
0010
0100
,
0100
0000
0010
0000
0100
0000
0001
1000
,
0000
0000
0010
0100
0000
0000
0001
1000
,
0000
0000
0010
0100
0010
0000
1001
0000
,
0010
0000
0100
0000
0001
0000
1000
0010
,
0000
0100
0000
0001
0010
0000
0100
0010
,
0000
2000
0000
3000
0010
0000
0100
1000
,
0000
0010
0000
0100
0000
0001
0000
1000
,
1001
0000
0100
0000
0010
0000
0100
1000
,
0000
0010
0000
0100
0001
0000
0010
1000
,
0000
0001
0000
1000
0000
0001
0000
0100
,
0000
0020
0000
0000
0000
0000
0130
0000
,
1001
0000
0000
0000
,
0010
0000
0100
0000
0010
0001
0010
0000
,
0100
0000
0010
0000
1000
0010
0100
0000
,
1000
0000
0001
0100
0010
0100
0010
0000
,
1000
0000
0100
0010
0001
0000
0110
0000
,
1000
0000
0010
0100
1000
0000
0110
0000
,
0010
0000
0001
0100
0000
0010
1000
0000
,
0010
0000
0100
0001
0000
0010
0100
0000
,
0010
0000
1000
0001
1000
0000
0110
0000
,
0000
1000
0001
1000
0001
0010
0010
0000
,
0100
1000
0000
0100
0010
0100
0001
0000
,
0010
0001
0000
0001
0010
0100
0010
0000
,
0100
0000
0010
1000
0010
0000
0101
0000
,
0010
0000
2000
0000
3002
0000
1003
0100
,
0010
0000
0100
0000
0010
0000
0001
0100
,
0000
0010
0100
0000
0010
0000
1000
0010
,
0000
0010
0000
0000
0100
0001
0100
0001
,
0000
0010
0000
0100
0000
1000
0000
0010
,
0100
0000
0010
0000
0001
0000
0100
0010
,
0000
0010
0000
0100
0001
0000
1000
0010
,
0110
0000
0000
0000
;

//---------------dance-single - ----------------
#NOTES:
     dance-single:
     :
     Easy:
     2:
     0.246,0.225,0.048,0.032,0.000: // measure 1
0010
0010
0100
0100
,  // measure 2
0001
0010
0100
2000
,  // measure 3
3100
0100
0010
0010
,  // measure 4
0100
0010
0001
0010
,  // measure 5
0100
0000
0100
0010
,  // measure 6
0100
0010
0001
0001
,  // measure 7
0020
0030
0100
0010
,  // measure 8
0100
1000
0100
0010
,  // measure 9
0100
1000
0100
0100
,  // measure 10
0010
0001
0100
0010
,  // measure 11
2000
3000
0010
0001
,  // measure 12
0100
0100
0010
0010
,  // measure 13
0100
0001
0010
0100
,  // measure 14
0010
1000
0100
0000
,  // measure 15
0010
0100
0010
0000
,  // measure 16
0010
0100
1000
0000
,  // measure 17
0100
1000
0010
0100
,  // measure 18
0001
0100
0010
0001
,  // measure 19
0001
0000
0010
0100
,  // measure 20
0010
0000
0100
1000
,  // measure 21
0100
0100
0010
0010
,  // measure 22
1000
0100
0010
0000
,  // measure 23
0100
0010
0001
0010
,  // measure 24
0100
0010
0001
0000
,  // measure 25
0010
0100
0010
0010
,  // measure 26
0100
1000
0100
0010
,  // measure 27
0100
0000
0100
0010
,  // measure 28
0010
0001
0100
0001
,  // measure 29
1001
0000
0100
0010
,  // measure 30
0100
0100
0010
0001
,  // measure 31
0010
0010
0100
0010
,  // measure 32
1000
0100
0010
0100
,  // measure 33
0001
0000
0010
0010
,  // measure 34
0100
0010
0100
0001
,  // measure 35
1000
1000
0100
0100
,  // measure 36
0010
0020
0000
0130
,  // measure 37
1001
0000
0000
0110
,  // measure 38
1000
0100
0010
0100
,  // measure 39
0010
0001
0100
0010
,  // measure 40
0000
0100
0100
0010
,  // measure 41
0100
0010
0001
0010
,  // measure 42
1000
0010
0100
0001
,  // measure 43
0010
0010
0100
0100
,  // measure 44
0001
0010
0100
1000
,  // measure 45
0010
0100
1000
1000
,  // measure 46
0000
0100
0010
0110
,  // measure 47
0010
0001
0100
0010
,  // measure 48
1000
0001
0100
0100
,  // measure 49
0010
0100
0010
0001
,  // measure 50
0000
0010
0100
0010
,  // measure 51
0110
0000
1000
0100
,  // measure 52
0010
0010
0100
0010
,  // measure 53
0001
0001
0100
0010
,  // measure 54
1000
0010
0100
0010
,  // measure 55
0001
0000
0100
1000
,  // measure 56
0010
0010
0100
1000
,  // measure 57
0110
0000
0000
0000
;
