#TITLE:Say So;
#SUBTITLE:;
#ARTIST:Doja Cat;
#TITLETRANSLIT:;
#SUBTITLETRANSLIT:;
#ARTISTTRANSLIT:;
#CREDIT:;
#BANNER:Say So banner.png;
#BACKGROUND:Say So bg.png;
#LYRICSPATH:;
#CDTITLE:;
#MUSIC:Say So.mp3;
#OFFSET:-8.860;
#SAMPLESTART:95.320;
#SAMPLELENGTH:15.000;
#SELECTABLE:YES;
#BPMS:0.000=111.000;
#STOPS:;
#BGCHANGES:0.000=Say So.avi=1.000=1=0=0,
99999=-nosongbg-=1.000=0=0=0 // don't automatically add -songbackground-
;

//---------------dance-single - ----------------
#NOTES:
     dance-single:
     :
     Hard:
     7:
     0.400,0.362,0.130,0.227,0.031: // measure 1
1000
0001
1000
0000
0010
0100
1000
0000
,  // measure 2
0010
0001
0001
0000
0100
0010
0100
0000
,  // measure 3
0001
0000
0010
0000
1000
0000
0100
0010
,  // measure 4
0100
0001
0100
0000
0120
0000
0030
0000
,  // measure 5
1000
0100
0010
0000
0100
0010
0001
0000
,  // measure 6
0100
1000
1000
0000
0010
0000
0100
0001
,  // measure 7
1000
0000
0010
0000
0100
0000
0001
1000
,  // measure 8
0001
0100
0010
0000
0210
0000
0300
0000
,  // measure 9
0001
0010
0100
1000
0010
0000
0100
0010
,  // measure 10
0010
1000
0100
0001
0100
0000
0010
1000
,  // measure 11
1000
0100
0001
0100
0010
0000
0010
0100
,  // measure 12
0010
0001
1000
0000
1002
0000
1003
0000
,  // measure 13
0010
0100
1000
0010
0001
0000
0001
0100
,  // measure 14
0100
0010
1000
0001
1000
0000
1000
0010
,  // measure 15
0100
0001
0100
0010
0100
0000
0001
1000
,  // measure 16
1000
0010
0100
0000
1002
0000
0003
0000
,  // measure 17
0010
0000
0100
0010
0010
0000
1000
0000
,  // measure 18
0002
0023
0230
1300
,  // measure 19
0010
0000
1000
0100
0010
0000
0001
0000
,  // measure 20
0100
0010
0001
0000
0020
0000
0130
0000
,  // measure 21
1000
0001
1000
0000
0010
0000
0100
0000
,  // measure 22
2000
3200
0320
0031
,  // measure 23
0100
0100
0010
0010
0001
0000
1000
0000
,  // measure 24
0001
0001
0010
0010
0100
0000
1000
0000
,  // measure 25
0020
0230
0302
2003
,  // measure 26
3010
0000
0100
0001
0100
0010
1000
0000
,  // measure 27
0200
2300
3200
0310
,  // measure 28
1000
0100
0010
0000
0011
0000
1001
0000
,  // measure 29
0020
0032
0203
0310
,  // measure 30
0100
0010
0100
0000
0001
0010
0100
2000
,  // measure 31
0000
0000
0000
3000
0100
0000
1000
0000
,  // measure 32
0100
0001
0100
0010
2000
0000
3010
0000
,  // measure 33
0100
0000
0010
0000
0001
0000
0010
0000
0100
0000
0000
0001
0000
0000
0100
0000
,  // measure 34
0010
0000
1000
0000
0100
0000
0010
0000
0100
0000
0000
1000
0000
0000
0010
0000
,  // measure 35
0010
0000
0100
0000
0001
0000
1000
0000
0010
0000
0000
0001
0000
0000
0010
0000
,  // measure 36
0100
0010
1000
0000
2002
0000
3003
0000
,  // measure 37
0100
0000
0010
0000
1000
0000
0100
0000
0001
0000
0000
1000
0000
0000
0001
0000
,  // measure 38
0001
0000
0100
0000
0010
0000
1000
0000
0100
0000
0000
1000
0000
0000
0010
0000
,  // measure 39
1000
0000
0010
0000
0100
0000
0010
0000
0001
0000
0000
0100
0000
0000
0010
0000
,  // measure 40
0100
0001
1000
0000
2002
0000
3003
0000
,  // measure 41
1000
0100
0010
1000
0100
0010
0001
0000
,  // measure 42
0100
0001
0010
1000
0010
0100
0001
0000
,  // measure 43
1000
0010
0100
0001
0100
0010
1000
0000
,  // measure 44
0010
0100
0010
0000
0100
0100
1001
0000
,  // measure 45
0010
0000
1000
0000
0001
0000
0100
0000
0001
0000
0000
0010
0000
0000
0100
0000
,  // measure 46
0010
0000
0010
0000
1000
0000
0100
0000
0001
0000
0000
1000
0000
0000
0010
0000
,  // measure 47
0110
0000
0100
0000
1000
0000
0001
0000
1000
0000
0000
0010
0000
0000
0100
0000
,  // measure 48
1000
0001
0100
0001
1200
0000
0310
0000
,  // measure 49
1000
0100
0001
0010
0100
0010
1000
0010
,  // measure 50
0100
0001
0100
0010
1000
0100
0001
0100
,  // measure 51
0200
0000
0310
0001
0010
0000
1000
0100
,  // measure 52
0100
0010
0010
0001
2000
0000
3100
0000
,  // measure 53
0010
0001
0100
0010
1000
0100
0001
0010
,  // measure 54
0100
1000
0010
0100
0001
1000
0010
0001
,  // measure 55
0002
0000
0013
0100
0010
0000
1000
0001
,  // measure 56
0001
1000
1000
0001
2000
0000
3010
0000
,  // measure 57
1000
1100
0010
0110
,  // measure 58
1000
1001
0001
0011
,  // measure 59
0100
0011
0100
0110
,  // measure 60
0010
1010
0100
0002
,  // measure 61
0010
0103
0010
1000
,  // measure 62
0010
0100
0001
1000
,  // measure 63
0110
0000
0000
0000
;

//---------------dance-single - ----------------
#NOTES:
     dance-single:
     :
     Challenge:
     8:
     0.482,0.447,0.137,0.199,0.192:
1000
0000
0100
0000
0001
0000
0100
0000
0010
0000
0000
1000
0000
0000
0010
0000
,
0010
0000
0100
0000
0001
0000
1000
0000
0010
0000
0000
0100
0000
0000
0001
0000
,
0010
0000
0001
0000
0100
0000
0010
0000
1000
0000
0000
0001
0000
0000
1000
0000
,
0010
0100
0001
0000
1001
1000
1000
0000
,
0010
0000
0100
0000
0001
0000
0100
0000
0010
0000
0000
1000
0000
0000
0010
0000
,
0110
0000
1000
0000
0001
0000
0100
0000
0010
0000
0000
0001
0000
0000
0010
0000
,
1000
0000
0100
0000
1000
0000
0010
0000
0001
0000
0000
0100
0000
0000
0010
0000
,
0010
0100
0001
0000
1000
0000
0100
0010
,
0010
0000
0100
0000
0001
0000
0010
0000
1000
0000
0010
0100
0000
0000
0001
0000
,
0010
0000
0100
0000
0010
0000
0001
0000
1000
0000
0100
0010
0000
0000
1000
0000
,
1000
0000
0001
0000
0010
0000
0100
0000
0001
0000
1000
0010
0000
0000
0100
0000
,
0001
0010
1000
0000
0110
0010
0010
0000
,
0100
0000
0001
0000
1000
0000
0010
0000
0001
0000
0010
0100
0000
0000
0010
0000
,
0110
0000
0001
0000
1000
0000
0100
0000
1000
0000
1000
0001
0000
0000
0010
0000
,
0110
0000
1000
0000
0100
0000
0010
0000
1000
0000
0001
0100
0000
0000
0010
0000
,
0100
0001
0010
0000
2002
0000
3003
0010
,
0100
0001
0100
0000
0010
0000
1000
0000
0200
0000
0000
0000
0310
0000
0000
0000
,
2000
3200
0320
0031
,
0100
0010
0001
0010
0100
0000
0010
0000
2000
0000
0000
0000
3100
0000
0000
0000
,
0010
0100
0010
0001
0010
0000
0100
0000
0020
0000
0000
0000
0031
0000
0000
0000
,
0010
0100
1000
0000
0100
0000
1000
0000
0002
0000
0000
0000
0013
0000
0000
0000
,
0200
0000
0000
0000
0320
0000
0000
0000
2030
0000
0000
0000
3001
0000
0000
1000
,
0100
0010
0001
0010
0100
0000
0010
0000
1000
0000
0000
0001
0000
1000
0010
0100
,
0010
1000
0001
1000
0010
0000
0100
0000
0001
0000
0000
1000
0000
0000
0010
0000
,
2000
0100
0000
0000
3200
0010
0000
0000
0320
0001
0000
0000
0031
0000
0000
0000
,
0100
0010
0001
1000
0010
0100
0010
0000
,
0001
0010
0000
0000
0010
0100
0000
0000
0010
0000
1000
0000
1010
0000
0000
0000
,
0100
0010
0000
0000
1000
0010
0000
0000
0100
0000
0101
0000
0101
0000
0000
0000
,
0002
0010
0000
0000
0023
0100
0000
0000
0230
1000
0000
0000
1300
0000
0000
0000
,
1000
0100
0010
0001
1000
0100
0010
0002
,
0000
0000
0003
0000
0110
0000
0000
0000
0010
0000
0000
0000
1000
0000
0000
0001
,
0010
0100
0010
1000
0002
0000
0013
0000
,
1001
0000
0100
0000
0001
0000
0010
0000
1000
0000
0001
0010
0001
0000
0100
0000
,
0100
0000
0010
0000
1000
0000
0100
0000
0010
0000
1000
0100
1000
0000
0001
0000
,
0100
0000
0010
0000
0001
0000
0100
0000
0010
0000
1000
0001
1000
0000
0010
0000
,
0100
0010
0001
0000
2001
0000
3010
0000
,
1000
0000
0100
0000
0001
0000
1000
0000
0100
0000
0001
0010
0001
0000
0100
0000
,
1001
0000
0010
0000
0001
0000
0100
0000
0010
0000
1000
0001
1000
0000
0010
0000
,
0010
0000
0100
0000
1000
0000
0010
0000
0001
0000
1000
0100
1000
0000
0001
0000
,
0010
0100
1000
0000
1002
0010
0013
0000
,
0110
0000
1000
0000
0100
0000
0001
0010
0001
0000
0100
0010
0000
0000
1000
0000
,
0100
0000
0010
0000
0100
0000
0001
1000
0001
0000
0100
0010
0000
0000
0100
0000
,
0101
0000
0010
0000
1000
0000
0100
1000
0100
0000
0010
1000
0000
0000
0100
0000
,
0100
0010
1000
0000
0011
0100
0100
0000
,
0010
0000
1000
0000
0100
0000
0001
1000
0001
0000
0010
0001
0000
0000
0100
0000
,
0110
0000
1000
0000
0100
0000
1000
0010
0001
0000
0010
0100
0000
0000
0010
0000
,
0110
0000
0001
0000
1000
0000
0010
0001
0010
0000
0100
0010
0000
0000
0100
0000
,
0001
1000
0020
0000
0230
0000
0301
0000
,
1000
0010
0100
0001
0010
0001
1000
0100
,
1000
0010
0100
0010
1000
0001
0100
0010
,
0020
0000
0130
0001
0100
0000
1000
0010
,
0010
0100
0001
0010
2000
0000
3010
0000
,
0100
0001
0010
0100
0010
1000
0100
1000
,
0100
0010
0100
0001
0100
0010
0100
1000
,
2000
0000
3100
0010
0100
0000
0001
1000
,
1000
0100
0010
0100
0002
0000
0013
0000
,
0100
0000
0010
0000
0100
0000
0001
0010
,
0010
0000
0100
0000
0010
0000
1000
0010
,
0100
0000
0001
0000
1000
0000
0010
0100
,
0100
0000
1000
0000
0010
0100
0002
0000
,
0103
0000
0010
0000
1000
0010
0001
0000
,
0010
0000
0100
0000
0001
0000
1000
0010
,
0110
0000
0000
0000
;

//---------------dance-single - ----------------
#NOTES:
     dance-single:
     :
     Medium:
     5:
     0.321,0.298,0.062,0.206,0.000:
1000
0100
0001
0100
,
0010
0000
0100
0000
0001
0000
0010
1000
,
1000
0000
0100
0000
0010
0000
1000
0100
,
0100
0000
0010
0000
2000
0000
0000
3000
,
0100
0001
0010
0001
,
1000
0000
0010
0000
1000
0000
0001
0010
,
0010
0000
0100
0000
0010
0000
1000
0010
,
0010
0000
0001
0000
0200
0000
0000
0300
,
0110
0010
0100
1000
,
0100
0000
0001
0000
0100
0000
0010
0100
,
1000
0000
0100
0000
0001
0000
0010
1000
,
0010
0000
0100
0000
0002
0000
0010
0003
,
0110
1000
0100
0001
,
0010
0000
1000
0000
0100
0000
0001
1000
,
0001
0000
0010
0000
0100
0000
0001
0010
,
0100
0000
0010
0000
2000
0000
0100
3000
,
0010
0000
0100
0010
0010
0000
0100
0000
,
0002
0023
0230
1300
,
0010
0000
0100
1000
1000
0000
0100
0000
,
0010
0000
1000
0001
0002
0000
0013
0000
,
0100
0000
0010
0100
0010
0000
0100
0000
,
2000
3200
0320
0031
,
0100
0000
0010
0001
0010
0000
0100
0000
,
0010
0000
1000
0100
1000
0000
0010
0000
,
2000
3002
0203
0320
,
1030
0000
0001
0000
0100
0000
0010
0100
,
0200
0302
0023
0230
,
1300
0010
0100
0001
,
2000
3020
0032
0203
,
0310
0000
1000
0000
0001
0000
1000
0020
,
0000
0000
0130
0001
,
0100
0000
0010
1000
0020
0000
0031
0000
,
0100
0000
0010
0001
0010
0000
0100
0000
,
0010
0000
1000
0100
1000
0000
0010
0000
,
0100
0000
1000
0001
1000
0000
0010
0000
,
0100
1000
0100
0000
0020
0000
0130
0000
,
0001
0000
0100
0010
0100
0000
0001
0000
,
1000
0000
0001
0010
0001
0000
0100
0000
,
0010
0000
1000
0001
1000
0000
0010
0000
,
0100
0010
0001
0000
0020
0000
0130
0000
,
1000
0100
0010
0000
0100
0000
0001
0000
,
0010
0000
0100
0000
0010
0000
0001
0010
,
0100
0000
0001
0010
1000
0000
0010
0000
,
0100
0010
0100
0000
0002
0000
1003
0000
,
0010
0100
0010
0000
1000
0000
0100
0000
,
0001
0000
0100
0000
0010
0000
1000
0100
,
0010
0000
0001
0100
1000
0000
0010
0000
,
0100
0010
0100
0000
2000
0000
3100
0000
,
0011
0010
0110
0100
,
1000
0100
0000
0100
0010
0000
0001
0010
,
0010
0000
0100
0000
0010
0000
1000
0001
,
0001
0001
0001
0001
0001
0000
0110
0000
,
1100
0100
0110
0001
,
0010
0100
0000
0100
0010
0000
0001
1000
,
1000
0000
0010
0000
0100
0000
0001
1000
,
1000
1000
1000
1000
1000
0000
0110
0000
,
1000
0100
0001
0010
,
0100
0010
0001
0010
,
1000
0010
0100
1000
,
0010
1000
0100
0002
,
0013
0100
0010
1000
,
0100
0001
0010
1000
,
0110
0000
0000
0000
;

//---------------dance-single - ----------------
#NOTES:
     dance-single:
     :
     Easy:
     2:
     0.226,0.234,0.007,0.130,0.000:
0010
0010
0010
0000
,
0100
0100
0100
0000
,
0001
0001
0001
0000
,
1000
1000
1000
0000
,
0100
0010
0001
0000
,
0001
0010
0100
0000
,
0010
0100
1000
0000
,
0100
1000
0010
0000
,
0100
0100
0100
0001
,
0010
0010
0010
0001
,
1000
1000
1000
0010
,
0001
0001
0200
0310
,
1000
0010
0100
0001
,
0010
1000
0100
0001
,
0100
0010
1000
0100
,
0010
0001
0020
0030
,
0100
0100
0010
0001
,
2000
3200
0320
0000
,
0130
1000
0100
0000
,
0001
0010
0001
0001
,
0010
0100
0010
1000
,
0002
0023
0230
0000
,
0310
0100
1000
1000
,
0010
0100
0001
0001
,
0010
1000
0001
0100
,
0010
1000
0100
0001
,
0010
0100
0010
0010
,
0100
1000
0001
0001
,
1000
0010
0100
0100
,
1000
0010
0100
0001
,
0020
0000
0000
0030
,
0100
0100
0020
0030
,
1000
0100
0010
0001
,
1000
0100
0010
0001
,
0010
0010
0100
0100
,
0001
1000
0002
0003
,
0001
0010
0100
1000
,
0001
0010
0100
1000
,
0100
0100
0010
0010
,
1000
0001
2000
3000
,
0100
0010
0001
1000
,
0100
0010
0100
0010
,
1000
0001
0010
0100
,
0001
0010
2000
3010
,
0100
0001
0010
0001
,
0100
0010
1000
0010
,
0100
0001
0010
0100
,
1000
0010
0200
0300
,
0010
0010
0010
0000
,
0100
0100
0001
0010
,
2000
3000
0010
0000
,
0100
0100
0200
0300
,
0010
0100
0001
0000
,
0010
1000
0100
0000
,
0002
0003
1000
0000
,
0010
0010
0020
0030
,
0100
0000
0001
0000
,
1000
0000
0010
0000
,
0100
0000
0001
0000
,
1000
0000
0001
0020
,
0130
0000
0010
0000
,
1000
0000
0001
0000
,
0110
0000
0000
0000
;
