#TITLE:SAY MY NAME;
#SUBTITLE:;
#ARTIST:HYOLYN;
#TITLETRANSLIT:;
#SUBTITLETRANSLIT:;
#ARTISTTRANSLIT:;
#CREDIT:;
#BANNER:SAY MY NAME banner.png;
#BACKGROUND:SAY MY NAME bg.png;
#LYRICSPATH:;
#CDTITLE:;
#MUSIC:SAY MY NAME.mp3;
#OFFSET:-7.020;
#SAMPLESTART:45.880;
#SAMPLELENGTH:15.000;
#SELECTABLE:YES;
#BPMS:0.000=145.000;
#STOPS:;
#BGCHANGES:;

//---------------dance-single - ----------------
#NOTES:
     dance-single:
     :
     Hard:
     8:
     0.574,0.589,0.343,0.175,0.084:
0000
0000
1000
0100
0010
0001
0010
0100
,
1000
0010
0100
0001
0010
0100
0010
2000
,
0000
0000
3001
0010
0100
1000
0100
0010
,
0001
0100
0010
1000
0010
0100
0110
0000
,
0010
0000
0001
0100
0010
1000
0100
0010
,
0100
0010
1000
0100
0001
0010
0010
0100
,
0000
0000
0010
1000
0010
0100
0001
0010
,
1000
0100
0001
0100
1000
0000
0010
0000
,
0100
0000
0001
1000
0010
0100
0001
0010
,
0200
0000
0310
0001
0020
0000
1030
0000
,
0110
0000
0100
1000
0100
0010
0001
0100
,
0020
0000
1030
0100
2000
0000
3100
0000
,
0002
0000
0013
0100
0010
0001
1000
0010
,
0200
0000
0301
0010
0002
0000
0013
0000
,
1000
0100
0000
0000
0010
0100
0000
0000
0001
0010
0000
0000
1000
0000
0010
0000
,
0110
0000
1000
0000
0100
0010
0001
0010
,
0101
0000
0000
0010
0000
0000
0100
0000
0110
0000
0000
1000
0000
0000
0110
0000
,
1000
0100
0000
0000
0001
0010
0000
0000
0100
0000
0010
0000
1000
0000
0100
0000
,
0011
0000
0000
0100
0000
0000
1000
0000
0110
0000
0000
1000
0000
0000
0100
0000
,
0001
0010
0000
0000
0001
0010
0000
0000
0100
0000
0010
0001
0010
0000
0100
0000
,
0010
0000
0000
1000
0000
0000
0001
0000
0100
0000
0000
0010
0000
0000
1000
0000
,
0010
0000
0010
0000
0100
0010
0001
0010
,
0000
0010
0100
1000
0000
1000
0100
0010
,
0000
0000
0000
0000
1000
0110
0010
0101
,
0110
1001
0010
0000
0100
0001
1000
0010
,
0200
0000
0310
0000
0001
0110
0100
1010
,
0110
1001
0010
0000
0100
0001
1000
0010
,
0002
0000
0103
0000
0010
0100
0001
0010
,
1000
0010
0000
0000
0100
0010
1000
0001
,
0200
0000
1300
0000
0100
0010
0001
0010
,
0100
0000
0010
0001
1000
0000
0010
0000
,
0110
0000
0010
0000
0100
0001
1000
0010
,
0100
0001
0001
0010
0100
1000
0100
0010
,
0001
0010
0100
1000
0110
0000
1000
1000
,
0100
0010
0001
0010
0100
1000
0100
0010
,
0001
0010
0100
1000
0110
0000
0001
0100
,
0010
0100
0010
1000
0001
1000
0001
0010
,
0100
0010
0100
0000
0001
0010
0100
1000
,
0010
0100
0000
0000
0001
0000
0010
0000
0100
1000
0000
0000
0010
1000
0000
0000
,
0010
0000
0000
0000
0100
0000
0000
0000
0001
0000
0010
0100
1000
0000
0000
0000
,
1001
0000
0000
0000
2000
0000
0100
0100
,
3010
0000
0000
0000
0100
0010
1000
0001
,
0100
0000
0010
0001
0110
0000
1100
0000
,
0110
0000
0000
0000
1000
1000
0001
0010
,
0100
0000
0000
0000
0001
0010
0100
0010
,
0200
0000
0000
0300
0010
0100
0001
1000
,
0110
0000
0000
0000
1000
0010
0001
0010
,
1000
0000
1000
0000
0100
0010
0001
0100
,
0010
0001
0000
0000
0001
0010
0100
1000
,
0010
0000
0010
0000
0100
0010
1000
0100
,
0001
0100
0000
0000
0010
0100
0010
0001
,
1000
0000
0010
0000
0100
0010
1000
0010
,
0001
0100
0000
0000
0010
1000
0100
0001
,
0100
0000
0000
0000
0010
1000
0010
0001
,
0110
0000
0100
0010
0110
0000
1000
0000
,
0101
0000
1010
0000
0100
1010
0100
0011
,
0110
1001
0010
0001
0100
0010
1000
0100
,
0002
0000
0013
0000
0100
1001
0100
0110
,
1001
0010
0001
0100
0010
0001
0010
0100
,
0002
0000
0013
0000
0100
0010
0001
0010
,
1000
1000
0100
0100
0010
1000
0100
0010
,
0200
0000
0310
0000
0100
0010
0001
1000
,
0110
0000
0001
0010
0001
0100
0010
1000
,
0020
0000
0000
0000
0130
0000
0000
0000
0010
1000
0000
1000
0010
0000
0100
0000
,
0101
0010
0100
1000
0100
0010
0001
0010
,
0100
0000
0000
0000
0110
0000
0000
0000
1000
0001
0000
0000
0110
0000
0110
0000
,
0001
0010
0100
1000
0010
0001
0100
1000
,
0010
0000
0000
0000
1001
0000
0000
0000
0010
0100
0000
0000
1001
0000
1001
0000
,
0010
0100
0001
0010
0001
1000
0010
0100
,
0010
0000
1001
0000
0010
0001
0100
0010
,
2000
0000
3100
0010
0200
0000
0302
0000
,
0023
0000
0130
0000
0001
1000
0010
0100
,
2002
0000
0000
0000
,
0000
0000
3003
0000
;

//---------------dance-single - ----------------
#NOTES:
     dance-single:
     :
     Medium:
     6:
     0.423,0.449,0.183,0.229,0.000:
0000
2000
3002
2003
,
3100
0001
0100
0000
0010
0000
1010
0000
,
0000
0002
2003
3002
,
0013
1000
0010
0000
0100
0000
0101
0000
,
0000
0020
0230
0320
,
1030
0001
1000
0000
0010
0000
1000
0000
,
1000
0200
0320
0230
,
0310
0001
0010
0000
1000
0000
1001
0000
,
0000
0000
0010
0000
0001
0000
0010
0100
,
1000
0000
0010
0100
1000
0000
0101
0000
,
0010
0000
0100
0000
0010
0000
1000
0100
,
0010
0000
1000
0100
0010
0000
0001
0000
,
0200
0000
0310
0000
0001
0000
1000
0010
,
0100
0000
0001
0100
0010
0000
0010
0000
,
0110
0000
0101
0000
1100
0000
0010
0200
,
0010
0000
0302
0000
0000
0003
0010
0000
,
0110
1000
0110
0001
,
0010
0010
0001
0010
,
0110
1000
0110
0100
,
1000
1000
0100
0010
,
0001
0000
0010
0100
1000
0000
0001
0010
,
0100
0000
0100
0000
0010
0000
0001
1000
,
0000
1000
0001
1000
0000
0010
0100
0020
,
0000
0000
0000
0030
1000
0001
1000
0001
,
0110
0100
0000
0000
0002
0000
0023
0000
,
0230
0000
1300
0000
0010
0100
0001
1000
,
0110
0010
0000
0000
2000
0000
3200
0000
,
0320
0000
0031
0000
0100
0010
0001
0010
,
0100
0000
0100
0010
0001
0000
0010
0000
,
0100
0000
1000
0000
0010
0100
0001
0010
,
0001
0000
0010
0100
0010
0000
1000
0000
,
0100
0000
0100
0000
1000
0100
0010
0001
,
0010
0000
0100
0001
0200
0000
0310
0010
,
0010
0000
0110
0000
0100
0000
0001
0010
,
0100
0000
0010
0100
1000
0000
0010
0100
,
0010
0000
0010
0000
1001
0000
0010
0100
,
0000
0000
0100
0000
0011
0000
0010
1000
,
0010
0000
0100
0000
0010
1000
0010
0000
,
0100
0000
0001
0010
0100
0000
1000
0000
,
0020
0100
0000
0130
,
0010
0000
1000
0001
,
1000
0000
0100
0010
,
0001
0010
0100
0010
,
1000
0000
0100
0100
,
0110
0000
0010
0001
,
0010
0000
0100
0010
,
0001
0000
0010
1000
,
0010
0010
0100
0010
,
0110
0000
1000
0100
,
0002
0000
0003
0000
0010
0000
0100
0001
,
0100
0000
0001
0010
,
2000
0000
3000
0000
0100
0000
0010
0100
,
0010
0000
0100
0010
,
0200
0000
0300
0000
0010
0001
0010
0000
,
0100
0000
0010
1000
0010
0000
0100
0000
,
0110
0000
0000
0000
0001
0010
0100
1000
,
0110
0000
0010
0100
0010
0000
0100
0000
,
1000
0000
1100
0000
0010
0001
0010
0000
,
0100
0100
0001
0000
0010
0000
0100
0000
,
0100
0001
0101
0000
0010
0100
0010
0000
,
0100
0000
0010
0001
0100
0000
0010
0000
,
1000
0000
1010
0000
0100
0010
0100
0001
,
0100
0000
0010
1000
0010
0000
0100
0000
,
0010
0000
0010
0000
0100
0100
1000
0000
,
0100
0000
0001
1000
0010
0000
0010
1000
,
0001
0000
0020
0000
0130
0000
0010
0010
,
0100
0000
0001
1000
0001
0000
0100
1000
,
0200
0000
0310
0000
0100
0000
0001
0010
,
0010
0000
0100
0010
0001
0000
1000
0010
,
0100
0000
1001
0000
0010
0100
0010
0100
,
1000
0000
0100
0010
0001
0000
0010
0000
,
0100
0010
0010
0000
1000
0100
0010
0001
,
0020
0000
0000
0000
,
0000
0000
0030
0000
;

//---------------dance-single - ----------------
#NOTES:
     dance-single:
     :
     Easy:
     3:
     0.299,0.308,0.084,0.099,0.000: // measure 1
0000
0010
0010
0010
,  // measure 2
1000
0100
0001
0100
,  // measure 3
0000
0001
0001
0001
,  // measure 4
0010
0100
0010
1000
,  // measure 5
0000
0100
0100
0100
,  // measure 6
0010
1000
0100
0001
,  // measure 7
0000
1000
1000
1000
,  // measure 8
0100
0010
0001
0020
,  // measure 9
0000
0130
0001
0100
,  // measure 10
0100
0010
0001
1000
,  // measure 11
0000
0100
1000
0100
,  // measure 12
0010
0001
0001
0010
,  // measure 13
0200
0310
1000
0100
,  // measure 14
0001
0100
0100
0010
,  // measure 15
1000
1000
1000
0100
,  // measure 16
0010
0002
0003
0010
,  // measure 17
0100
0000
0010
0000
,  // measure 18
0100
0001
0010
1000
,  // measure 19
0001
0000
0010
0000
,  // measure 20
0100
0100
0010
1000
,  // measure 21
0010
0000
0100
0000
,  // measure 22
1000
1000
0100
0001
,  // measure 23
0000
0010
0000
0200
,  // measure 24
0000
0300
1000
0100
,  // measure 25
0110
0000
0001
0010
,  // measure 26
2000
0000
3001
0010
,  // measure 27
0110
0000
1000
0100
,  // measure 28
0002
0000
0013
0100
,  // measure 29
0010
0010
0001
0010
,  // measure 30
0200
0300
0010
0010
,  // measure 31
0100
0001
1000
0010
,  // measure 32
0110
0000
1000
0100
,  // measure 33
0001
0001
0010
0100
,  // measure 34
0001
0001
1000
0010
,  // measure 35
1000
0100
0010
1000
,  // measure 36
1000
0010
1000
0010
,  // measure 37
0100
0010
0001
0100
,  // measure 38
0100
0010
0100
0001
,  // measure 39
1000
0010
0100
0010
,  // measure 40
1001
0000
0100
0010
,  // measure 41
0001
0000
0010
0010
,  // measure 42
0020
0030
0100
1000
,  // measure 43
0100
0001
0100
0010
,  // measure 44
1000
0000
0100
0100
,  // measure 45
0010
0000
1000
1000
,  // measure 46
2000
3000
0100
0010
,  // measure 47
0001
0000
0100
0100
,  // measure 48
0010
0100
0010
0001
,  // measure 49
1001
0000
0010
0100
,  // measure 50
0010
0000
0100
0010
,  // measure 51
0110
0000
0100
0010
,  // measure 52
1000
0000
0100
0010
,  // measure 53
0001
0000
0010
0100
,  // measure 54
1000
0000
0010
0100
,  // measure 55
0010
1000
0100
0001
,  // measure 56
0100
0000
0010
0100
,  // measure 57
0110
0010
0100
0010
,  // measure 58
0001
0010
0100
1000
,  // measure 59
1001
0010
0100
0010
,  // measure 60
0001
0100
0010
1000
,  // measure 61
0110
1000
0100
0001
,  // measure 62
0100
1000
0010
0010
,  // measure 63
0100
0001
0010
0001
,  // measure 64
0020
0000
0130
0001
,  // measure 65
0100
0100
0010
1000
,  // measure 66
0010
0100
0010
0001
,  // measure 67
0010
0100
0010
1000
,  // measure 68
0100
1000
0110
0001
,  // measure 69
0010
0100
0010
0001
,  // measure 70
0001
0010
0100
0010
,  // measure 71
1000
0100
0001
0100
,  // measure 72
0020
0000
0130
0001
,  // measure 73
0220
0000
0000
0000
,  // measure 74
0000
0000
0330
0000
;
