#TITLE:Rain On Me;
#SUBTITLE:;
#ARTIST:Lady Gaga & Ariana Grande;
#TITLETRANSLIT:;
#SUBTITLETRANSLIT:;
#ARTISTTRANSLIT:;
#CREDIT:;
#BANNER:Rain On Me banner.png;
#BACKGROUND:Rain On Me bg.png;
#LYRICSPATH:;
#CDTITLE:;
#MUSIC:Rain On Me.mp3;
#OFFSET:-9.420;
#SAMPLESTART:32.580;
#SAMPLELENGTH:15.000;
#SELECTABLE:YES;
#BPMS:0.000=123.000;
#STOPS:;
#BGCHANGES:;

//---------------dance-single - ----------------
#NOTES:
     dance-single:
     :
     Hard:
     7:
     0.521,0.537,0.325,0.142,0.229:
1001
0100
0010
1000
0100
0000
0010
0100
,
0002
0000
0023
0000
0000
0030
0100
0000
,
0010
0100
0001
0010
1000
0000
0100
0010
,
0110
0000
0000
0000
1000
0000
0100
0000
0001
0000
0000
0010
0000
0000
0100
0000
,
0011
0000
0000
0010
0000
0000
0100
0000
0000
1000
0000
0000
0100
0000
0000
0000
,
0010
0000
1000
0000
0001
0000
0100
0000
0010
0000
0000
1000
0000
0000
0110
0000
,
0001
0000
0000
0010
0000
0000
0100
0000
0000
0001
0000
0000
1000
0000
0000
0000
,
0100
0000
1000
0000
0100
0000
0001
0000
0100
0000
0000
0010
0000
0000
0100
0000
,
0011
0000
0000
1000
0000
0000
0011
0000
0000
0100
0000
0000
0010
0000
0000
0000
,
1000
0000
0100
0000
0010
0000
0100
0000
0001
0000
0000
0010
0000
0000
0100
0000
,
0010
0000
0000
0100
0000
0000
0010
0000
0000
0001
0000
0000
1000
0000
0000
0000
,
0100
0000
0010
0000
0010
0000
0100
0000
0001
0000
0000
1000
0000
0000
0010
0000
,
0100
0010
0001
1000
0000
0010
0000
0100
,
0110
0000
1000
0000
0100
0000
0001
0010
0200
0000
0000
0000
0310
0000
1000
0000
,
0100
0010
0000
0101
0000
1001
0000
0010
,
0100
0010
0000
0011
0000
1100
0000
0100
,
0001
0010
0001
2000
0000
3020
0000
0130
,
0001
0000
0010
0000
0100
0000
0010
0100
2000
0000
0000
0000
3100
0000
0010
0000
,
0100
0001
0000
0110
0000
1001
0000
0000
,
0110
0000
1001
0000
,
0110
0000
1000
0100
0000
0100
1000
0000
0010
0000
0101
0000
0010
0000
1010
0000
,
0100
0000
0001
1000
0000
1000
0001
0000
0010
0000
0100
0000
0001
0000
1000
0000
,
0011
0000
0100
1000
0000
1000
0100
0000
0010
0000
0100
0000
0001
0000
0100
0000
,
0010
0000
0100
0001
0000
0001
0100
0000
0010
0000
1000
0100
0010
0000
0110
0000
,
1001
0000
0010
0100
0000
1000
0100
0000
0010
0000
0100
0000
0001
0000
0100
0000
,
0010
0000
1000
0001
0000
0010
0100
0000
0010
0000
0100
0000
0100
0000
0001
0000
,
1010
0000
1000
0001
0000
1000
0001
0000
0010
0000
0100
0001
0100
0000
0010
0000
,
1000
0000
0100
0010
0000
0000
0010
0000
0100
0001
0000
0000
0010
0000
0100
0000
,
0110
0000
1000
0000
0100
0010
0020
0000
,
0100
0031
0010
0100
,
1000
0100
0000
0010
0000
0100
0000
0001
,
0000
1000
0000
0010
0000
0100
0001
0101
,
0000
0010
0100
0010
1001
0000
0010
0000
,
0100
0010
1000
0001
0100
1000
1000
0020
,
0000
0130
0001
1000
0002
0000
0013
0000
,
0100
0010
0010
0100
0001
0001
1000
0110
,
1000
0000
0100
0000
0010
0000
0100
0000
0001
0010
0200
0000
0000
0000
0300
0000
,
1000
0010
0010
0100
0001
1000
0010
0200
,
0000
0000
0310
0000
1000
0000
0001
0000
0100
0010
0100
0000
0002
0000
0000
0000
,
0013
0000
0000
0000
0010
0000
0000
1000
,
0110
0000
1000
0000
0001
0000
0010
1000
0100
0000
0002
0000
0000
0003
0010
0100
,
0010
0000
1000
0000
0100
0000
0001
0010
0001
0000
0100
0000
0110
0000
0010
0000
,
1000
0000
0001
0000
0100
0000
0010
1000
0000
1000
0010
0000
0100
0000
1000
0000
,
0011
0000
0100
0000
0010
0000
1000
0001
0000
0001
1000
0000
0010
0000
0100
1000
,
0100
0000
0010
0000
0100
0000
0001
0010
0001
0000
0100
0000
1000
0000
0100
0000
,
1100
0000
0010
0000
0100
0000
0001
0010
0002
0000
0000
0000
0013
0000
0100
0000
,
0101
0010
0100
1000
0010
0200
0000
0310
,
1001
0000
0110
0000
,
1001
0100
1000
0100
0010
0010
0100
0001
,
0020
0000
0000
0000
0031
0000
0100
0000
0010
0000
0000
1000
0000
0000
0010
0000
,
0100
0000
0001
0010
0000
0010
0100
0000
0010
0000
0100
0000
1000
0000
0001
0000
,
0100
0000
0010
1000
0000
1000
0010
0000
0100
0000
0001
0010
0100
0000
0100
0000
,
0011
0100
1000
0010
0001
0100
1000
0010
,
0200
0000
0000
0000
1300
0000
0010
0000
0100
0000
0000
0001
0000
0000
1000
0000
,
0110
0000
1000
0010
0000
0010
1000
0000
0100
0000
0001
1000
0010
0000
0100
0000
,
0011
0000
0110
0000
,
1001
0000
0000
0000
;

//---------------dance-single - ----------------
#NOTES:
     dance-single:
     :
     Medium:
     6:
     0.328,0.304,0.033,0.033,0.000:
1000
0000
0100
0000
0010
0000
0100
0001
,
0010
0200
0000
0310
,
0010
0100
0001
0001
,
0010
0000
1000
0100
1000
0000
0010
0000
,
1000
0000
0100
0010
0000
0010
0100
0000
,
0001
0000
0010
0100
1000
0000
0010
0000
,
0100
0000
0001
0010
0000
0010
0001
0000
,
0100
0000
0010
1000
0010
0000
0100
0000
,
0010
0000
1000
0100
0000
0100
1000
0000
,
0010
0000
0100
0001
1000
0000
0010
0000
,
0100
0000
0010
1000
0000
1000
0001
0000
,
0010
0001
0010
0000
0100
0000
0010
0000
,
1000
0100
0010
0001
0000
0001
0000
0010
,
0100
0000
0100
0020
0000
0000
0030
0000
,
1000
1000
0001
0001
,
0100
0100
0010
0010
,
0001
0010
0100
1000
0000
0100
0000
0010
,
0100
0000
0001
2000
0000
0000
3000
0000
,
0100
0010
0100
0001
,
0010
0000
0010
0000
,
0110
0000
1000
0000
0100
0010
0001
0000
,
0010
0000
0100
0000
0001
0010
1000
0000
,
0100
0000
0010
0000
1000
0001
0100
0000
,
0010
0000
0100
0000
0010
0001
0010
0000
,
0100
0000
0010
0000
1000
0100
0010
0000
,
0100
0000
1000
0000
0010
0100
1000
0000
,
0010
0000
0100
0000
0001
1000
0010
0000
,
0100
0100
0100
0000
0010
0000
1000
0010
,
0001
0010
0100
1000
,
0010
0010
0100
0100
,
0010
0000
1000
0000
0100
0000
0010
0001
,
0000
0100
0000
0010
0000
1000
0000
0110
,
0000
0100
0001
0100
0001
0000
0010
0000
,
0100
0000
0010
1000
0010
0000
0100
0000
,
0010
0000
1000
0001
1000
0000
0100
0000
,
0010
0000
0100
0000
0010
0100
0010
0100
,
0000
1000
0001
1000
0001
0000
0010
0000
,
0100
0000
0001
0000
0010
0100
0010
1000
,
0000
0100
0010
0100
0020
0000
0000
0030
,
1000
0000
0001
0000
,
1001
0000
0010
0100
0000
0100
0010
0000
,
1000
0100
0010
0000
0100
0010
0001
0000
,
0100
0000
1000
0010
0000
0100
0000
0001
,
0010
0000
0100
0010
0000
1000
0000
0010
,
0100
0000
0001
0010
0000
0010
0100
0000
,
0010
0100
1000
0100
0010
0000
0100
0000
,
0001
1000
0000
0010
0000
0100
0000
0001
,
0010
0000
0100
0010
0100
0000
0001
0010
,
0001
0000
0010
0000
0100
0000
1000
0100
,
0100
0000
0010
1000
0010
0000
0100
0000
,
0001
0000
1000
0010
0000
0010
0100
0000
,
0010
0000
0100
0010
0000
0010
0001
0000
,
0010
0000
0100
0010
0001
0000
0010
0100
,
0010
0000
1000
0100
0010
0000
0100
0000
,
0010
0000
1000
0100
0000
0001
0100
0000
,
0010
0000
0100
0000
,
1001
0000
0000
0000
;

//---------------dance-single - ----------------
#NOTES:
     dance-single:
     :
     Easy:
     3:
     0.249,0.257,0.042,0.058,0.000: // measure 1
1000
0100
0010
0001
,  // measure 2
0010
0200
0300
0000
,  // measure 3
0010
0100
0010
0001
,  // measure 4
0010
0100
0010
0010
,  // measure 5
1000
0100
0010
0001
,  // measure 6
0000
0010
0100
0100
,  // measure 7
0010
0001
0010
0100
,  // measure 8
0000
0010
1000
0100
,  // measure 9
0010
0100
0010
0100
,  // measure 10
0000
0001
0010
0100
,  // measure 11
0010
1000
0100
1000
,  // measure 12
0000
0100
0010
0010
,  // measure 13
0100
0001
0010
0001
,  // measure 14
0010
0100
2000
3000
,  // measure 15
0100
0100
0010
0010
,  // measure 16
0100
0001
0100
0010
,  // measure 17
1000
0100
0010
0100
,  // measure 18
0010
0001
0200
0300
,  // measure 19
0010
0010
0100
0100
,  // measure 20
0001
0000
0001
0000
,  // measure 21
1001
0010
0100
0010
,  // measure 22
0100
1000
0100
0010
,  // measure 23
0100
0001
1000
0100
,  // measure 24
0010
0100
1000
0010
,  // measure 25
0001
0100
0010
0001
,  // measure 26
0100
1000
0010
0100
,  // measure 27
1000
0010
0001
1000
,  // measure 28
0010
0100
0010
0010
,  // measure 29
1001
0000
0100
0000
,  // measure 30
1000
0000
0010
0000
,  // measure 31
0100
0000
0001
0000
,  // measure 32
0010
0000
0100
0000
,  // measure 33
0100
0100
0010
0000
,  // measure 34
0100
0010
0001
0010
,  // measure 35
1000
0100
0020
0030
,  // measure 36
0100
0100
1000
0100
,  // measure 37
0001
0010
0010
0000
,  // measure 38
0100
1000
0100
0010
,  // measure 39
0100
1000
0200
0300
,  // measure 40
0010
0000
0010
0000
,  // measure 41
0110
0010
0001
0010
,  // measure 42
0100
0010
0002
0013
,  // measure 43
0100
0010
0100
1000
,  // measure 44
0100
0010
0001
0010
,  // measure 45
0100
0010
1000
0100
,  // measure 46
1000
0010
0200
0310
,  // measure 47
1000
1000
0001
0001
,  // measure 48
0100
0000
0010
0000
,  // measure 49
0110
0001
0010
0100
,  // measure 50
0010
0001
1000
0010
,  // measure 51
0100
0100
0010
0010
,  // measure 52
0100
1000
0001
1000
,  // measure 53
0100
0010
1000
0001
,  // measure 54
0100
0100
1000
1000
,  // measure 55
0010
0100
0010
0001
,  // measure 56
0010
0000
0100
0000
,  // measure 57
1001
0000
0000
0000
;
