#TITLE:Plastic Love;
#SUBTITLE:;
#ARTIST:Mariya Takeuchi;
#TITLETRANSLIT:;
#SUBTITLETRANSLIT:;
#ARTISTTRANSLIT:;
#CREDIT:;
#BANNER:Plastic Love banner.png;
#BACKGROUND:Plastic Love bg.png;
#LYRICSPATH:;
#CDTITLE:;
#MUSIC:Plastic Love.mp3;
#OFFSET:-7.600;
#SAMPLESTART:12.280;
#SAMPLELENGTH:15.000;
#SELECTABLE:YES;
#BPMS:0.000=102.660,100.500=102.000;
#STOPS:100.500=1.860
;
#BGCHANGES:;

//---------------dance-single - ----------------
#NOTES:
     dance-single:
     :
     Hard:
     8:
     0.432,0.465,0.289,0.096,0.193:
1000
0100
0010
0001
0010
0100
1000
0100
,
0020
0000
0000
0130
,
1001
0000
0100
0001
0100
0001
0000
0000
0110
0000
0000
0000
0001
0000
0000
0000
,
1000
0000
0010
1000
0010
1000
0000
0000
0110
0000
0000
0000
1001
0000
0000
0000
,
0011
0000
0010
0100
0010
0100
0000
0000
1001
0000
0000
0000
0010
0000
0000
0000
,
1000
0000
0100
1000
0100
1000
0000
0000
0010
0100
1000
0100
0001
0010
0100
0010
,
1001
0000
0100
1000
0100
1000
0000
0000
0110
0000
0000
0000
0010
0000
0000
0000
,
1000
0000
0100
0001
0100
0001
0000
0000
0010
0000
0000
0000
0101
0000
0000
0000
,
0110
0000
1000
0001
1000
0001
0000
0000
0010
0000
0000
0000
1100
0000
0000
0000
,
0101
0000
0010
0001
0010
0001
0000
0000
0010
0000
0000
0000
0100
1000
0100
0010
,
0100
0001
0010
1000
0010
0001
0100
0110
,
0000
0000
0011
0000
0000
0000
1000
0100
1000
0000
0000
0000
0010
0000
0000
0000
,
1000
0010
1000
0010
0100
0001
0100
0100
,
0010
0000
1010
0000
0000
0000
0100
0000
0001
1000
0010
1000
0100
0001
0010
0001
,
0100
0010
1000
0001
0010
0001
0100
0100
,
0010
0000
0000
1000
0000
0000
0010
0000
0110
0000
0000
0000
1001
0000
0000
0000
,
0100
0010
1000
0100
0001
0100
0010
1000
,
1000
0000
0010
0000
0100
0001
0000
0000
0010
0000
0100
0000
0001
0000
1000
0000
,
0020
0000
0130
0001
1000
0000
0010
0000
,
2000
3200
0320
0032
,
0013
0000
0100
0000
0001
0010
0100
1000
,
0010
0000
0100
0001
0100
0001
0000
0000
0010
0000
1000
0000
0010
0000
0100
0000
,
0010
0000
1000
0001
1000
0000
0010
0100
,
0001
0000
0100
0010
0100
0000
0011
0000
,
1001
1001
0000
0010
0010
0000
0100
0000
,
0001
1000
0001
0000
0100
0000
0010
0000
0001
0000
0010
0000
0100
0000
0010
0000
,
1000
0000
0001
0000
0000
0000
0010
0000
0100
0001
0000
0000
1001
0000
0000
0000
,
0110
0000
1000
0100
0010
0100
0100
1000
,
0010
0000
0100
0000
0000
0000
0001
0000
0000
1000
0100
1000
0000
0010
0001
0010
,
0000
1000
0001
1000
0000
0000
0100
0000
1000
0000
0001
0000
0010
0000
0001
0000
,
1000
0000
0100
0000
1000
0000
0000
0010
0000
0000
0100
0000
0101
0000
0000
0000
,
0110
0000
1000
0100
0100
0001
0100
0010
,
0001
1000
0000
0010
0000
0100
0001
0010
,
0100
0010
1001
0000
0100
0010
0110
0000
,
1000
0002
0023
0230
,
2300
0000
3010
0000
0100
0000
0010
1000
,
0001
0100
0000
0010
0000
0100
0110
0001
,
0010
1000
0010
0000
0001
1000
0001
0000
,
0100
0010
0010
0000
1000
0010
1000
0000
,
0001
0000
0110
1100
0000
0010
0000
0100
,
0001
1001
0000
0000
;

//---------------dance-single - ----------------
#NOTES:
     dance-single:
     :
     Medium:
     6:
     0.348,0.310,0.154,0.125,0.000:
0010
0100
0010
0100
0001
1000
0001
1000
,
0020
0000
0000
0030
,
0100
0001
1000
0010
0100
0000
0110
0000
,
1000
0100
0010
0001
0010
0000
0110
0000
,
0010
0001
0010
0100
0001
0000
0110
0000
,
1000
0100
0001
0100
1000
0000
0010
0010
,
0100
0001
0010
0100
1000
0000
1001
0000
,
0010
0100
0010
1000
0001
0000
1001
0000
,
0001
0010
1000
0100
0001
0000
1001
0000
,
0100
0000
0010
0000
0100
0010
0010
0100
,
0010
1000
0100
0010
0001
0010
0100
0010
,
0000
0100
0000
0010
0001
0000
0110
0000
,
0010
0100
0001
0010
1000
0010
0100
0010
,
0000
1000
0000
0100
0001
0000
0010
0010
,
0100
0001
0010
1000
0010
0100
0010
1000
,
0100
0001
0100
0010
,
1000
0010
0001
0010
1000
0010
0100
0010
,
0000
0100
0000
0010
0001
0010
0100
0010
,
1000
0100
0001
0100
,
0020
0230
0302
2003
,
3010
0000
0100
0000
0001
0010
0000
1000
,
0100
0000
0010
0000
1000
0001
0100
0000
,
0010
0000
0100
0002
0000
0003
0110
0000
,
1000
0000
0010
2000
0000
3000
0110
0000
,
1000
0001
1000
0000
0010
0000
0100
0000
,
0110
0110
0100
0010
0001
0010
0100
0010
,
1000
0010
0000
0100
0000
0001
0010
0000
,
0100
0000
0010
1000
0100
0001
0100
1000
,
0010
0100
0000
0010
0000
0001
0010
0000
,
0100
0000
0001
0010
0001
0100
0010
0100
,
1000
0100
1000
0000
0010
0000
0100
0000
,
0001
0000
0010
0100
0010
1000
0001
0100
,
0010
0001
0000
0100
0000
0010
1000
0100
,
0010
0001
0100
0000
0010
0000
1000
0000
,
0001
2000
3200
0320
,
0032
0000
0013
0000
0100
0000
1000
0001
,
0000
0010
0000
0100
0010
0000
1000
0001
,
1000
0000
0010
0000
0001
0200
0000
0300
,
0110
0000
0010
0000
1000
0020
0000
0030
,
0110
0000
1001
1001
0010
0000
0100
0000
,
0001
1001
0000
0000
;

//---------------dance-single - ----------------
#NOTES:
     dance-single:
     :
     Easy:
     3:
     0.215,0.194,0.010,0.125,0.000: // measure 1
0010
0100
0001
1000
,  // measure 2
0200
0000
0000
0300
,  // measure 3
0010
0010
0100
0000
,  // measure 4
0001
0001
0010
0000
,  // measure 5
1000
1000
0100
0000
,  // measure 6
0010
0010
1000
0001
,  // measure 7
1000
1000
0100
0010
,  // measure 8
0100
0100
0001
1000
,  // measure 9
0010
0010
0100
1000
,  // measure 10
0001
0001
0010
0100
,  // measure 11
0010
0100
0010
1000
,  // measure 12
0001
0020
0030
0000
,  // measure 13
0100
0010
1000
0100
,  // measure 14
0001
2000
3000
0000
,  // measure 15
0100
0010
0100
0010
,  // measure 16
0001
0001
1000
1000
,  // measure 17
0010
0100
1000
0010
,  // measure 18
0100
0100
0010
1000
,  // measure 19
0010
0010
0100
0000
,  // measure 20
0002
0013
0200
1300
,  // measure 21
0010
0100
0010
1000
,  // measure 22
0010
0000
0010
0100
,  // measure 23
0010
0010
2000
3000
,  // measure 24
0100
0100
0002
0103
,  // measure 25
0010
0010
0100
0001
,  // measure 26
0000
0100
0010
0100
,  // measure 27
0001
1000
0020
0030
,  // measure 28
0000
0100
0001
0010
,  // measure 29
0001
1000
0200
0300
,  // measure 30
0010
0100
0010
0001
,  // measure 31
1000
0010
0010
0100
,  // measure 32
0100
1000
0100
0010
,  // measure 33
0100
0001
0001
0010
,  // measure 34
0100
0010
1000
0001
,  // measure 35
0000
0020
0130
2000
,  // measure 36
3001
0100
0010
0001
,  // measure 37
1000
0010
0000
0100
,  // measure 38
0010
1000
0001
0020
,  // measure 39
0030
0001
0100
0020
,  // measure 40
1030
0100
0100
0010
,  // measure 41
0100
1001
0000
0000
;
