#TITLE:Passing Breeze;
#SUBTITLE:(Euro Remix);
#ARTIST:Richard Jacques (OutRun2);
#TITLETRANSLIT:;
#SUBTITLETRANSLIT:;
#ARTISTTRANSLIT:;
#CREDIT:;
#BANNER:Passing Breeze (Euro Remix) banner.png;
#BACKGROUND:Passing Breeze (Euro Remix) bg.png;
#LYRICSPATH:;
#CDTITLE:Passing Breeze (Euro Remix) cdtitle.png;
#MUSIC:Passing Breeze (Euro Remix).mp3;
#OFFSET:-8.400;
#SAMPLESTART:21.920;
#SAMPLELENGTH:15.000;
#SELECTABLE:YES;
#BPMS:0.000=124.020;
#STOPS:;
#BGCHANGES:;

//---------------dance-single - ----------------
#NOTES:
     dance-single:
     :
     Hard:
     8:
     0.476,0.492,0.286,0.154,0.334:
1001
0010
0100
0001
,
0100
0000
0000
0000
0010
1000
0000
2000
0000
0000
3000
0000
0010
0000
0000
0000
,
1001
0100
1000
0010
,
0100
0000
0000
0000
1000
0001
0000
0002
0000
0000
0003
0000
0110
0000
0000
0000
,
1000
0100
0000
0001
0000
0100
0000
0010
0000
1000
0000
0010
0000
0100
0000
0001
,
0200
0010
1000
0010
,
1300
0000
0000
0010
0000
0000
1000
0100
0010
0001
0000
0000
,
1001
0000
0000
0010
0100
0000
0000
0000
0001
0000
0010
0000
0100
0000
0000
0000
,
0010
0000
0000
1000
0100
0000
0000
0000
0010
0000
0100
0000
0001
0000
0100
0000
,
0010
0000
0000
1000
0001
0000
0000
0000
0010
0000
0000
0000
0100
0000
0000
0100
,
0010
0000
0000
0001
0010
0000
0000
0000
0110
0000
0000
0000
1100
0000
0000
0000
,
1001
0000
0000
0010
0001
0000
0000
0000
0010
0000
0100
0000
0010
0000
0010
0000
,
0100
0000
0000
1000
0001
0000
0000
0000
0010
0000
0000
0000
0100
0000
0000
0001
,
0100
0000
0010
1000
0010
0000
0100
0000
,
1010
0000
0000
0000
0100
0000
0000
0000
0001
1000
0001
1000
0000
1000
0000
0000
,
0101
0000
0000
0010
0100
0000
0100
0000
0001
0000
0000
1000
0010
0000
0100
0000
,
0001
0000
0000
1000
0010
0000
0001
0000
0100
0000
0010
0000
1000
0000
0010
0000
,
0100
0000
0000
0010
0001
0000
0100
0000
0010
0000
1000
0000
0010
0000
0000
0000
,
1100
0000
0000
0001
0010
0000
1000
0000
0010
0000
0000
0000
0100
0000
0000
0000
,
0110
0000
0000
1000
0001
0000
0000
0000
0010
0000
0100
0000
1000
0000
0100
0000
,
0010
0000
0000
0100
0010
0000
0000
0000
0001
0000
0010
0000
0001
0000
0000
0100
,
0010
0000
0000
0001
1000
0000
0010
0000
0100
0000
0000
0000
0011
0000
0000
0000
,
0100
0000
0010
1000
0001
0100
0010
0100
,
0011
0000
0000
0012
0000
0000
0000
0000
0013
0000
0000
0000
1100
0000
0000
2100
,
0000
0000
0000
0000
3010
0000
0000
0000
0100
0000
0000
0001
0000
0000
0100
0000
,
0010
1000
0001
0010
0001
0100
0010
1000
,
0100
0000
0010
0000
0100
0000
0001
0000
1000
0000
0100
0000
0010
0001
0000
0000
,
1001
0000
0000
1002
0000
0000
0000
0000
0013
0000
0000
0000
0110
0000
0000
0210
,
0000
0000
0000
0000
0310
0000
0000
0000
1000
0000
0000
0100
0000
0000
0010
0000
,
0010
0100
1000
0001
0100
0010
1000
0010
,
0100
0001
0010
1000
0010
0100
0001
0000
,
1010
0000
0000
0201
0000
0000
0000
0000
0310
0000
0000
0000
0110
0000
0000
0012
,
0000
0000
0000
0000
0013
0000
0000
0000
0100
0000
0000
0010
0000
0000
0100
0000
,
1000
0000
0010
0000
0100
0000
0001
0000
0100
0000
0010
0001
0010
0000
0100
0000
,
0010
0000
0000
0000
1000
0000
0000
0000
0001
0000
0010
0000
0100
1000
0000
0000
,
0110
0000
0000
1200
0000
0000
0000
0000
0310
0000
0000
0000
1001
0000
0000
0120
,
0000
0000
0000
0000
0031
0000
0000
0000
0100
0000
0000
0010
0000
0000
1000
0000
,
0010
0001
0010
0100
0010
1000
0010
0100
,
0100
0010
1000
0100
0001
0100
1000
0010
,
0020
0230
0302
2003
,
3020
0000
0230
0000
0310
0001
0010
1000
,
0020
0000
0000
0030
,
1000
0100
0000
0001
0000
0100
0000
0010
1000
0000
0000
0100
0000
0000
0001
1000
,
0001
0000
1001
0000
1000
0100
0010
0001
,
0020
0031
0100
0010
,
1000
0000
0000
0000
0100
0010
0001
0010
0100
1000
0100
0010
0000
0100
0000
0010
,
0000
0000
0010
0000
0100
0000
0001
0000
0010
0000
0000
0010
0000
0000
0100
0010
,
0100
0000
0110
0000
1000
0001
0100
0010
,
2000
3010
0101
1010
,
1001
0000
0000
0000
0010
0100
1000
0100
0010
0000
0000
0010
0000
0000
0001
0000
,
0100
0000
0010
0000
1000
0100
0001
0100
,
1000
0000
1000
0100
1000
0000
0100
0010
0100
0000
0010
0001
0010
0000
0001
0010
,
0001
0000
0010
0100
0010
0000
0100
1000
0100
0000
0010
0100
0010
0100
0000
0000
,
1000
0000
0001
0010
0000
0000
0000
0000
0010
0000
0100
0001
0100
0010
0100
1000
,
0100
0001
0000
0001
0000
0000
0000
0000
0100
0000
0000
0010
0000
0000
0010
0000
,
0101
0000
0010
1010
0000
0100
1000
0010
,
1001
0000
0000
0000
1100
0000
0000
0000
0001
0000
0010
0000
0000
0000
0100
1000
,
0200
0010
1000
0010
,
1300
0100
0010
0001
0010
0100
1000
0010
0010
0010
0000
0000
,
0110
0000
0000
0001
0010
0000
0100
0000
0010
0000
1000
0000
0010
0000
0000
0100
,
0010
0000
0000
0010
0100
0000
1000
0000
0100
0000
0010
0000
0001
0000
0010
0000
,
0110
0000
0000
0000
;

//---------------dance-single - ----------------
#NOTES:
     dance-single:
     :
     Easy:
     3:
     0.263,0.224,0.095,0.095,0.000: // measure 1
1000
0100
0010
0001
,  // measure 2
0100
0010
0010
0100
,  // measure 3
0010
0001
0010
1000
,  // measure 4
0010
0100
0100
0001
,  // measure 5
1000
0100
0010
0001
,  // measure 6
0020
0000
0000
0000
,  // measure 7
0030
0000
0100
0100
,  // measure 8
1001
0010
0100
0001
,  // measure 9
0010
1000
0010
0010
,  // measure 10
0110
1000
0100
0010
,  // measure 11
0100
0010
0001
0010
,  // measure 12
1001
0010
0001
0100
,  // measure 13
0010
0100
1000
0010
,  // measure 14
0110
1000
0100
0010
,  // measure 15
0100
0100
0010
0010
,  // measure 16
1001
0010
0001
0100
,  // measure 17
0010
0001
0010
0001
,  // measure 18
0110
0001
0010
0100
,  // measure 19
0010
0001
1000
1000
,  // measure 20
0110
1000
0100
0010
,  // measure 21
0100
1000
0010
1000
,  // measure 22
1001
0010
0100
0010
,  // measure 23
0001
0010
0100
0010
,  // measure 24
1000
2000
3000
0100
,  // measure 25
0200
0300
0010
0010
,  // measure 26
0100
0001
1000
0010
,  // measure 27
0100
0100
0001
0001
,  // measure 28
0010
0020
0030
0100
,  // measure 29
0200
0300
0001
0010
,  // measure 30
0100
0010
1000
0100
,  // measure 31
0010
0100
0010
0001
,  // measure 32
0100
0200
0300
1000
,  // measure 33
2000
3000
0010
0100
,  // measure 34
0001
1000
0010
0100
,  // measure 35
0001
0001
0010
0010
,  // measure 36
0100
0200
0300
0001
,  // measure 37
0002
0003
0010
0100
,  // measure 38
0010
0010
0100
0100
,  // measure 39
0001
1000
0010
0100
,  // measure 40
0001
0010
0100
1000
,  // measure 41
0001
0010
0100
1000
,  // measure 42
0020
0000
0000
0030
,  // measure 43
0100
0100
0010
1000
,  // measure 44
0001
1001
0100
1000
,  // measure 45
1000
0010
0100
0100
,  // measure 46
0001
0010
0100
0010
,  // measure 47
0100
0100
0010
0010
,  // measure 48
1000
1001
0010
0100
,  // measure 49
0010
0001
0010
0100
,  // measure 50
0100
0010
1000
0100
,  // measure 51
0001
0100
0020
0030
,  // measure 52
0100
0000
0100
0000
0100
0000
0100
0100
,  // measure 53
0100
0000
0100
0000
0100
0000
0100
0100
,  // measure 54
0100
0010
0100
0001
,  // measure 55
1000
1000
0010
0010
,  // measure 56
0100
0001
0100
0010
,  // measure 57
2000
3000
0010
0100
,  // measure 58
0210
0000
0000
0000
,  // measure 59
0300
0010
0010
0010
,  // measure 60
0110
1000
0100
0001
,  // measure 61
0100
1000
0010
0100
,  // measure 62
1001
0000
0000
0000
;

//---------------dance-single - ----------------
#NOTES:
     dance-single:
     :
     Medium:
     5:
     0.319,0.291,0.073,0.066,0.000:
0001
0010
0100
1000
,
0010
0000
0100
0001
0001
0000
0010
0000
,
1000
0100
0010
0001
,
0010
0000
0100
0001
0001
0000
0010
0000
,
0100
0010
0100
0001
,
2000
0000
0000
3000
,
0100
0000
0010
0000
1000
0001
1000
0000
,
0010
0000
0100
0000
0001
0000
0010
0100
,
0010
0000
1000
0000
0001
0010
0100
0000
,
0010
0000
0100
0000
1000
0000
0010
0100
,
0010
1000
0100
0010
,
0110
0000
1000
0000
0100
0000
0001
0100
,
0001
0000
0010
0000
0100
0000
0010
0010
,
0100
0010
0001
1000
,
0110
0000
0001
0000
0010
0100
1000
0000
,
0011
0000
0010
0000
0100
0000
0010
0100
,
0010
0000
1000
0000
0100
0010
0001
0000
,
0010
0000
0100
0000
1000
0000
0010
0100
,
0001
0010
1000
0001
,
0110
0000
1000
0000
0100
0000
0010
0100
,
0010
0000
1000
0000
0100
0000
0001
0010
,
0010
0100
0010
1000
,
0110
0000
1000
0000
0001
0000
0010
0100
,
0100
0000
0010
0000
0001
0000
1000
0010
,
0010
0000
0100
0000
0001
0000
0010
0100
,
1000
0100
0010
0100
,
0001
0000
1000
0000
0010
0100
0020
0000
,
0130
0000
0001
0000
1000
0000
0010
0100
,
0100
0000
1000
0000
0100
0000
0010
0001
,
0010
0100
0010
1000
,
0002
0013
0100
0010
,
1000
0001
1000
0000
0010
0000
1000
0001
,
1000
0000
0010
0000
0001
0000
0100
0001
,
0100
0010
1000
0010
,
0100
0000
0010
0000
0100
0001
0200
0000
,
0310
0000
1000
0010
0100
0000
0001
0000
,
0100
0000
0001
1000
0010
0000
0100
0000
,
0010
1000
0010
0000
0100
0001
0100
0000
,
0020
0000
0130
0000
0001
0000
1000
0100
,
0200
0000
0000
0300
0010
0000
0100
0000
,
0002
0000
0000
0003
0010
0000
0100
0000
,
0120
0000
0000
0030
,
1000
0100
0010
0001
0010
0000
0100
0000
,
0010
0000
0110
0000
1000
0000
0001
0010
,
0010
0100
0001
1000
,
0010
0000
0100
0000
0001
1000
0001
0000
,
0010
0000
0100
0000
0001
0000
0010
0100
,
1000
0000
0110
0000
1000
0000
0010
0100
,
0010
1000
0100
0010
,
0110
0000
0001
0010
0010
0000
0100
1000
,
1000
0010
0100
0010
,
1000
0100
1000
0100
1000
0100
1000
0100
,
0001
0010
0001
0010
0001
0010
0001
0000
,
0100
0100
0010
0000
0100
0000
0010
0000
,
1000
0000
1000
0000
0100
0000
0001
0010
,
0100
0000
0010
0100
0000
0000
0100
0010
,
0100
0000
0001
0000
1000
0010
0000
0010
,
0200
0000
0000
0300
,
0010
0100
0010
0100
0010
0000
0001
0000
,
1001
0000
0010
0000
0100
0000
0001
0010
,
0001
0000
0010
0000
0100
0000
0010
1000
,
0010
0000
0000
0000
;
