#TITLE:OH NO, OH YES!;
#SUBTITLE:;
#ARTIST:Akina Nakamori;
#TITLETRANSLIT:;
#SUBTITLETRANSLIT:;
#ARTISTTRANSLIT:;
#CREDIT:;
#BANNER:OH NO, OH YES banner.png;
#BACKGROUND:OH NO, OH YES bg.png;
#LYRICSPATH:;
#CDTITLE:;
#MUSIC:OH NO, OH YES.mp3;
#OFFSET:-2.420;
#SAMPLESTART:71.940;
#SAMPLELENGTH:15.000;
#SELECTABLE:YES;
#BPMS:0.000=69.020;
#STOPS:;
#BGCHANGES:;

//---------------dance-single - ----------------
#NOTES:
     dance-single:
     :
     Hard:
     8:
     0.425,0.409,0.245,0.082,0.467:
1001
0000
0000
0000
1000
0100
0010
0001
0010
0100
1000
0100
0000
0000
0010
0000
,
0110
0000
0000
1000
0000
0000
0001
0000
0010
0000
0100
0000
0001
1000
0001
0000
,
0100
0000
0000
0000
0001
0010
0100
1000
0100
0010
0001
0010
0000
0000
0100
0000
,
0110
0000
0000
1000
0000
0000
0010
0000
0100
0000
0000
0000
0010
0100
0010
0000
,
1000
0000
0001
0010
0001
0000
0010
0100
0010
0000
1000
0000
0010
0100
0000
1000
,
0100
0000
0000
0011
0000
0000
0010
0000
0110
0000
0000
1000
0000
0100
0010
0000
,
1000
0000
0100
0010
0100
0000
0001
0010
0001
0000
1000
0100
0010
0000
0100
0001
,
0010
0000
0000
0100
0000
0001
0010
0000
0110
0000
0000
0000
1000
0100
0001
0000
,
0010
0000
1000
0000
0100
0000
0001
0020
0000
0000
0100
1030
0000
1000
0100
0010
,
0100
0000
0001
1000
0000
0000
0010
0100
0010
0000
1000
0000
0001
0000
0010
0100
,
1000
0000
0100
0000
0010
0000
1000
0020
0000
0000
0000
0000
0030
0000
0100
0001
,
1000
0010
0100
0001
0010
0000
1000
0100
0000
0000
0001
0000
1000
0100
0010
0001
,
1001
0000
0100
0010
0100
0000
0001
0010
0001
0000
1000
0000
0100
0000
0010
0100
,
1000
0011
0110
2000
,
3100
0000
0001
0010
0100
0000
0010
0100
1000
0000
0100
0000
1000
0000
0010
0100
,
0010
1000
0001
0010
0110
0000
0010
0100
,
0001
0000
0010
0000
1000
0000
0000
0000
0010
0000
0100
0001
0100
0010
0000
0000
,
0210
0000
0000
0000
0310
0000
1000
0010
0000
0000
0100
0000
0100
0000
0001
0010
,
1000
0100
1000
0100
0010
0000
0100
1000
0000
0000
0010
0001
0000
0000
1000
0100
,
0001
0100
1000
0010
0100
0000
0010
0000
1000
0100
0010
0001
0010
0100
1000
0000
,
1001
0000
0010
0000
0210
0000
0300
0001
0010
1000
0010
0001
0010
0000
0100
0000
,
1010
0000
0100
0000
0012
0000
0003
0100
0010
1000
0100
0001
0100
1000
0010
0000
,
0110
0000
1000
0000
1001
0000
0000
0010
0100
0001
1000
0010
0000
0100
0000
0000
,
0010
0000
1000
0020
0000
0000
0000
0000
0130
0000
0001
0000
1000
0010
1000
0000
,
0110
0000
1000
0000
2001
0000
3000
0100
0000
0010
0100
0001
1010
0000
0110
0000
,
0010
0000
0001
0000
1200
0000
0300
0001
0010
0100
1000
0100
0010
0100
0001
0000
,
0110
0000
1000
0000
0101
0000
0000
0010
0100
0010
1000
0100
0010
0100
0010
0000
,
0001
0000
1000
0010
0000
0000
0100
0001
0000
0000
0110
0000
0001
0010
0100
1000
,
0110
0000
0000
0000
0001
0010
0100
0010
0100
1000
0010
0100
0000
0000
0010
0001
,
0010
0000
0000
0100
0000
0010
1000
0000
0110
0000
0001
0000
0010
0100
1000
0100
,
0010
0000
0000
0000
1000
0100
0010
0100
0010
0001
0010
0100
0000
0000
0010
0100
,
0020
0000
0000
0000
0000
0000
0000
0000
0030
0000
0000
0000
0110
0110
0000
0000
,
1001
0000
0100
1000
0100
0000
0010
1000
0100
0000
0001
0000
0100
0010
0000
1000
,
0100
0000
0000
0001
0000
0100
0010
0000
1001
0000
0000
0010
0000
0100
0000
0001
,
0010
0000
0100
0001
1000
0000
0010
0100
0010
0000
1000
0001
0000
1000
0000
0100
,
0000
0001
0010
0100
1000
0000
0100
0000
0110
0000
0000
0000
1000
0010
0100
0001
,
0100
0000
0010
0000
1000
0000
0001
0020
0000
0000
1030
0100
0000
0001
0010
0100
,
0010
0000
1000
0001
1000
0000
0000
0000
0010
0000
0010
0000
0100
0000
0000
0000
,
1001
0000
0000
0000
;

//---------------dance-single - ----------------
#NOTES:
     dance-single:
     :
     Medium:
     6:
     0.243,0.225,0.037,0.030,0.004:
1000
0000
0100
0010
0100
0001
0010
0000
,
1000
0000
0101
0000
0010
0010
0100
0000
,
0010
0000
1000
0100
0010
0100
1000
0000
,
0010
0000
0100
0000
0001
1000
0010
0010
,
0100
0000
0001
0000
0010
0000
0100
0001
,
1000
0000
0010
0100
0100
0000
0001
1000
,
0100
0000
0010
0000
1000
0000
0100
0010
,
1000
0000
0100
0001
0001
0000
0010
0100
,
0010
1000
0100
0000
0010
0100
0010
0000
,
0001
0000
0100
0000
0010
1000
0100
0000
,
0001
0010
0001
0100
0010
0000
1000
0000
,
0010
1000
0010
0100
1000
0000
0010
0000
,
0100
0010
0010
0001
0001
0010
0100
0000
,
0010
1000
0001
0200
,
0310
0000
1000
0000
0100
0000
1000
0010
,
0010
0000
0100
0000
0001
0000
0010
0100
,
0010
0000
1000
0000
0100
1000
1000
0000
,
0002
0000
0103
0010
1000
0000
0100
0000
,
0010
0100
0001
1000
0010
0000
0100
0000
,
0010
1000
0100
0001
0100
0100
0010
0100
,
0110
0010
0010
0000
0001
0010
0100
1000
,
0010
1000
1000
0000
0100
0010
1000
0100
,
0001
0100
0100
0000
0010
0100
0010
1000
,
0100
0001
0020
0000
0130
0000
0001
0001
,
0010
0100
0010
0000
1000
0010
0100
0001
,
0100
0010
1000
0000
0010
0001
0010
0010
,
0100
0010
1000
0000
0100
0010
1000
0001
,
0100
1000
0100
0010
0010
0000
0100
0010
,
0110
0000
0001
0010
0100
0010
1000
0000
,
0100
0000
0010
1000
1000
0000
0010
0100
,
0010
0000
1000
0100
0001
0100
1000
0000
,
0020
0000
0000
0000
0000
0000
0000
0000
0000
0000
0030
0000
0100
0100
0000
0000
,
0110
0000
0010
0000
1000
0000
0100
0010
,
0100
0000
0001
1000
1000
0000
0010
0100
,
0001
0000
0010
0000
0100
0000
0010
1000
,
0100
0000
1000
0001
0001
0000
0010
0000
,
0100
0000
0001
0000
0010
0100
1000
0000
,
0010
0100
0001
1000
,
1001
0000
0000
0000
;

//---------------dance-single - ----------------
#NOTES:
     dance-single:
     :
     Easy:
     4:
     0.163,0.155,0.052,0.030,0.000: // measure 1
1000
0010
0010
0100
,  // measure 2
0001
1000
0010
0100
,  // measure 3
0001
0010
0010
0100
,  // measure 4
1000
0100
0010
0001
,  // measure 5
1001
0010
0001
0100
,  // measure 6
0010
0010
0010
0000
,  // measure 7
1000
0100
1000
0010
,  // measure 8
0100
0100
0100
0000
,  // measure 9
0010
0001
0010
0100
,  // measure 10
0010
1000
0100
0100
,  // measure 11
0010
1000
0020
0030
,  // measure 12
0100
0001
0200
0300
,  // measure 13
0010
0001
0010
1000
,  // measure 14
0010
0100
0100
0002
,  // measure 15
0013
0100
0010
1000
,  // measure 16
0100
1000
0100
0010
,  // measure 17
0100
0001
0100
0100
,  // measure 18
0010
1000
0010
0000
,  // measure 19
0100
1000
0100
0000
,  // measure 20
0001
0010
0001
0010
,  // measure 21
0110
0100
0001
0001
,  // measure 22
0110
0010
1000
1000
,  // measure 23
0100
1000
0001
0100
,  // measure 24
0010
0100
0001
1000
,  // measure 25
1001
0100
0010
0010
,  // measure 26
1001
0010
0100
0100
,  // measure 27
0010
0001
0010
0100
,  // measure 28
0010
1000
0100
0001
,  // measure 29
1000
0010
0010
0100
,  // measure 30
0001
1000
1000
0010
,  // measure 31
0100
0010
0010
0001
,  // measure 32
0200
0000
0000
0310
,  // measure 33
1001
0010
0100
1000
,  // measure 34
0100
0100
0010
0000
,  // measure 35
1000
0001
0010
0100
,  // measure 36
0001
0001
0010
0000
,  // measure 37
0100
0010
0100
0001
,  // measure 38
0010
1000
0100
0010
,  // measure 39
1001
0000
0000
0000
;
