#TITLE:Merry Christmas;
#SUBTITLE:;
#ARTIST:Toshihiko Sahashi (Blue Stinger);
#TITLETRANSLIT:;
#SUBTITLETRANSLIT:;
#ARTISTTRANSLIT:;
#CREDIT:;
#BANNER:Merry Christmas banner.png;
#BACKGROUND:Merry Christmas bg.png;
#LYRICSPATH:;
#CDTITLE:;
#MUSIC:Merry Christmas.mp3;
#OFFSET:-7.000;
#SAMPLESTART:12.940;
#SAMPLELENGTH:15.000;
#SELECTABLE:YES;
#BPMS:0.000=151.900;
#STOPS:336.000=0.460
;
#BGCHANGES:;

//---------------dance-single - ----------------
#NOTES:
     dance-single:
     :
     Hard:
     8:
     0.592,0.740,0.328,0.177,0.000:
1000
0100
0010
0001
1000
0100
0010
0001
,
0001
0010
0100
1000
0000
0100
0110
0000
,
0010
0100
0001
1000
0010
0100
0001
1000
,
0010
1000
0001
1000
0000
0010
0100
0000
,
2001
0000
0000
0000
0000
3100
0010
0001
,
0010
0000
0100
0010
0000
0010
0100
0000
,
0001
0010
0100
1000
0000
0010
0100
1000
,
0100
0010
0100
0001
,
1002
0000
0000
0000
0000
0013
0100
1000
,
0100
0000
0010
0100
0000
0100
0010
0000
,
1000
0100
0010
0001
0000
0100
0010
0001
,
0010
0000
0100
0000
0001
1000
0010
0100
,
0002
0000
0010
0000
0013
0100
1000
0100
,
0010
0000
1000
0010
0000
0010
0100
0000
,
0001
0010
1000
0010
0000
0010
0100
0010
,
0200
0010
1000
0310
,
0100
0001
0100
0110
0000
1001
0000
0010
,
0100
1000
0100
0011
0000
1100
0000
0010
,
0100
0001
0010
1100
0000
0110
0000
1000
,
0010
0100
0001
1000
,
0010
0100
0001
1010
0000
0101
0000
0010
,
0100
1000
0001
0110
0000
1001
0000
0010
,
0001
1000
0001
1100
0000
1010
0000
0010
,
0100
0001
0100
0010
1000
0100
0010
0100
,
0001
0010
1000
0010
0000
0010
0100
0000
,
0001
0010
0001
1000
0100
1000
0010
0100
,
0010
1000
0100
0001
0000
0001
0100
0000
,
0210
0000
0000
0000
0000
0310
0001
1000
,
0010
0000
0010
0100
0000
0100
0010
0000
,
0001
0010
0100
0010
0000
0010
0100
1000
,
0100
0000
0010
0100
0001
1000
0010
0000
,
0120
0000
0000
0000
0000
0130
0001
0100
,
0010
0000
1000
0001
0000
0001
1000
0000
,
0010
1000
0100
0001
0000
0001
0100
1000
,
0010
0000
0100
0010
1000
0100
0001
0000
,
2000
0000
0100
0000
3100
0010
0001
0010
,
0100
0000
0010
0100
0010
0001
1000
0000
,
0010
0100
0001
0100
0000
0010
1000
0010
,
0100
0010
0001
1000
,
0010
0100
0001
1001
0000
0110
0000
0010
,
1000
0100
0010
0011
0000
1010
0000
1000
,
0100
0010
0100
1001
0000
1100
0000
0010
,
0100
0010
0100
0001
1000
0010
0100
0010
,
1000
0100
0010
0011
0000
1100
0000
0010
,
0100
0001
0010
1010
0000
1100
0000
0010
,
0100
0010
0001
0110
0000
1001
0000
0010
,
0100
1000
0001
0010
1000
0010
0001
1000
,
0100
0010
0100
0001
0100
0010
1000
0000
,
0001
0001
0010
0100
0100
0100
0010
1000
,
1000
1000
0100
0020
0000
0130
0100
0000
,
1000
0100
0010
0001
0010
0100
1000
0100
,
0010
0001
0010
0100
1000
0100
0010
0000
,
0100
0010
1000
0100
0001
0100
1000
0010
,
0001
0100
0010
1000
0001
0100
0010
0000
,
1000
1000
0100
0010
0010
0010
0100
0001
,
0001
0001
0010
0100
0010
1000
1000
0000
,
0010
0100
0010
0100
0001
1000
0001
1000
,
0010
0001
0100
0010
1000
0010
0010
0010
,
1001
0100
0001
0100
0010
1000
0010
0100
,
0001
1000
0010
0100
0010
1001
0010
0000
,
0100
0001
0100
0010
1000
0010
0001
0100
,
0001
0010
0100
1000
,
0011
0100
0010
1000
0010
0001
0100
0010
,
1000
0100
0001
0100
1000
0100
0010
0000
,
0100
0010
0001
0010
1000
0010
0001
0100
,
0010
1000
0001
0100
,
0110
0100
0001
0010
1000
0010
0001
0100
,
0010
1000
0100
0001
0100
1000
0010
0000
,
0001
0100
0010
1000
0000
0100
0010
0001
,
0100
0010
0001
1000
,
0010
0100
1000
0011
0000
0011
0000
0100
,
0010
0001
0010
1100
0000
1100
0000
0010
,
0100
0010
1000
1001
0000
1001
0000
0010
,
0100
0001
1000
0010
0100
1000
0010
0000
,
1000
0100
0010
0022
0033
0202
0303
0010
,
0100
0001
0100
2020
3030
0202
0303
1000
,
0010
0100
0001
0220
0330
2002
3003
0010
,
0100
0001
1000
0010
0001
0010
0100
1000
,
0010
0001
0100
0010
1000
0001
0100
0010
,
0100
0020
0000
0031
0000
0100
0010
1000
,
0100
0002
0000
0013
0000
0100
0010
1000
,
0001
0210
0000
0310
0000
1000
0001
0010
,
0100
0102
0000
0013
0000
0100
0010
1000
,
0100
0000
0010
0100
0010
0100
0010
0001
,
1000
2002
0000
0000
,
0000
0000
0000
0000
,
0000
0000
0000
3003
;

//---------------dance-single - ----------------
#NOTES:
     dance-single:
     :
     Medium:
     6:
     0.420,0.414,0.041,0.136,0.000:
1000
0100
0010
0100
,
0001
0000
0010
0100
0000
0100
0010
0000
,
0001
0010
0100
1000
,
0010
0000
1000
0100
0000
0100
0010
0000
,
0002
0000
0000
0000
0000
1003
0100
1000
,
0200
0000
0000
0320
0000
0000
0030
0000
,
1000
0100
1000
0100
0000
0001
0010
0001
,
0020
0000
0000
0130
,
2000
0000
0000
0000
0000
3001
0010
0001
,
0020
0000
0000
0230
0000
0000
0300
0000
,
0001
1000
0001
1000
0000
0010
0100
0010
,
0200
0000
0000
0310
,
1000
0000
0100
0000
0010
0000
0001
0010
,
0001
0000
0000
0100
0000
0000
0010
0000
,
1000
0000
0100
0010
0000
0010
0100
0000
,
0020
0000
0000
0000
0000
0000
0000
0030
,
1000
0100
1000
0100
0000
0100
0000
0010
,
0001
0010
0001
0010
0000
0010
0000
0100
,
0010
0100
0010
0100
0000
0001
0000
0100
,
0010
1000
0001
0100
,
0010
0100
0010
1000
0000
1000
0000
0010
,
0001
0010
0001
0100
0000
0100
0000
0001
,
1000
0001
1000
0010
0000
0010
0000
0100
,
0010
1000
0100
1000
,
0001
0000
0010
0100
0000
0100
0010
0000
,
0001
0010
0100
0010
,
1000
0000
0100
1000
0000
0010
0100
0000
,
0010
0000
0100
0000
0010
0000
0001
0010
,
0001
0000
0010
0100
0000
0010
0100
0000
,
0010
0000
1000
0001
0000
0001
1000
0000
,
0110
0100
1000
0100
,
0010
0000
1000
0000
0100
0000
0001
1000
,
0001
0000
0100
0010
0000
1000
0100
0000
,
0010
0000
0100
0001
0000
0001
0010
0000
,
0100
0001
1000
0010
,
0001
0000
0010
0000
0100
0000
1000
0100
,
0100
0000
0010
1000
0000
1000
0010
0000
,
0100
0000
1000
0010
0000
0010
0100
0000
,
0001
0010
0100
1000
,
0010
0100
0010
0100
0000
1000
0000
0010
,
0100
0010
0100
0001
0000
0010
0000
0001
,
0010
0100
1000
0100
0000
0100
0000
0010
,
1000
0100
0010
0001
,
1000
1000
1000
1000
0000
0010
0000
0100
,
0001
0001
0001
0001
0000
0100
0000
0010
,
0100
0100
0100
0100
0000
0010
0000
1000
,
1001
0010
0001
0010
,
0100
0010
1000
0100
,
1000
0100
0000
0100
0010
0001
0000
0001
,
0010
0001
0000
0010
0000
0100
0000
0000
,
0020
0000
0100
0100
0000
0100
0130
0000
,
2000
0000
0001
0001
0000
0001
3001
0000
,
0200
0000
0010
0010
0000
0010
0310
0000
,
0002
0000
1000
1003
0000
0000
0000
0000
,
1000
0100
0000
0010
0000
0100
0001
0000
,
0010
1000
0000
0010
0000
0001
0100
0000
,
0010
0001
0000
0010
0000
0100
0010
0000
,
1000
0000
0001
1000
0000
0000
0100
0000
,
1001
0000
0010
0000
0100
0000
0001
0010
,
0001
0000
1000
0010
0000
1001
0000
0000
,
0010
0000
0100
1000
0000
0010
0100
0000
,
1000
0100
0010
0001
,
0200
0000
0000
0000
0000
0301
0010
0001
,
0010
0000
1000
0100
0000
0110
0000
0000
,
1000
0100
0010
0001
0000
0010
0100
0010
,
0100
0001
0010
0100
,
0010
0000
1000
0000
0001
0100
0001
0000
,
0010
0000
1000
0010
0000
0010
0100
0000
,
0010
0000
1000
0001
0000
0010
1000
0000
,
1000
0100
0010
0001
,
1000
0100
1000
0100
0000
0010
0000
0100
,
0001
0100
0001
0010
0000
0100
0000
0010
,
0001
0010
0001
0100
0000
0010
0000
0100
,
0010
1000
0001
0100
,
0001
0010
0100
1000
0000
0010
0000
0100
,
0001
0010
0100
1000
0000
0010
0000
0100
,
1000
0100
0010
0001
0000
0100
0000
0010
,
0001
0010
0100
1000
,
0010
0100
1000
0010
,
1000
0200
0000
0310
0000
0100
0000
0001
,
1000
0002
0000
0013
0000
0100
0000
0010
,
1000
0020
0000
0130
0000
0001
0000
1000
,
0010
0200
0000
0301
0000
0100
0010
0000
,
1000
0000
0010
0100
0010
0100
0010
0100
,
0010
2002
0000
0000
,
0000
0000
0000
0000
,
0000
0000
0000
3003
;

//---------------dance-single - ----------------
#NOTES:
     dance-single:
     :
     Easy:
     3:
     0.325,0.326,0.068,0.089,0.000: // measure 1
1000
1000
1000
1000
,  // measure 2
0010
0100
0010
0100
,  // measure 3
0001
0001
0001
0001
,  // measure 4
0010
0100
1000
0010
,  // measure 5
0200
0000
0300
0001
,  // measure 6
0001
0010
0100
0010
,  // measure 7
1000
0100
0001
0010
,  // measure 8
0200
0000
0300
0010
,  // measure 9
2000
0000
3000
0010
,  // measure 10
0100
1000
0100
0001
,  // measure 11
0100
0010
0001
0100
,  // measure 12
0020
0000
0030
0100
,  // measure 13
0002
0000
0003
0010
,  // measure 14
0100
1000
0010
0100
,  // measure 15
0010
0010
0100
0100
,  // measure 16
0002
0000
0000
0003
,  // measure 17
1000
0100
0010
0010
,  // measure 18
1000
0100
0001
0001
,  // measure 19
1000
0010
0100
0100
,  // measure 20
0010
1000
0001
0100
,  // measure 21
0001
0010
0100
0100
,  // measure 22
0001
0010
1000
1000
,  // measure 23
0001
0100
0010
0010
,  // measure 24
0100
0010
1000
0100
,  // measure 25
0001
0100
1000
0010
,  // measure 26
0100
0100
0100
0001
,  // measure 27
1000
1000
1000
0010
,  // measure 28
0110
0000
0001
0010
,  // measure 29
0100
0010
0001
0000
,  // measure 30
0010
0100
1000
0010
,  // measure 31
0100
0100
0001
0001
,  // measure 32
1001
0000
0010
0100
,  // measure 33
1000
0100
0010
0000
,  // measure 34
1000
0100
1000
0010
,  // measure 35
0100
0001
0010
1000
,  // measure 36
0110
0000
0010
0100
,  // measure 37
0010
0001
0010
0010
,  // measure 38
0100
0001
0010
1000
,  // measure 39
0010
0000
0100
1000
,  // measure 40
0010
1000
0100
0100
,  // measure 41
0010
0001
0100
0100
,  // measure 42
0010
0001
1000
1000
,  // measure 43
0010
0010
0010
0100
,  // measure 44
0010
0001
0010
0010
,  // measure 45
0100
1000
0100
0100
,  // measure 46
0001
1000
0001
0001
,  // measure 47
0010
0100
0010
0100
,  // measure 48
0001
1000
0001
1000
,  // measure 49
0001
0001
0010
0010
,  // measure 50
0100
0010
1000
0001
,  // measure 51
2000
3000
0100
0010
,  // measure 52
0200
0300
0001
0010
,  // measure 53
0200
0300
0010
1000
,  // measure 54
0002
0003
0010
0100
,  // measure 55
0001
0001
0010
0100
,  // measure 56
0020
0030
1000
1000
,  // measure 57
0100
0010
0100
0001
,  // measure 58
1000
1000
0010
0010
,  // measure 59
0110
1000
0100
0001
,  // measure 60
0100
1000
0010
1001
,  // measure 61
0010
0100
0010
0001
,  // measure 62
1000
1000
1000
0010
,  // measure 63
0110
1000
0100
0001
,  // measure 64
0100
1000
0010
1001
,  // measure 65
0010
0100
0010
0100
,  // measure 66
0001
0001
0001
0010
,  // measure 67
1001
0100
0010
0001
,  // measure 68
0100
0010
1000
0010
,  // measure 69
0100
0010
0001
1000
,  // measure 70
1000
0010
0100
0001
,  // measure 71
0100
0010
1000
1000
,  // measure 72
0010
0100
0001
0001
,  // measure 73
0010
0100
1000
1000
,  // measure 74
0010
0100
0010
0100
,  // measure 75
1000
0100
0010
0010
,  // measure 76
1000
0100
0001
0001
,  // measure 77
1000
0010
0100
0100
,  // measure 78
0010
0001
1000
0100
,  // measure 79
0010
0100
0001
1000
,  // measure 80
0010
0010
0100
0100
,  // measure 81
0001
0010
1000
0010
,  // measure 82
0001
0001
1000
1000
,  // measure 83
0010
0100
0001
1000
,  // measure 84
0110
0000
0000
0000
,  // measure 85
0000
2002
0000
0000
,  // measure 86
0000
0000
0000
0000
,  // measure 87
0000
0000
0000
3003
;
