#TITLE:Mask;
#SUBTITLE:;
#ARTIST:Stellar;
#TITLETRANSLIT:;
#SUBTITLETRANSLIT:;
#ARTISTTRANSLIT:;
#CREDIT:;
#BANNER:Mask banner.png;
#BACKGROUND:Mask bg.png;
#LYRICSPATH:;
#CDTITLE:;
#MUSIC:Mask.mp3;
#OFFSET:-8.820;
#SAMPLESTART:48.580;
#SAMPLELENGTH:15.000;
#SELECTABLE:YES;
#BPMS:0.000=117.000;
#STOPS:;
#BGCHANGES:;

//---------------dance-single - ----------------
#NOTES:
     dance-single:
     :
     Hard:
     7:
     0.420,0.394,0.140,0.093,0.181:
1100
0100
1010
0010
,
0201
0310
0001
0010
,
0100
0000
1000
0000
0010
0000
0100
0010
,
0002
0000
0000
0000
0000
0000
0000
0000
0013
0000
0000
1000
0100
0000
1000
0000
,
0100
0000
0010
0100
0001
0010
1000
1000
,
0010
0100
0000
1000
0000
0000
0100
0000
0010
0000
0100
0000
0001
0000
0001
0000
,
0010
0000
0100
0000
0010
0000
1000
0000
0001
0000
0000
0002
0000
0000
0000
0000
,
0013
0000
0100
0000
1000
0000
0100
0000
0010
0000
0000
0020
0000
0000
0030
0000
,
0100
0001
0000
0001
0000
0000
0010
0000
0100
0000
1000
0000
0010
0000
0010
0000
,
0101
0000
0000
0100
0000
0000
0010
0000
1000
0000
0010
0000
0100
0000
0100
0000
,
1000
0000
0100
0000
0010
0000
0001
0000
1000
0000
0000
2000
0000
0000
0000
0000
,
3100
0010
0100
0001
1000
0000
0010
0000
,
1000
0000
0000
0100
0000
0000
1000
0000
0010
0000
0000
0100
0000
0000
0010
0000
,
0001
0000
0000
0001
0000
0000
0010
0000
0110
0000
0000
0000
1001
0000
0000
0000
,
0020
0000
0000
0130
0000
0000
1000
0000
0001
0000
0000
0010
0000
0000
0100
0000
,
1000
0000
0000
0010
0000
0000
0100
0000
0001
1000
0001
0000
0010
0000
0000
0000
,
0100
1000
0010
0100
0001
0000
0010
0100
,
0000
0010
0100
0010
1000
0000
0100
0010
,
0001
0000
1000
0000
0010
0100
0001
1000
,
0000
0000
1000
0000
0000
0000
0001
0010
0100
0000
0010
0000
0100
0000
1000
0000
,
0000
1000
1100
0010
0100
0001
0010
0002
,
0000
0000
0013
0000
0010
0000
0000
0100
0010
0000
1000
0000
0001
0000
1000
0000
,
0000
0000
1001
0000
0000
0000
0010
0000
0010
0000
0100
0000
0001
0000
0010
0100
,
1000
0000
0100
1000
0010
0100
0001
0020
,
0000
0000
0130
0000
1000
0001
0000
0010
0100
0000
0000
0000
0010
0000
0010
0000
,
0100
0000
0001
0000
0010
0000
1000
0100
2000
0000
0000
0000
3100
0000
0010
0000
,
0110
0000
1001
0000
0100
0010
1000
0001
,
2000
0000
0100
3000
1000
1000
0100
0010
,
0100
0000
0001
0000
0010
0000
0100
0010
,
1000
0100
0011
1100
,
0010
0000
0010
0000
0100
0000
0001
0010
,
0100
0000
0010
0100
0010
0000
0010
0000
,
1100
0010
0100
0001
,
0011
0100
0001
1000
,
0001
0000
0010
0000
0100
0000
0010
0010
,
1000
0100
0010
0001
,
0010
0100
0000
0000
0001
0000
0010
0000
0100
0000
1000
0000
0010
0000
0010
0000
,
0100
0001
0000
1000
0000
0000
0010
0000
0100
0000
0010
0000
0001
0000
0001
0000
,
1000
0000
0100
0000
0010
0000
0100
0000
0001
0000
0000
1000
0000
0000
0010
0100
,
0000
0000
0001
0000
1000
0000
0010
0000
0100
0000
0000
0001
0000
0000
0010
0000
,
0100
0010
0000
1000
0000
0000
0100
0000
1000
0000
0100
0000
0001
0000
0010
0000
,
0100
0000
0000
0001
0000
0000
0100
0000
0010
0000
1000
0000
0010
0000
0010
0000
,
0100
0000
0001
0000
1000
0000
0010
0000
0100
0000
0000
1000
0000
0000
0010
0100
,
0000
0000
0001
0000
0010
0000
0100
0000
0001
0000
0000
1000
0000
0000
0001
0000
,
0010
0000
0000
0100
0000
0000
0010
0000
1000
0000
0000
0100
0000
0000
0010
0000
,
0100
0000
0000
0001
0000
0000
0010
0000
0100
0000
0010
0000
0100
0000
0000
0000
,
1000
0000
0000
0100
0000
0000
0010
0000
0100
0000
0000
0001
0000
0000
0010
0000
,
0110
0000
0000
0000
;

//---------------dance-single - ----------------
#NOTES:
     dance-single:
     :
     Medium:
     4:
     0.289,0.262,0.074,0.019,0.000:
1000
0100
0010
0001
,
0100
0001
0010
0010
,
0100
0000
0010
0000
1000
0000
0001
0010
,
0000
0000
0100
0010
,
1000
0000
0100
0000
1000
0010
1000
0000
,
0100
0000
0001
0000
0100
0010
0100
0000
,
0001
0010
0100
1000
,
0100
0100
0010
0110
,
0001
0000
0010
0000
0001
1000
0001
0000
,
0100
0000
0100
0000
0010
1000
0010
0000
,
0100
1000
0010
0100
,
0001
0000
0010
0110
,
0010
0001
0010
0100
,
0010
0000
1000
0010
0100
0000
0100
0000
,
0001
1000
0100
1000
,
0010
0000
0001
0100
0002
0000
0003
0000
,
0010
0000
0100
0000
0010
0000
1000
0100
,
0000
0100
1000
0000
0010
0000
0100
0001
,
0100
0000
0010
0000
0001
0010
0100
0000
,
0110
0000
1000
0001
,
1100
0000
0011
0000
0100
0000
0010
0100
,
0000
0100
0010
0000
1000
0000
0100
0001
,
0000
0100
0000
0010
1000
0000
0010
0100
,
0010
0100
0001
1000
,
0010
0000
0001
0000
0010
0000
0100
0100
,
0000
1000
0000
0100
1000
0000
0010
0000
,
0100
0000
0100
0000
0001
0000
0010
0100
,
0010
0000
0000
0000
0100
0100
0100
0000
,
1000
0100
0010
0100
,
0010
0001
0100
0100
,
0010
0000
1000
0000
0100
0000
0001
0100
,
0000
0010
0000
1000
0010
0000
0100
0000
,
0010
0100
0010
0001
,
0010
1000
0100
0100
,
1100
0000
0010
0000
0110
0000
0001
1000
,
0000
0000
0000
0100
0010
0000
1000
0000
,
0001
0000
0100
0000
0010
0000
1000
0100
,
1000
0000
0010
0000
0100
0010
0001
0000
,
0010
0000
0100
0010
0100
0000
0001
0000
,
0010
0000
0100
1000
0100
0000
0010
0000
,
0100
0000
0001
0000
0010
0000
1000
0001
,
1000
0000
0010
0000
0001
0100
1000
0000
,
0010
0000
0100
0010
0001
0000
0100
0000
,
0020
0000
0030
0100
,
0010
0100
0001
0010
,
1000
0100
0010
0000
0100
0000
0010
0000
,
1000
0000
0100
0000
0001
0000
0100
0010
,
0110
0000
0000
0000
;

//---------------dance-single - ----------------
#NOTES:
     dance-single:
     :
     Easy:
     3:
     0.233,0.197,0.009,0.130,0.000: // measure 1
1000
0000
0100
0000
,  // measure 2
0010
0000
0100
0001
,  // measure 3
0200
0300
0020
0030
,  // measure 4
1000
0000
0000
0001
,  // measure 5
0010
0100
0010
0010
,  // measure 6
0100
1000
0100
0100
,  // measure 7
0001
0010
0200
0300
,  // measure 8
0010
0100
2000
3000
,  // measure 9
0010
0100
0001
0001
,  // measure 10
0010
1000
0001
0001
,  // measure 11
0010
0100
0002
0003
,  // measure 12
0010
0100
0020
0030
,  // measure 13
0100
0100
1000
0100
,  // measure 14
0010
0100
0001
0000
,  // measure 15
0010
0100
0010
0100
,  // measure 16
1000
0010
1000
0000
,  // measure 17
0100
1000
0100
0100
,  // measure 18
0010
0001
0010
0100
,  // measure 19
0020
0030
0000
0100
,  // measure 20
0010
0000
0100
0100
,  // measure 21
0010
0100
0001
0010
,  // measure 22
1000
0200
0300
1000
,  // measure 23
1000
0100
0010
0100
,  // measure 24
0002
0003
0010
0010
,  // measure 25
0100
0001
0001
0010
,  // measure 26
0100
1000
1000
0000
,  // measure 27
0010
0010
0100
0100
,  // measure 28
0001
0000
1000
0010
,  // measure 29
0100
0001
0010
0100
,  // measure 30
0010
1000
0100
0010
,  // measure 31
0100
0100
0010
0010
,  // measure 32
0100
0000
0001
0000
,  // measure 33
1000
0100
1000
0010
,  // measure 34
0100
0010
0001
0100
,  // measure 35
0001
0010
0100
0010
,  // measure 36
2000
3000
0000
0100
,  // measure 37
0100
1000
0100
0100
,  // measure 38
0010
0100
0010
0010
,  // measure 39
0100
1000
0020
0030
,  // measure 40
0100
0001
0200
0300
,  // measure 41
0010
0001
0010
0010
,  // measure 42
0100
1000
0100
0100
,  // measure 43
0010
0100
2000
3000
,  // measure 44
0010
0001
0200
0300
,  // measure 45
0010
0001
0010
0100
,  // measure 46
0010
0001
1000
0000
,  // measure 47
0010
0100
0010
0100
,  // measure 48
1001
0000
0000
0000
;
