#TITLE:Maria;
#SUBTITLE:;
#ARTIST:HWASA;
#TITLETRANSLIT:;
#SUBTITLETRANSLIT:;
#ARTISTTRANSLIT:;
#CREDIT:;
#BANNER:Maria banner.png;
#BACKGROUND:Maria bg.png;
#LYRICSPATH:;
#CDTITLE:;
#MUSIC:Maria.mp3;
#OFFSET:-7.540;
#SAMPLESTART:52.620;
#SAMPLELENGTH:15.000;
#SELECTABLE:YES;
#BPMS:0.000=129.000,163.250=102.300,196.000=64.500,216.000=129.000;
#STOPS:163.250=0.200
;
#BGCHANGES:;

//---------------dance-single - ----------------
#NOTES:
     dance-single:
     :
     Hard:
     8:
     0.502,0.578,0.209,0.086,0.191:
1000
0101
0010
1001
,
0100
1010
0100
1001
,
0100
0010
0001
0010
0100
0000
0010
0100
,
1000
0000
0100
0010
0010
0100
0001
0000
,
1000
0100
0010
0001
0020
0000
0130
0001
,
0001
0010
0100
0010
1000
0000
0110
0000
,
1000
0001
0100
1000
0200
0000
0301
0010
,
0010
0000
0001
0000
0010
0000
0100
0000
0000
0000
1000
0100
0010
0001
0010
0100
,
1000
0000
1001
0000
0100
0010
0002
0000
,
0013
0000
0000
0000
0100
0000
0010
0000
0000
0000
0001
0010
0100
1000
0100
0010
,
0001
0000
0110
0000
1000
0100
2000
0000
,
3100
0000
0000
0010
0100
0000
0100
0000
0000
0000
1000
0000
0010
0000
0010
0000
,
0100
0001
1000
0000
0100
0010
1000
1000
,
0100
0001
0000
0000
0100
0000
0000
0000
0010
0000
0010
0000
0100
0000
0001
0000
,
1000
0100
0010
1000
1000
0001
0001
0100
,
0010
0000
0001
1000
0000
0110
0100
0011
,
1000
0100
0010
0001
0010
0010
0100
1000
,
0001
0010
0100
1000
0100
1000
1000
0000
,
0100
0001
0001
0010
1000
0001
0010
0100
,
0100
0010
1000
0001
0000
0100
1000
1000
,
0011
0000
0010
0100
0110
0000
1000
0100
,
0010
0100
0001
0010
1000
0010
0010
0100
,
0001
0000
0010
0000
1000
0000
0010
0000
0100
0000
0001
0000
0110
0000
0000
0220
,
0000
0000
0000
0000
0000
0330
0000
0000
,
0000
1100
0110
0011
,
1000
0100
0020
0000
0130
0010
0010
0001
,
0010
0100
2000
0000
3010
0100
0100
0010
,
0100
1000
0001
0110
0100
1000
0100
0010
,
0100
1000
0001
0100
0010
0000
1001
0000
,
0010
0100
0002
0000
0013
1000
1000
0100
,
1000
0010
0002
0000
0013
0100
0001
0010
,
1000
0100
0000
0000
0010
1000
0000
0000
0001
0100
0000
0000
0010
0000
0100
0000
,
0001
1000
0000
0000
0100
1000
0000
0000
0110
0000
0000
0000
1001
0000
0000
0000
,
1000
0000
0100
0010
1000
0001
0010
0100
,
0000
0001
1000
0010
0100
0010
1000
0100
,
0001
0000
0010
0100
0010
0001
0010
1000
,
0000
0100
1000
0010
0100
0001
0010
0100
,
1001
0000
0010
0100
0010
1000
0100
0010
,
0000
0100
0010
0001
0010
0100
0010
1000
,
0010
0000
0001
0100
0010
0100
1000
0100
,
0000
0000
0010
0000
1000
0001
0000
0000
0110
0000
0000
0000
0000
0000
0000
0000
,
1001
0000
0000
0100
0010
0000
0001
0000
0010
0000
0100
1000
0100
0000
0010
0000
,
0100
0000
0000
0000
0000
0000
0000
0000
0000
0010
0000
0000
0001
0000
0000
0000
0000
0000
0010
0000
0000
0000
0000
0000
0100
0000
0000
0100
0000
0000
0010
0000
0000
0001
0000
0000
0010
0000
0000
0000
0100
0000
0000
0000
1000
0000
0000
0000
,
0100
0000
0000
0010
0100
0000
0010
0000
1000
0000
0100
0001
0100
0000
0010
0000
,
0001
0000
0000
0000
0000
0000
0000
0000
0100
0000
0010
0001
0010
0000
1000
0000
,
1001
0000
0100
1000
0100
0000
0010
0000
0100
0000
0000
0010
0001
0000
0100
0000
,
0010
0000
1000
0001
1000
0000
0100
0000
0010
0000
0000
1000
0100
0000
0010
0000
,
0100
0000
0001
0100
0010
0000
0100
0000
1000
0000
0000
0010
0100
0000
1000
0000
,
0100
0000
0010
0001
0010
0000
0100
0000
0010
0000
1000
0001
1000
0000
0000
0000
,
2002
0000
0000
3003
0000
0001
0010
0100
,
1000
0100
1000
0000
0100
0010
0001
0010
0100
1000
0100
0000
0010
1000
0100
0100
,
0010
0001
0010
0000
0000
1000
0100
0001
0010
0100
1000
0000
0000
0000
1000
0000
,
1001
0010
0100
0000
0010
0001
0010
0100
0010
1000
0100
0000
0010
0100
0001
0010
,
0001
0000
0010
0000
0100
0000
1000
0100
0010
0000
0001
0000
0010
0000
0100
0000
,
1001
0000
0100
0010
0100
0001
0010
1000
,
0100
0000
0010
0100
1000
0100
0010
0100
,
0001
0000
0010
0100
0010
0100
1000
0010
,
0000
0000
0100
0000
0001
0000
1000
0000
0010
0000
0001
0000
1000
0100
0010
0001
,
0100
0000
0010
0100
1000
0100
0010
1000
,
0100
0000
0001
0100
0010
0001
0010
1000
,
0010
0000
0100
0001
0010
1000
0010
0100
,
0010
0000
0000
0000
1000
0001
0000
0000
0110
0000
0000
0000
1001
0000
0000
0000
;

//---------------dance-single - ----------------
#NOTES:
     dance-single:
     :
     Medium:
     6:
     0.331,0.356,0.130,0.022,0.000:
1000
1001
0100
0110
,
0001
1001
0010
0110
,
1000
0000
0100
0010
0001
0000
0010
0000
,
0200
0000
0000
0310
,
1000
0001
1000
0000
0010
0000
0100
0001
,
0001
0000
0010
1000
0010
0000
0110
0000
,
1000
0001
1000
0000
0100
0000
1000
0000
,
0010
0000
0100
0001
0000
0010
0100
0000
,
0110
0000
0010
0000
1000
0010
0002
0000
,
0003
0000
0100
0000
0010
0000
1000
0100
,
1000
0000
0110
0000
0001
0010
2000
0000
,
3000
0010
0100
0001
,
1000
0100
0100
0000
0010
0000
0100
0000
,
0001
0010
0010
0000
0100
0000
0010
0000
,
0110
0000
1000
0000
0100
0000
0010
0001
,
0010
0000
0100
1000
0000
0000
0010
0000
,
0110
1000
0100
0010
,
1000
0000
0100
0010
0100
0000
0001
0010
,
0100
0000
0010
0000
0100
0000
1000
0100
,
0010
1000
0010
0100
,
0001
0010
0100
1000
,
0010
0100
0010
0000
1000
0000
1000
0000
,
0100
0000
0010
0000
1000
0100
0010
0000
,
0110
0000
0000
0000
,
0000
1001
0110
1001
,
0010
0100
0010
0000
1000
0000
0100
0000
,
0001
0010
0001
0000
0010
0000
0100
0000
,
1000
0010
0100
0000
0001
0000
1000
0000
,
0010
0100
0001
0000
0010
0000
0110
0000
,
1000
0010
0100
0000
0010
0000
0100
0000
,
0001
1000
0100
0000
0010
0000
0100
0000
,
0001
0010
0010
0100
,
0010
1000
1000
0010
,
0100
0000
0001
0010
0001
0000
0100
0010
,
0000
1000
0100
0000
0010
0000
0100
0000
,
0010
0000
1000
0100
1000
0000
0010
0100
,
0000
1000
0010
0000
0100
0000
0100
0000
,
1001
0000
0010
0100
0010
0000
1000
0100
,
0000
0010
0100
0000
0001
0010
0001
0000
,
0010
0000
0100
0001
0100
0000
0010
1000
,
0000
0010
0010
0000
,
0100
0000
0010
0000
0100
0000
0001
0010
,
0100
0000
0010
0000
1000
0000
0100
1000
,
0010
0000
0100
0000
1000
0000
0010
0100
,
0001
0000
0000
0000
1000
1000
0100
0100
,
0010
0000
1000
0100
0010
0000
0100
0000
,
0001
0000
1000
0010
0100
0000
0001
0000
,
0010
0000
0100
0001
1000
0000
0010
0000
,
0100
0100
0100
0001
0001
0000
0010
0000
,
0110
0000
0000
0000
0000
0001
0010
0100
,
0010
0010
0000
1000
0100
0010
0000
0100
,
0010
0001
0000
0010
0100
1000
0000
0100
,
0100
0010
0000
1000
0100
0010
0000
0100
,
0010
0010
0001
0010
0100
1000
0100
0010
,
1001
0000
0100
1000
0010
0000
0100
1000
,
0000
0010
0100
0000
0001
1000
0010
0000
,
0001
0000
0100
0001
0010
0000
1000
0100
,
0000
0100
1000
0000
0010
0100
0010
0001
,
0010
0000
0100
0001
1000
0000
0010
0100
,
0000
0100
1000
0000
0010
0000
0001
1000
,
0010
0000
0100
0010
0100
0000
0001
1000
,
0000
0010
0100
0000
0010
0000
1001
0000
;

//---------------dance-single - ----------------
#NOTES:
     dance-single:
     :
     Easy:
     3:
     0.243,0.222,0.065,0.036,0.000: // measure 1
0010
0100
0010
0100
,  // measure 2
0001
1000
0001
1000
,  // measure 3
0100
0100
0010
0100
,  // measure 4
0002
0000
0003
0010
,  // measure 5
1001
0100
1000
0010
,  // measure 6
0100
0001
0010
0000
,  // measure 7
0100
0010
0001
0010
,  // measure 8
0100
0010
1000
0100
,  // measure 9
0100
2000
0000
3010
,  // measure 10
0100
1000
0100
0010
,  // measure 11
0100
0002
0000
0013
,  // measure 12
0100
0010
1000
1000
,  // measure 13
0100
1000
0100
0010
,  // measure 14
0100
0001
0010
0000
,  // measure 15
0100
0010
0001
1000
,  // measure 16
0100
0010
0100
0000
,  // measure 17
0001
0001
0010
0010
,  // measure 18
0100
0100
1000
1000
,  // measure 19
0010
0100
1000
0001
,  // measure 20
0100
1000
0010
0010
,  // measure 21
1000
0100
0010
0001
,  // measure 22
1000
0100
0010
0100
,  // measure 23
1000
1000
0001
0001
,  // measure 24
0110
0000
0000
0000
,  // measure 25
0000
1000
0010
0100
,  // measure 26
1001
0010
0001
0100
,  // measure 27
0010
0010
0100
0001
,  // measure 28
0010
1000
0100
0010
,  // measure 29
1000
1000
0010
0100
,  // measure 30
0110
0001
0010
0001
,  // measure 31
1000
0100
1000
0010
,  // measure 32
1000
1000
0100
0010
,  // measure 33
0100
0100
0100
0010
,  // measure 34
0100
1000
1000
0010
,  // measure 35
0000
0100
0001
0010
,  // measure 36
0001
0100
0010
1000
,  // measure 37
0000
0100
0010
0010
,  // measure 38
0100
0001
0010
0001
,  // measure 39
0000
1000
0010
0100
,  // measure 40
1000
0010
0100
0001
,  // measure 41
0000
0100
0100
0000
,  // measure 42
1000
0100
0010
0010
,  // measure 43
0100
0001
0010
0010
,  // measure 44
1000
0010
0100
0100
,  // measure 45
0010
0000
1000
1000
,  // measure 46
0110
0001
0001
0010
,  // measure 47
0100
0010
0010
1000
,  // measure 48
0100
1000
1000
0010
,  // measure 49
0100
0001
1000
0010
,  // measure 50
0220
0000
0330
0000
,  // measure 51
1000
0000
0100
0000
,  // measure 52
0010
0000
0001
0000
,  // measure 53
0100
0000
0010
0000
,  // measure 54
0100
0100
0010
0100
,  // measure 55
1001
0100
1000
0100
,  // measure 56
0010
0100
0100
0010
,  // measure 57
0001
0010
0100
0010
,  // measure 58
1000
0100
0010
0001
,  // measure 59
1001
0010
0100
0100
,  // measure 60
0010
0001
0010
0100
,  // measure 61
0010
1000
1000
0100
,  // measure 62
0010
0100
0001
1001
;
