#TITLE:Malibu;
#SUBTITLE:;
#ARTIST:Kim Petras;
#TITLETRANSLIT:;
#SUBTITLETRANSLIT:;
#ARTISTTRANSLIT:;
#CREDIT:;
#BANNER:Malibu banner.png;
#BACKGROUND:Malibu bg.png;
#LYRICSPATH:;
#CDTITLE:;
#MUSIC:Malibu.mp3;
#OFFSET:-4.160;
#SAMPLESTART:56.140;
#SAMPLELENGTH:15.000;
#SELECTABLE:YES;
#BPMS:0.000=120.000;
#STOPS:;
#BGCHANGES:0.000=Malibu.avi=1.000=0=0=0,
99999=-nosongbg-=1.000=0=0=0 // don't automatically add -songbackground-
;

//---------------dance-single - ----------------
#NOTES:
     dance-single:
     :
     Hard:
     8:
     0.472,0.520,0.260,0.075,0.496:
0000
0000
0000
0000
,
0000
0000
0000
0000
,
1001
0000
0000
0000
0001
0010
0000
1000
0000
0100
0000
0010
0000
1000
0000
0010
,
0000
0100
0000
0000
1001
0000
0000
0000
0100
0000
0010
0000
0100
0000
0000
0000
,
0002
0000
0000
0000
0013
0100
0000
0001
0000
0010
0000
1000
0000
0010
0000
0000
,
0101
1010
0110
1001
,
0100
0000
0000
0000
1000
0100
0000
0001
0000
1000
0000
0001
0000
0010
0000
0001
,
0000
0100
0000
0000
0110
0000
0000
0000
1000
0000
0001
0000
1000
0000
0000
0000
,
0010
0000
0000
1000
0100
0010
0000
0100
0000
0001
0000
0100
0000
0000
0010
1000
,
0010
0000
0000
0001
0010
0100
0000
0010
0000
0100
0000
1000
0010
0000
0100
0000
,
0110
0000
0000
0000
2000
0000
0000
0100
0000
0100
0000
0000
3100
0000
0000
0000
,
0010
0000
0000
0000
0002
0000
0000
0010
0000
0010
0000
0000
0013
0000
0100
0000
,
0010
0000
0000
0000
1000
0000
0000
0001
0000
0010
0000
0000
0100
0000
0000
0000
,
0110
0000
0000
0001
0010
1000
0000
0001
0000
1000
0000
0010
0000
0000
0100
0010
,
0100
0000
0000
0000
0020
0000
0000
0100
0000
0100
0000
0000
0130
0000
0000
0000
,
1001
0000
0000
0000
0200
0000
0000
0010
0000
0010
0000
0000
0310
0000
1000
0000
,
0010
0000
0000
0000
0001
0000
0000
0100
0000
0010
0000
0000
0100
0000
0000
0000
,
0010
1000
0001
0100
1000
0010
0100
0000
,
0110
0000
1000
0000
0100
0001
0000
0100
0000
0010
0000
1000
0000
0100
0000
0010
,
0000
0100
0000
0000
0011
0000
0000
0100
1000
0100
0000
0000
0110
0000
0000
0000
,
1000
0000
0000
0100
0010
0001
0000
0010
0000
0100
0000
0010
0000
1000
0000
0000
,
1100
0110
0011
1001
,
0010
0000
0000
0100
1000
0010
0000
0100
0000
0001
0000
0010
0000
1000
0000
0001
,
0000
0010
0000
0000
0110
0000
0000
0001
0010
0001
0000
0000
1000
0000
0000
0000
,
1010
0000
0000
0100
1000
0100
0000
0010
0000
0100
0000
0020
0000
0000
0031
0100
,
0001
0000
0000
0010
0100
0001
0000
0010
0000
1000
0000
0020
0000
0000
0130
1000
,
0100
0000
0001
0000
0100
0000
0010
1000
0000
1000
0000
0000
0110
0000
0000
0000
,
1000
0000
0100
0000
0010
0000
0100
0001
0000
0001
0000
0000
0010
0000
0100
0000
,
0010
0000
1000
0000
0100
0000
0001
1000
0000
1000
0000
0000
0110
0000
0000
0000
,
1000
0000
0000
0010
0100
0010
0000
1000
0000
0001
0000
0100
0000
0000
0010
0100
,
0010
0000
0001
0000
1000
0000
0010
0100
0000
0100
0000
0000
1001
0000
0000
0000
,
1000
0000
0100
0000
0010
0000
0100
0001
0000
1000
0000
0000
0010
0000
0100
0000
,
0010
0000
0001
0000
1000
0000
0010
0100
0000
0100
0000
0000
1010
0000
0000
0000
,
1000
0000
0000
1000
0100
0010
0000
0100
0000
1000
0000
0010
0100
0000
0001
0010
,
0001
0010
0100
0000
0010
0100
1000
0000
,
0010
1000
0010
0000
0100
1000
1000
0000
,
0011
0000
0000
0000
0110
0000
0000
1000
0000
0001
0000
0000
0100
0000
0000
0000
,
0010
0000
1000
0000
0010
0000
0000
0100
0000
0001
0000
0010
0000
0000
0100
0000
,
0110
0001
0010
0000
1000
0100
1000
0000
,
0010
1000
0001
0000
0100
0010
1000
0000
,
0101
0000
0000
0000
0011
0000
0000
0010
0000
0100
0000
0000
1000
0000
0000
0000
,
0010
0100
0001
1000
0010
0100
0001
0001
,
0020
0000
0000
0000
0000
0000
0000
0230
0000
0000
0000
0000
0000
0000
0000
0000
,
1300
0100
0010
0001
,
2000
0000
0000
0000
0000
0000
0000
3200
0000
0000
0000
0000
0000
0000
0000
0000
,
0310
0100
0001
1000
,
0010
0100
0001
0001
0010
0100
0010
1000
,
0000
0100
1000
0000
0010
0000
0000
0100
0000
0001
0000
0000
0010
0000
0000
0000
,
0100
0010
0010
1000
0001
0100
0001
0010
,
0000
0100
0000
0010
0000
0100
1000
0100
,
0000
0010
0010
0100
0001
0100
0010
1000
,
0000
1000
0010
0010
0001
0000
0110
0000
,
1000
0100
0001
0100
1000
0010
0100
0010
,
1000
0100
0010
0001
0000
0010
0100
0010
,
0110
0000
0000
0000
,
0000
0000
0000
0000
,
0100
0000
0000
1001
,
0010
0000
0100
0000
0010
0000
0001
0010
0000
0100
0010
0000
1000
0000
0100
0000
,
0010
0000
1000
0000
0100
0000
0001
1000
0000
0010
1000
0000
0100
0000
0100
0000
,
0110
0000
0000
0000
1001
0000
0000
0010
0000
0100
0000
0000
0001
0000
0000
0000
,
0010
0000
0000
0001
0100
0001
0000
0010
0000
0100
0000
0010
0000
0000
1000
0100
,
0010
0000
0100
0000
0001
0000
0010
0100
0000
0100
1000
0000
0010
0000
0100
0000
,
0010
0000
1000
0000
0001
0000
0100
1000
0000
0100
0010
0000
0100
0000
0100
0000
,
0101
0000
0000
0000
1010
0000
0000
0100
0000
1000
0000
0000
0110
0000
0000
0000
,
1000
0100
0010
0001
0010
0100
1000
0000
,
0011
0000
0010
0000
0100
0000
0000
0010
0000
0100
0010
0000
0001
0000
1000
0000
,
0010
0000
0000
0000
0100
0000
0000
1000
0000
0010
0100
0000
0001
0000
0100
0000
,
1000
0000
0000
0000
0010
0000
0000
0001
0000
1000
0001
0000
0100
0000
0100
0000
,
0001
0000
1000
0000
0001
0000
0010
0100
,
0110
0000
0000
0000
;

//---------------dance-single - ----------------
#NOTES:
     dance-single:
     :
     Medium:
     6:
     0.329,0.331,0.233,0.089,0.000:
0000
0000
0000
0000
,
0000
0000
0000
0000
,
1000
0100
0010
0100
,
0001
0100
0020
0000
0130
0000
0001
0000
,
0010
0100
0010
1000
,
0011
0110
1100
1001
,
0100
1000
0010
0100
,
1000
0001
2000
0000
3010
0000
0100
0000
,
0010
0001
0100
0100
,
0010
1000
0010
0010
,
0101
1010
0100
0100
,
1010
0000
1100
0000
0010
0000
0001
0100
,
0001
0000
0010
0000
0100
0100
0100
0000
,
0010
0000
1000
0001
1000
0000
0010
0000
,
1100
0011
0100
0100
,
0110
0000
1001
0000
0010
0000
0010
1000
,
0010
0000
0100
0000
0001
0001
0001
0000
,
0010
0100
1000
0110
,
1000
0100
0001
0100
,
0010
1000
0002
0000
0013
0000
0100
0000
,
0110
0010
1000
0010
,
1100
0110
0011
1001
,
0010
0100
0010
0100
,
0001
1000
0200
0000
1300
0000
0010
0000
,
0100
0000
0010
1000
0010
0000
0100
0001
,
0100
0000
0010
0100
0010
0000
1000
0001
,
1000
0000
0100
0000
0010
0010
0100
0000
,
0001
0000
1000
0000
0010
0100
0100
0000
,
0011
0000
1100
0000
0010
0100
0010
0000
,
0100
0001
0010
1000
,
0100
0000
0010
0000
1000
0100
0100
0000
,
0001
0000
1000
0000
0010
0001
0001
0000
,
0110
0000
1001
0000
0010
0100
0010
0000
,
1000
0100
0010
0001
,
1000
0000
0200
0000
0010
0010
0310
0000
,
0001
0000
0020
0000
0100
0100
0130
0000
,
1010
0000
1100
0000
0010
0010
0100
0000
,
0001
1000
0010
0100
,
0001
0000
0020
0000
0001
0001
0031
0000
,
0010
0000
0200
0000
1000
1000
1300
0000
,
0110
0000
1100
0000
0010
0001
0010
0000
,
0100
0010
0100
0010
,
2000
0000
3200
0000
,
0000
0000
0000
0300
0000
0000
0010
0000
,
0200
0000
0302
0000
,
0000
0000
0000
0003
0010
0000
0100
0000
,
0010
0010
0100
0100
,
0001
0011
0000
1000
,
0100
0010
1000
0100
,
0010
1000
0010
0100
,
0010
0001
0100
0010
,
1000
1100
0000
0010
,
0100
0100
0010
1000
,
0001
0010
0100
1000
,
0110
0000
0000
0000
,
0000
0000
0000
0000
,
0100
0000
0000
0000
0001
0000
1000
0100
,
0010
0000
0100
0000
0010
0001
1000
0000
,
0010
0000
0100
0000
0001
0010
1000
0000
,
0110
0000
1100
0000
0010
1000
0010
0000
,
0100
0000
0001
1000
0001
0000
0100
0000
,
0010
0000
0100
0000
1000
0100
0010
0000
,
0100
0000
0001
0000
0010
0001
1000
0000
,
0110
0000
1001
0000
0010
0100
0010
0000
,
1000
0000
0001
0000
0100
0100
0200
0000
,
0310
0000
1000
0100
0010
0001
0100
0000
,
0010
0000
0100
0001
0010
1000
0010
0000
,
0100
0010
1000
0001
,
0100
0000
0010
0100
0010
0000
1000
0000
,
1001
0000
0000
0000
;

//---------------dance-single - ----------------
#NOTES:
     dance-single:
     :
     Easy:
     4:
     0.255,0.260,0.075,0.055,0.000: // measure 1
0000
0000
0000
0000
,  // measure 2
0000
0000
0000
0000
,  // measure 3
0010
0010
0100
0010
,  // measure 4
0100
0002
0003
0010
,  // measure 5
0100
1000
0010
0100
,  // measure 6
0010
0010
0010
0110
,  // measure 7
1000
0100
1000
0010
,  // measure 8
0100
2000
3000
0010
,  // measure 9
0100
0100
0001
0001
,  // measure 10
0010
0010
1000
1000
,  // measure 11
0010
0100
0010
0010
,  // measure 12
0100
0001
0100
0100
,  // measure 13
0010
0100
1000
0100
,  // measure 14
0010
0100
0001
0010
,  // measure 15
1000
0100
1000
1000
,  // measure 16
0010
0100
0001
0001
,  // measure 17
0010
0100
0010
0001
,  // measure 18
0010
0100
0010
1000
,  // measure 19
0100
0010
0010
0100
,  // measure 20
0010
0000
0200
0000
0300
0010
0010
0000
,  // measure 21
0100
0010
1000
0100
,  // measure 22
0001
0001
0001
1001
,  // measure 23
0100
0010
1000
0100
,  // measure 24
0001
0000
0200
0000
0300
0010
0010
0000
,  // measure 25
0100
0010
0010
0100
,  // measure 26
0001
1000
1000
0010
,  // measure 27
0110
1000
1000
0100
,  // measure 28
0110
0001
0001
0010
,  // measure 29
0100
0010
0001
0010
,  // measure 30
0100
0100
0010
0010
,  // measure 31
1001
0100
0100
0010
,  // measure 32
1001
0010
0010
0100
,  // measure 33
0001
0010
0100
1000
,  // measure 34
0010
0010
0100
0100
,  // measure 35
0001
1000
0001
0001
,  // measure 36
1000
0001
1000
1000
,  // measure 37
0010
0100
1000
0100
,  // measure 38
0010
0100
0010
0010
,  // measure 39
0100
0010
1000
1000
,  // measure 40
0100
1000
0001
0001
,  // measure 41
0100
0010
0001
0010
,  // measure 42
0100
0100
0010
0010
,  // measure 43
0200
0000
0000
0000
,  // measure 44
0000
0000
0000
0300
,  // measure 45
0020
0000
0000
0000
,  // measure 46
0000
0000
0000
0030
,  // measure 47
1000
0100
0010
0010
,  // measure 48
0100
0002
0003
0010
,  // measure 49
0100
0010
0100
0001
,  // measure 50
0010
0010
0100
0100
,  // measure 51
0010
1000
0100
0001
,  // measure 52
0100
0020
0030
0100
,  // measure 53
0010
0100
0010
0010
,  // measure 54
0001
0010
0100
1000
,  // measure 55
0110
0000
0000
0000
,  // measure 56
0000
0000
0000
0000
,  // measure 57
1000
0000
0000
0110
,  // measure 58
1001
0010
0001
0010
,  // measure 59
0100
0100
0010
0010
,  // measure 60
1000
0100
0010
0100
,  // measure 61
0001
0010
0100
0010
,  // measure 62
1001
0100
1000
0100
,  // measure 63
0010
0100
0010
0001
,  // measure 64
0010
0100
0010
1000
,  // measure 65
0010
0010
0100
0100
,  // measure 66
0001
0010
0010
0100
,  // measure 67
0010
0100
0100
1000
,  // measure 68
0010
0100
0100
0010
,  // measure 69
0100
0001
1000
0010
,  // measure 70
0110
0000
0000
0000
;
